osu file format v13

[General]
AudioFilename: trhstr.mp3
AudioLeadIn: 0
PreviewTime: -1
Countdown: 1
SampleSet: None
StackLeniency: 0.7
Mode: 0
LetterboxInBreaks: 1
WidescreenStoryboard: 0

[Editor]
DistanceSpacing: 1.3
BeatDivisor: 4
GridSize: 16
TimelineZoom: 1

[Metadata]
Title:Legend of Dunkey Goes to Paris
TitleUnicode:Legend of Dunkey Goes to Paris
Artist:087Alfred
ArtistUnicode:087Alfred
Creator:Lolzep
Version:Insane
Source:
Tags:dunkey rmeix rap techno zelda legend of insane
BeatmapID:543637
BeatmapSetID:234364

[Difficulty]
HPDrainRate:9
CircleSize:4
OverallDifficulty:9
ApproachRate:9
SliderMultiplier:2
SliderTickRate:1

[Events]
//Background and Video events
0,0,"eiffel_tower_paris_landscapes_night_seine_desktop_1920x1080_wallpaper.jpg",0,0
//Break Periods
//Storyboard Layer 0 (Background)
//Storyboard Layer 1 (Fail)
//Storyboard Layer 2 (Pass)
//Storyboard Layer 3 (Foreground)
//Storyboard Sound Samples
//Background Colour Transformations
3,100,163,162,255

[TimingPoints]
164,428.571428571429,4,2,0,100,1,0

[HitObjects]
256,80,13878,5,0,0:0:0:0:
256,304,14092,1,0,0:0:0:0:
208,192,14306,2,0,L|320:192,1,100,8|0,0:0|0:0,0:0:0:0:
288,96,14735,5,0,0:0:0:0:
224,288,14949,1,0,0:0:0:0:
208,192,15163,2,0,L|320:192,1,100,8|0,0:0|0:0,0:0:0:0:
320,112,15592,5,0,0:0:0:0:
192,272,15806,1,0,0:0:0:0:
208,192,16020,2,0,L|320:192,1,100,8|0,0:0|0:0,0:0:0:0:
320,144,16449,5,0,0:0:0:0:
192,240,16663,1,0,0:0:0:0:
208,192,16877,2,0,L|320:192,1,100,8|0,0:0|0:0,0:0:0:0:
368,112,17306,6,0,P|400:160|384:224,1,100
320,256,17735,1,0,0:0:0:0:
160,144,17949,1,0,0:0:0:0:
288,64,18164,1,2,0:0:0:0:
160,256,18378,1,2,0:0:0:0:
384,96,18592,1,2,0:0:0:0:
272,176,18806,1,2,0:0:0:0:
352,112,19021,6,0,P|400:144|384:224,1,100
336,288,19450,2,0,P|304:336|224:320,1,100
160,272,19878,2,8,P|112:240|128:160,1,100
176,96,20306,2,8,P|208:48|288:64,1,100,8|12,0:0|0:0,0:0:0:0:
160,320,20735,5,0,0:0:0:0:
256,48,20949,1,0,0:0:0:0:
336,320,21164,1,0,0:0:0:0:
96,160,21378,1,0,0:0:0:0:
416,160,21592,1,0,0:0:0:0:
256,176,21806,2,0,L|256:304,1,100
256,276,22235,1,0,0:0:0:0:
176,304,22449,5,0,0:0:0:0:
121,268,22664,1,0,0:0:0:0:
92,210,22878,1,0,0:0:0:0:
94,145,23092,1,0,0:0:0:0:
127,90,23306,1,2,0:0:0:0:
183,58,23521,1,2,0:0:0:0:
248,57,23735,1,2,0:0:0:0:
256,192,23949,5,6,0:0:0:0:
336,304,24164,5,0,0:0:0:0:
390,268,24379,1,0,0:0:0:0:
419,210,24593,1,0,0:0:0:0:
417,145,24807,1,0,0:0:0:0:
384,90,25021,1,2,0:0:0:0:
328,58,25236,1,2,0:0:0:0:
263,57,25450,1,2,0:0:0:0:
256,192,25664,5,2,0:0:0:0:
256,192,25878,12,4,27592,0:0:0:0:
160,176,27806,5,0,0:0:0:0:
256,128,28021,1,2,0:0:0:0:
256,160,28128,1,2,0:0:0:0:
256,192,28235,1,2,0:0:0:0:
256,288,28449,1,8,0:0:0:0:
256,96,28664,1,8,0:0:0:0:
256,288,28878,1,8,0:0:0:0:
416,96,29306,5,8,0:0:0:0:
394,129,29413,1,0,0:0:0:0:
370,161,29520,1,0,0:0:0:0:
340,188,29627,1,0,0:0:0:0:
304,203,29734,1,8,0:0:0:0:
264,197,29841,1,0,0:0:0:0:
229,178,29948,1,0,0:0:0:0:
194,160,30056,1,0,0:0:0:0:
155,161,30163,1,8,0:0:0:0:
126,188,30270,1,0,0:0:0:0:
106,222,30377,1,0,0:0:0:0:
90,259,30484,1,0,0:0:0:0:
76,296,30591,1,12,0:0:0:0:
256,80,31021,6,0,P|256:144|304:176,1,100,8|0,0:0|0:0,0:0:0:0:
256,176,31449,2,0,P|256:240|208:272,1,100,8|0,0:0|0:0,0:0:0:0:
256,288,31878,1,0,0:0:0:0:
384,80,32092,1,0,0:0:0:0:
128,80,32306,1,8,0:0:0:0:
256,64,32735,5,0,0:0:0:0:
256,192,32949,1,0,0:0:0:0:
256,320,33164,1,0,0:0:0:0:
256,64,33378,1,0,0:0:0:0:
256,192,33592,1,4,0:0:0:0:
256,64,34021,1,4,0:0:0:0:
96,64,34449,6,0,L|208:144,1,100,8|0,0:0|0:0,0:0:0:0:
416,64,34878,2,0,L|304:144,1,100,8|0,0:0|0:0,0:0:0:0:
416,320,35306,2,0,L|304:240,1,100,8|0,0:0|0:0,0:0:0:0:
96,320,35735,2,0,L|208:240,1,100,8|0,0:0|0:0,0:0:0:0:
112,80,36164,5,8,0:0:0:0:
368,48,36378,1,0,0:0:0:0:
400,304,36592,1,8,0:0:0:0:
144,336,36806,1,0,0:0:0:0:
256,192,37021,1,12,0:0:0:0:
256,64,37449,6,0,L|256:192,1,100
80,192,37878,1,0,0:0:0:0:
256,192,38092,1,0,0:0:0:0:
416,192,38306,1,0,0:0:0:0:
256,64,38521,1,8,0:0:0:0:
256,128,38949,1,8,0:0:0:0:
256,320,39378,6,0,L|256:208,1,100
256,64,39806,1,0,0:0:0:0:
96,320,40021,1,10,0:0:0:0:
400,320,40235,1,10,0:0:0:0:
256,192,40449,1,10,0:0:0:0:
208,64,40878,6,4,L|352:64,1,100
128,304,41949,5,8,0:0:0:0:
256,64,42164,1,8,0:0:0:0:
384,304,42378,1,8,0:0:0:0:
256,192,43021,5,4,0:0:0:0:
384,192,43664,5,8,0:0:0:0:
144,320,43878,1,8,0:0:0:0:
144,64,44092,1,8,0:0:0:0:
256,192,44735,5,4,0:0:0:0:
256,320,45378,5,8,0:0:0:0:
128,80,45592,1,8,0:0:0:0:
384,80,45806,1,8,0:0:0:0:
256,192,46449,5,2,0:0:0:0:
256,192,46664,1,2,0:0:0:0:
144,64,47306,5,8,0:0:0:0:
144,320,47520,1,8,0:0:0:0:
384,192,47734,1,8,0:0:0:0:
128,192,48378,5,0,0:0:0:0:
256,192,48592,2,0,P|352:160|320:48,1,200,8|0,0:0|0:0,0:0:0:0:
320,64,49235,1,0,0:0:0:0:
128,64,49449,1,0,0:0:0:0:
256,192,49664,1,0,0:0:0:0:
384,320,49878,1,8,0:0:0:0:
128,192,50092,1,8,0:0:0:0:
256,320,50306,1,8,0:0:0:0:
256,192,50521,12,4,51592,0:0:0:0:
256,192,51806,5,0,0:0:0:0:
256,320,52021,1,0,0:0:0:0:
432,64,52449,1,0,0:0:0:0:
256,64,52664,2,0,P|192:96|208:144,1,100,8|0,0:0|0:0,0:0:0:0:
256,192,53092,1,0,0:0:0:0:
64,192,53306,1,8,0:0:0:0:
256,192,53521,1,8,0:0:0:0:
432,192,53735,1,8,0:0:0:0:
256,192,54164,12,4,55021,0:0:0:0:
256,64,55664,6,0,L|256:176,1,100,8|0,0:0|0:0,0:0:0:0:
256,192,56092,1,0,0:0:0:0:
416,96,56306,1,0,0:0:0:0:
256,192,56521,1,0,0:0:0:0:
80,304,56735,1,8,0:0:0:0:
80,96,56949,1,8,0:0:0:0:
416,304,57164,1,8,0:0:0:0:
256,192,57592,12,4,58449,0:0:0:0:
368,96,59092,5,0,0:0:0:0:
256,272,59306,1,0,0:0:0:0:
144,96,59521,1,0,0:0:0:0:
368,208,59735,1,0,0:0:0:0:
256,48,59949,1,8,0:0:0:0:
144,208,60164,1,8,0:0:0:0:
256,160,60592,1,8,0:0:0:0:
256,192,61021,12,4,61878,0:0:0:0:
80,112,62521,6,2,L|176:32,1,100
256,192,62949,1,8,0:0:0:0:
432,112,64235,6,2,L|336:32,1,100
256,192,64663,1,8,0:0:0:0:
432,272,65949,6,2,L|336:352,1,100
256,192,66377,1,8,0:0:0:0:
80,272,67664,6,2,L|176:352,1,100
256,192,68092,12,6,69592,0:0:0:0:
