osu file format v10

[General]
AudioFilename: worldendddddddddd.mp3
AudioLeadIn: 0
PreviewTime: 40563
Countdown: 0
SampleSet: Normal
StackLeniency: 0.7
Mode: 0
LetterboxInBreaks: 1

[Editor]
Bookmarks: 13521,67605,81126,121690,135211,148732,175774
DistanceSpacing: 0.8
BeatDivisor: 4
GridSize: 8

[Metadata]
Title:worldenddominator
TitleUnicode:worldenddominator
Artist:07th Expansion
ArtistUnicode:07th Expansion
Creator:Natteke
Version:La Cataline
Source:Umineko no Naku Koro ni
Tags:zts Rue La Cataline LC
BeatmapID:176342
BeatmapSetID:57032

[Difficulty]
HPDrainRate:7
CircleSize:4
OverallDifficulty:7
ApproachRate:8
SliderMultiplier:1.6
SliderTickRate:1

[Events]
//Background and Video events
0,0,"bg.jpg"
//Break Periods
2,121890,133193
//Storyboard Layer 0 (Background)
//Storyboard Layer 1 (Fail)
//Storyboard Layer 2 (Pass)
//Storyboard Layer 3 (Foreground)
//Storyboard Sound Samples
//Background Colour Transformations
3,100,163,162,255

[TimingPoints]
0,422.535211267606,4,1,0,40,1,0
13732,-100,4,1,0,20,0,0
26302,-100,4,2,0,20,0,0
26514,-100,4,1,0,35,0,0
27042,-100,4,1,0,35,0,0
27676,-100,4,1,0,25,0,0
27781,-100,4,1,0,35,0,0
28204,-100,4,1,0,25,0,0
28415,-100,4,1,0,35,0,0
29366,-100,4,1,0,25,0,0
29471,-100,4,1,0,35,0,0
31584,-100,4,1,0,25,0,0
31901,-100,4,1,0,35,0,0
32640,-100,4,1,0,25,0,0
32852,-100,4,1,0,35,0,0
34330,-100,4,1,0,30,0,0
34647,-100,4,1,0,35,0,0
37077,-100,4,1,0,55,0,0
39718,-100,4,2,0,45,0,0
40563,-100,4,1,0,55,0,0
40774,-100,4,2,0,35,0,0
40880,-100,4,1,0,55,0,0
41619,-100,4,2,0,25,0,0
41725,-100,4,1,0,55,0,0
43309,-100,4,2,0,25,0,0
43415,-100,4,1,0,55,0,0
46690,-100,4,2,0,35,0,0
46795,-100,4,1,0,55,0,0
50070,-100,4,2,0,25,0,0
50176,-100,4,1,0,55,0,0
52288,-100,4,1,0,45,0,0
52711,-133.333333333333,4,1,0,45,0,0
53450,-133.333333333333,4,2,0,35,0,0
53556,-133.333333333333,4,1,0,45,0,0
54084,-100,4,1,0,55,0,0
54295,-100,4,2,0,55,0,0
54401,-100,4,1,0,55,0,0
55457,-100,4,2,0,55,0,0
55669,-100,4,1,0,55,0,0
56302,-100,4,2,0,55,0,0
56936,-100,4,1,0,55,0,0
57676,-100,4,2,0,55,0,0
57781,-100,4,1,0,55,0,0
58098,-100,4,2,0,55,0,0
58204,-100,4,1,0,55,0,0
61901,-100,4,2,0,35,0,0
62007,-100,4,1,0,55,0,0
63063,-100,4,2,0,55,0,0
63697,-100,4,1,0,55,0,0
64753,-100,4,2,0,55,0,0
65387,-100,4,1,0,55,0,0
67605,-100,4,1,0,65,0,0
70352,-100,4,2,0,45,0,0
70457,-100,4,1,0,65,0,0
72042,-100,4,2,0,45,0,0
72147,-100,4,1,0,65,0,0
77112,-100,4,2,0,45,0,0
77218,-100,4,1,0,65,0,0
78802,-100,4,2,0,45,0,0
78908,-100,4,1,0,65,0,0
80492,-100,4,2,0,65,0,0
80704,-100,4,1,0,65,0,0
81443,-100,4,2,0,65,0,0
81549,-100,4,1,0,65,0,0
81654,-100,4,2,0,65,0,0
81866,-100,4,1,0,65,0,0
83133,-100,4,2,0,65,0,0
83239,-100,4,1,0,65,0,0
83450,-100,4,2,0,65,0,0
83556,-100,4,1,0,65,0,0
83873,-100,4,2,0,65,0,0
83978,-100,4,1,0,65,0,0
85563,-100,4,2,0,65,0,0
85669,-100,4,1,0,65,0,0
86514,-100,4,2,0,65,0,0
86619,-100,4,1,0,65,0,0
86725,-100,4,2,0,55,0,0
86936,-100,4,1,0,55,0,0
87570,-100,4,2,0,55,0,0
87676,-100,4,1,0,55,0,0
88943,-100,4,2,0,55,0,0
89049,-100,4,1,0,55,0,0
90633,-100,4,2,0,55,0,0
90739,-100,4,1,0,55,0,0
92323,-100,4,2,0,55,0,0
92429,-100,4,1,0,55,0,0
93591,-100,4,2,1,55,0,0
93697,-100,4,1,0,55,0,0
93908,-100,4,1,0,30,0,0
94119,-100,4,1,0,45,0,0
94225,-100,4,1,0,50,0,0
94330,-100,4,1,0,55,0,0
94436,-100,4,1,0,60,0,0
94542,-100,4,1,0,65,0,0
94647,-100,4,1,0,60,0,0
101302,-100,4,2,0,60,0,0
101408,-100,4,1,0,60,0,0
102464,-100,4,2,0,40,0,0
102570,-100,4,1,0,60,0,0
106690,-100,4,2,0,40,0,0
106795,-100,4,1,0,60,0,0
107007,-100,4,2,0,50,0,0
107218,-100,4,1,0,60,0,0
107429,-100,4,2,0,60,0,0
107640,-100,4,1,0,60,0,0
108802,-100,4,2,0,60,0,0
108908,-100,4,1,0,60,0,0
109225,-100,4,2,0,60,0,0
109330,-100,4,1,0,60,0,0
110915,-100,4,2,0,60,0,0
111021,-100,4,1,0,60,0,0
112183,-100,4,2,0,60,0,0
112288,-100,4,1,0,60,0,0
112605,-100,4,2,0,60,0,0
112711,-100,4,1,0,60,0,0
117570,-100,4,2,0,60,0,0
117781,-100,4,1,0,60,0,0
119683,-100,4,1,0,80,0,0
131725,-100,4,2,0,5,0,0
133943,-100,4,2,0,25,0,0
134366,-100,4,2,0,55,0,0
134718,-100,4,1,0,55,0,0
134894,-100,4,2,0,55,0,0
135211,-200,4,1,0,55,0,0
135316,-133.333333333333,4,1,0,35,0,0
141549,-133.333333333333,4,1,0,25,0,0
141971,-200,4,2,0,45,0,0
142605,-200,4,1,0,25,0,0
142711,-200,4,1,0,65,0,0
142922,-133.333333333333,4,1,0,35,0,0
143873,-133.333333333333,4,1,0,40,0,0
143978,-133.333333333333,4,1,0,35,0,0
145246,-133.333333333333,4,2,0,55,0,0
145457,-133.333333333333,4,1,0,25,0,0
146091,-133.333333333333,4,2,0,45,0,0
146302,-133.333333333333,4,1,0,35,0,0
147042,-66.6666666666667,4,2,0,55,0,0
147147,-66.6666666666667,4,1,0,55,0,0
148098,-66.6666666666667,4,1,0,95,0,0
148732,-100,4,1,0,85,0,0
161514,-100,4,2,0,85,0,0
161725,-100,4,1,0,85,0,0
162042,-100,4,2,0,85,0,0
162147,-100,4,1,0,85,0,0
174401,-100,4,2,0,85,0,0
174612,-100,4,1,0,85,0,0
175140,-100,4,2,0,85,0,0
175246,-100,4,1,0,85,0,0
176619,-100,4,1,0,55,0,0
176830,-100,4,2,0,35,0,0
177253,-133.333333333333,4,1,0,15,0,0
177992,-133.333333333333,4,2,0,15,0,0
178521,-133.333333333333,4,1,0,25,0,0
178838,-133.333333333333,4,1,0,15,0,0
179894,-133.333333333333,4,1,0,25,0,0
180528,-133.333333333333,4,1,0,15,0,0
181373,-133.333333333333,4,2,0,15,0,0
181901,-133.333333333333,4,1,0,25,0,0
182218,-133.333333333333,4,1,0,15,0,0
183063,-133.333333333333,4,2,0,15,0,0
183274,-133.333333333333,4,1,0,25,0,0
183908,-133.333333333333,4,1,0,15,0,0
184753,-133.333333333333,4,2,0,15,0,0
184964,-133.333333333333,4,1,0,15,0,0
185070,-133.333333333333,4,1,0,25,0,0
185176,-133.333333333333,4,1,0,15,0,0
185281,-133.333333333333,4,1,0,25,0,0
185598,-133.333333333333,4,1,0,15,0,0
186126,-133.333333333333,4,1,0,25,0,0
186232,-133.333333333333,4,1,0,15,0,0
186443,-133.333333333333,4,2,0,15,0,0
186760,-133.333333333333,4,1,0,25,0,0
187288,-133.333333333333,4,1,0,15,0,0
187711,-133.333333333333,4,1,0,25,0,0
188028,-133.333333333333,4,1,0,15,0,0
188133,-133.333333333333,4,2,0,15,0,0
188661,-133.333333333333,4,1,0,25,0,0
188978,-133.333333333333,4,1,0,15,0,0
189718,-133.333333333333,4,1,0,15,0,0
190140,-133.333333333333,4,1,0,25,0,0
190669,-133.333333333333,4,1,0,15,0,0
190880,-133.333333333333,4,2,0,15,0,0
191197,-133.333333333333,4,1,0,25,0,0
191302,-133.333333333333,4,1,0,15,0,0
192042,-133.333333333333,4,1,0,25,0,0
192359,-133.333333333333,4,1,0,15,0,0
192570,-133.333333333333,4,2,0,15,0,0
192781,-133.333333333333,4,1,0,15,0,0
193309,-133.333333333333,4,2,0,15,0,0
193415,-133.333333333333,4,1,0,25,0,0
194049,-133.333333333333,4,1,0,15,0,0
194577,-133.333333333333,4,1,0,25,0,0
194683,-133.333333333333,4,1,0,15,0,0
195000,-133.333333333333,4,2,0,15,0,0
195105,-133.333333333333,4,1,0,15,0,0
195316,-133.333333333333,4,1,0,25,0,0
195739,-133.333333333333,4,1,0,15,0,0
195950,-133.333333333333,4,2,0,15,0,0
196161,-133.333333333333,4,1,0,15,0,0
196584,-133.333333333333,4,2,0,15,0,0
196795,-133.333333333333,4,1,0,25,0,0
197429,-133.333333333333,4,1,0,20,0,0
198274,-133.333333333333,4,2,0,15,0,0
198697,-133.333333333333,4,1,0,20,0,0
198802,-133.333333333333,4,1,0,30,0,0
199225,-133.333333333333,4,1,0,20,0,0
199330,-133.333333333333,4,2,0,20,0,0
199542,-133.333333333333,4,1,0,30,0,0
200070,-133.333333333333,4,2,0,20,0,0
200176,-133.333333333333,4,1,0,30,0,0
201021,-133.333333333333,4,1,0,40,0,0
201549,-133.333333333333,4,1,0,30,0,0
201866,-100,4,1,0,60,0,0
203133,-100,4,1,0,45,0,0
203239,-100,4,1,0,50,0,0
203345,-100,4,1,0,55,0,0
203450,-100,4,1,0,60,0,0
203661,422.535211267606,4,1,0,60,1,1
237463,-66.6666666666667,4,1,0,60,0,1
237886,-66.6666666666667,4,2,0,60,0,1
237991,-66.6666666666667,4,1,0,60,0,1
238203,-66.6666666666667,4,2,0,60,0,1
238308,-66.6666666666667,4,1,0,60,0,1
238520,-66.6666666666667,4,2,0,60,0,1
238625,-66.6666666666667,4,1,0,60,0,1
238837,-66.6666666666667,4,2,0,60,0,1
238942,-66.6666666666667,4,2,0,60,0,0

[Colours]
Combo1 : 255,255,255
Combo2 : 173,255,95
Combo3 : 255,88,100
Combo4 : 255,94,55
Combo5 : 17,254,176

[HitObjects]
56,344,13521,1,0,0:0:0
288,328,13838,1,0,0:0:0
288,328,13943,2,0,B|304:240,1,80,0|0,0:0|0:0,0:0:0
408,80,14366,2,0,B|446:161|398:233,1,160,0|8,0:0|0:0,0:0:0
248,136,15000,2,0,B|289:139|337:147,1,80,0|0,0:0|0:0,0:0:0
408,80,15422,1,0,0:0:0
264,248,15633,2,0,B|223:245|175:237,1,80,0|0,0:0|0:0,0:0:0
72,184,16056,1,0,0:0:0
248,136,16267,1,0,0:0:0
248,136,16373,1,0,0:0:0
248,136,16478,2,0,B|245:105|240:88,2,40,0|0|0,0:0|0:0|0:0,0:0:0
72,184,16901,5,0,0:0:0
56,80,17112,1,0,0:0:0
72,184,17323,2,0,B|74:225|82:273,1,80,0|8,0:0|0:0,0:0:0
240,272,17746,1,0,0:0:0
240,272,17957,2,0,B|424:289,1,160,0|0,0:0|0:0,0:0:0
384,80,18591,2,0,B|384:120|392:176,1,80,0|0,0:0|0:0,0:0:0
389,159,18908,1,0,0:0:0
389,159,19014,1,0,0:0:0
488,88,19225,1,8,0:0:0
272,112,19436,2,2,B|88:95,1,160,0|2,0:0|0:0,0:0:0
80,208,20070,1,2,0:0:0
80,208,20176,1,0,0:0:0
80,208,20281,6,2,B|48:272|72:336,1,120,2|0,0:0|0:0,0:0:0
68,325,20704,1,0,0:0:0
184,96,20915,2,0,B|192:184,1,80,2|0,0:0|0:0,0:0:0
304,304,21338,1,2,0:0:0
304,304,21549,2,0,B|311:224,1,80,2|0,0:0|0:0,0:0:0
416,72,21971,2,2,B|448:136|424:200,1,120,2|0,0:0|0:0,0:0:0
427,188,22394,1,2,0:0:0
304,136,22605,1,8,0:0:0
184,96,22816,2,2,B|96:104,1,80,0|2,0:0|0:0,0:0:0
92,106,23133,1,0,0:0:0
80,108,23239,1,0,0:0:0
68,109,23345,1,0,0:0:0
56,111,23450,1,0,0:0:0
200,192,23661,5,2,0:0:0
80,240,23873,2,2,B|80:271|72:319,1,80,0|0,0:0|0:0,0:0:0
312,136,24295,1,2,0:0:0
200,192,24507,2,2,B|199:223|208:272,1,80,2|0,0:0|0:0,0:0:0
312,136,24929,2,2,B|311:167|319:215,1,80,0|2,0:0|0:0,0:0:0
424,80,25352,2,2,B|424:111|416:159,1,80,2|0,0:0|0:0,0:0:0
312,296,25774,2,2,B|312:264|319:216,1,80,2|10,0:0|0:0,0:0:0
416,160,26197,21,4,0:0:0
448,320,26408,1,4,0:0:0
272,312,26619,1,0,0:0:0
96,304,26830,1,0,0:0:0
80,304,26936,1,0,0:0:0
64,304,27042,6,2,B|24:248|64:168,1,120,4|0,0:0|0:0,0:0:0
54,189,27464,2,2,B|146:190,1,80,2|8,0:0|0:0,0:0:0
216,128,27887,1,2,0:0:0
272,216,28098,1,0,0:0:0
192,272,28309,1,0,0:0:0
272,216,28521,2,2,B|432:208,1,160,2|2,0:0|0:0,0:0:0
360,24,29154,2,0,B|360:64|352:104,1,80,2|8,0:0|0:0,0:0:0
264,296,29577,2,0,B|264:256|272:216,1,80,2|0,0:0|0:0,0:0:0
264,184,29894,1,0,0:0:0
248,152,30000,1,2,0:0:0
232,120,30105,1,0,0:0:0
216,88,30211,1,0,0:0:0
120,216,30422,6,2,B|80:208|32:208,1,80
264,296,30845,1,0,0:0:0
112,240,31056,1,10,0:0:0
264,296,31267,2,0,B|312:288|343:288,1,80,0|2,0:0|0:0,0:0:0
234,80,31690,2,0,B|240:116|240:160,1,80,8|2,0:0|0:0,0:0:0
456,288,32112,2,0,B|464:144,1,120,2|0,0:0|0:0,0:0:0
463,168,32535,1,2,0:0:0
312,160,32746,1,8,0:0:0
160,152,32957,2,0,B|72:144,1,80,2|0,0:0|0:0,0:0:0
73,143,33274,1,0,0:0:0
66,141,33380,1,10,0:0:0
59,140,33485,1,0,0:0:0
52,136,33591,1,0,0:0:0
45,132,33697,1,0,0:0:0
38,128,33802,6,2,B|16:184|32:256,1,120,0|0,0:0|0:0,0:0:0
29,246,34225,1,0,0:0:0
192,336,34436,2,0,B|200:296|192:256,1,80,8|0,0:0|0:0,0:0:0
192,256,34753,1,0,0:0:0
192,256,34859,1,8,0:0:0
336,248,35070,1,8,0:0:0
464,240,35281,1,0,0:0:0
464,240,35387,1,0,0:0:0
464,240,35492,22,10,B|486:184|470:112,1,120,8|0,0:0|0:0,0:0:0
473,122,35915,1,0,0:0:0
344,120,36126,1,8,0:0:0
473,122,36338,1,0,0:0:0
336,248,36549,1,8,0:0:0
331,279,36654,1,0,0:0:0
324,310,36760,1,8,0:0:0
318,341,36866,1,0,0:0:0
311,371,36971,1,0,0:0:0
192,256,37183,6,2,B|136:296|56:256,1,120,12|0,0:0|0:0,0:0:0
77,266,37605,2,0,B|78:174,1,80,0|2,0:0|0:0,0:0:0
328,56,38028,2,2,B|384:16|464:56,1,120,2|0,0:0|0:0,0:0:0
443,46,38450,2,2,B|442:138,1,80,2|0,0:0|0:0,0:0:0
432,352,38873,5,12,0:0:0
432,352,39823,5,2,0:0:0
432,352,39929,1,8,0:0:0
96,368,40140,1,0,0:0:0
96,368,40246,1,8,0:0:0
256,320,40563,22,0,B|240:280|240:232,1,80,6|4,0:0|0:0,0:0:0
264,48,40985,2,0,B|247:87|213:121,1,80,2|0,0:0|0:0,0:0:0
48,168,41408,2,2,B|88:168|136:192,1,80,2|8,0:0|0:0,0:0:0
125,187,41725,1,0,0:0:0
125,187,41830,1,8,0:0:0
243,238,42042,6,2,B|312:216|336:272|400:248,1,160
440,168,42676,1,8,0:0:0
488,248,42887,1,2,0:0:0
488,248,42992,1,0,0:0:0
488,248,43098,2,2,B|480:288|480:328,1,80,0|2,0:0|0:0,0:0:0
168,360,43520,1,10,0:0:0
128,264,43732,1,0,0:0:0
223,224,43943,5,2,0:0:0
256,320,44154,1,2,0:0:0
304,144,44365,5,8,0:0:0
336,45,44577,1,2,0:0:0
112,200,44788,1,0,0:0:0
112,200,45000,2,2,B|32:208,1,80,2|8,0:0|0:0,0:0:0
256,320,45422,1,2,0:0:0
352,240,45633,22,2,B|448:248,1,80,2|0,0:0|0:0,0:0:0
288,120,46056,1,0,0:0:0
208,240,46267,1,10,0:0:0
344,320,46478,2,2,B|356:280|352:240,1,80,4|12,0:0|0:0,0:0:0
216,161,46901,2,0,B|200:201|208:240,1,80,10|2,0:0|0:0,0:0:0
192,272,47218,1,2,0:0:0
176,304,47323,6,2,B|0:312,2,160,6|10|2,0:0|0:0|0:0,0:0:0
288,328,48380,2,2,B|324:350|374:333,1,80,0|10,0:0|0:0,0:0:0
504,208,48802,2,2,B|468:186|427:200,1,80,2|0,0:0|0:0,0:0:0
472,344,49225,1,2,0:0:0
424,176,49436,2,2,B|424:136|418:97,1,80,8|2,0:0|0:0,0:0:0
256,48,49859,2,6,B|256:88|262:127,1,80,0|8,0:0|0:0,0:0:0
152,232,50281,1,10,0:0:0
152,232,50703,6,2,B|72:240,1,80,2|2,0:0|0:0,0:0:0
344,208,51126,2,0,B|422:222,1,80,8|2,0:0|0:0,0:0:0
320,320,51549,1,0,0:0:0
344,208,51760,2,2,B|368:168|344:104,1,80,2|8,0:0|0:0,0:0:0
224,48,52182,1,2,0:0:0
224,48,52288,1,0,0:0:0
224,48,52393,6,2,B|200:88|224:152,1,80,6|0,0:0|0:0,0:0:0
232,272,52816,1,8,0:0:0
72,336,53028,6,2,B|101:279|85:207,1,120.000004577637,6|4,0:0|0:0,0:0:0
40,128,53661,5,8,0:0:0
240,224,53873,1,0,0:0:0
240,224,53978,1,0,0:0:0
240,224,54084,6,0,B|272:224|320:231,1,80,0|2,0:0|0:0,0:0:0
455,128,54507,2,8,B|456:168|448:208,1,80,8|0,0:0|0:0,0:0:0
256,64,54929,2,0,B|384:80,1,120
376,78,55352,1,8,0:0:0
448,208,55563,1,2,0:0:0
296,208,55774,2,0,B|176:198,1,120
176,198,56197,1,8,0:0:0
80,144,56408,1,2,0:0:0
80,144,56514,1,8,0:0:0
32,248,56725,1,10,0:0:0
32,248,56830,1,4,0:0:0
128,296,57042,1,8,0:0:0
32,248,57253,1,8,0:0:0
144,312,57464,6,2,B|240:322,1,80,4|2,0:0|0:0,0:0:0
416,304,57887,2,0,B|337:297,1,80,10|2,0:0|0:0,0:0:0
80,144,58309,2,2,B|160:137,1,80,0|2,0:0|0:0,0:0:0
192,128,58626,1,0,0:0:0
224,120,58732,1,8,0:0:0
471,173,58943,2,2,B|392:160|312:168,1,160,6|2,0:0|0:0,0:0:0
80,184,59577,2,0,B|79:150|83:101,1,80,0|10,0:0|0:0,0:0:0
192,128,60000,2,2,B|179:207|187:287,1,160,2|10,0:0|0:0,0:0:0
408,312,60633,1,0,0:0:0
408,312,60739,1,0,0:0:0
408,312,60845,6,0,B|417:271|416:216,1,80,4|0,0:0|0:0,0:0:0
319,80,61267,2,0,B|318:119|328:160,1,80,8|0,0:0|0:0,0:0:0
256,320,61690,2,0,B|246:279|248:224,1,80,0|8,0:0|0:0,0:0:0
160,136,62112,2,0,B|161:174|151:215,1,80,8|0,0:0|0:0,0:0:0
0,336,62535,2,0,B|56:328|128:344,1,120
119,342,62957,1,8,0:0:0
256,320,63169,1,2,0:0:0
256,320,63274,1,8,0:0:0
248,184,63485,1,8,0:0:0
248,184,63591,1,4,0:0:0
120,208,63802,1,8,0:0:0
248,184,64014,1,8,0:0:0
396,153,64225,22,0,B|420:209|408:272,1,120,4|0,0:0|0:0,0:0:0
408,271,64647,1,8,0:0:0
256,320,64859,1,2,0:0:0
256,320,64964,1,8,0:0:0
144,256,65175,1,8,0:0:0
144,256,65281,1,4,0:0:0
184,120,65492,1,8,0:0:0
288,184,65704,1,0,0:0:0
288,184,65809,1,0,0:0:0
288,184,65915,6,0,B|344:192|424:192,1,120,4|0,0:0|0:0,0:0:0
344,280,66338,2,0,B|288:272|224:272,1,120,4|0,0:0|0:0,0:0:0
112,304,66760,1,0,0:0:0
352,112,66971,1,8,0:0:0
80,184,67183,1,0,0:0:0
80,184,67288,1,0,0:0:0
184,152,67500,1,0,0:0:0
184,152,67605,5,4,0:0:0
232,352,67922,1,0,0:0:0
232,352,68028,1,0,0:0:0
328,344,68239,1,0,0:0:0
424,360,68450,2,0,B|440:288|432:200,1,160,0|8,0:0|0:0,0:0:0
416,80,69084,1,0,0:0:0
416,80,69190,1,0,0:0:0
416,80,69295,6,0,B|288:64,1,120,0|0,0:0|0:0,0:0:0
296,64,69718,2,0,B|292:107|296:160,1,80,0|0,0:0|0:0,0:0:0
328,344,70140,2,0,B|330:307|326:264,1,80,0|4,0:0|0:0,0:0:0
216,232,70563,2,0,B|144:232|56:240,2,160,8|4|0,0:0|0:0|0:0,0:0:0
328,344,71619,21,0,0:0:0
440,264,71830,2,0,B|448:224|456:184,1,80,0|4,0:0|0:0,0:0:0
249,328,72253,2,0,B|289:336|328:344,1,80,8|0,0:0|0:0,0:0:0
304,224,72676,2,0,B|320:136|304:64,2,160,4|0|4,0:0|0:0|0:0,0:0:0
144,248,73732,1,0,0:0:0
144,248,73838,1,0,0:0:0
144,248,73943,2,8,B|136:316|136:376,1,120
136,367,74366,5,4,0:0:0
224,128,74683,1,8,0:0:0
224,128,74788,1,0,0:0:0
328,120,75000,1,8,0:0:0
432,112,75211,2,0,B|416:184|424:272,2,160,0|8|4,0:0|0:0|0:0,0:0:0
224,128,76373,5,8,0:0:0
224,128,76479,2,0,B|181:124|128:128,1,80,0|8,0:0|0:0,0:0:0
64,248,76901,2,0,B|100:250|143:246,1,80,0|4,0:0|0:0,0:0:0
264,320,77323,1,8,0:0:0
264,320,77429,1,0,0:0:0
264,320,77535,1,0,0:0:0
264,320,77746,6,4,B|352:312|424:328,1,160,4|8,0:0|0:0,0:0:0
456,232,78380,1,0,0:0:0
352,208,78591,2,0,B|304:208|272:192,1,80,0|4,0:0|0:0,0:0:0
208,48,79014,2,0,B|193:77|193:125,1,80,8|0,0:0|0:0,0:0:0
24,232,79436,2,0,B|96:216|184:232,1,160,0|8,0:0|0:0,0:0:0
256,320,80070,1,8,0:0:0
368,336,80281,2,0,B|416:336|448:352,2,80,0|4|8,0:0|0:0|0:0,0:0:0
416,224,80915,1,0,0:0:0
416,224,81021,1,0,0:0:0
416,224,81126,22,0,B|448:168|416:96,1,120,4|0,0:0|0:0,0:0:0
421,108,81549,1,8,0:0:0
320,144,81760,1,0,0:0:0
224,176,81971,2,0,B|176:256|240:352,1,160,0|8,0:0|0:0,0:0:0
120,328,82605,1,0,0:0:0
120,328,82711,1,0,0:0:0
120,328,82816,22,0,B|51:324|0:328,1,120,0|0,0:0|0:0,0:0:0
16,224,83239,2,0,B|24:128,1,80,8|0,0:0|0:0,0:0:0
144,160,83661,2,0,B|136:64,1,80,0|4,0:0|0:0,0:0:0
256,208,84084,2,0,B|264:112,1,80,4|0,0:0|0:0,0:0:0
272,296,84507,6,0,B|312:296|352:304,1,80,4|0,0:0|0:0,0:0:0
280,112,84929,2,0,B|279:148|272:192,1,80,8|0,0:0|0:0,0:0:0
472,128,85352,2,0,B|432:128|392:120,1,80,0|4,0:0|0:0,0:0:0
120,232,85774,2,0,B|160:232|200:240,1,80,8|0,0:0|0:0,0:0:0
488,216,86196,22,2,B|432:208|341:225,1,120,4|0,0:0|0:0,0:0:0
344,224,86619,1,8,0:0:0
248,344,86831,1,2,0:0:0
217,333,86936,1,8,0:0:0
184,334,87042,1,0,0:0:0
153,342,87147,1,0,0:0:0
124,356,87253,1,0,0:0:0
0,360,87464,1,0,0:0:0
0,360,87570,1,2,0:0:0
8,200,87781,1,8,0:0:0
8,200,87887,22,0,B|16:120,1,80,4|2,0:0|0:0,0:0:0
232,144,88309,2,0,B|144:136,1,80,4|2,0:0|0:0,0:0:0
312,248,88732,2,0,B|312:280|321:328,1,80,2|12,0:0|0:0,0:0:0
472,207,89154,2,0,B|472:167|464:128,1,80,10|0,0:0|0:0,0:0:0
208,288,89577,6,2,B|80:280,1,120,4|2,0:0|0:0,0:0:0
89,280,90000,1,4,0:0:0
32,176,90211,1,2,0:0:0
128,120,90422,2,0,B|130:73|128:8,1,80,2|12,0:0|0:0,0:0:0
344,96,90845,2,0,B|341:142|344:208,1,80,10|0,0:0|0:0,0:0:0
232,336,91267,22,2,B|235:270|224:191,1,120,6|2,0:0|0:0,0:0:0
227,216,91690,2,0,B|180:222|136:232,1,80,12|2,0:0|0:0,0:0:0
368,280,92112,2,2,B|408:270|464:264,1,80,6|4,0:0|0:0,0:0:0
344,96,92535,2,0,B|304:107|252:111,1,80,10|0,0:0|0:0,0:0:0
56,144,92957,38,2,B|40:208|58:262,1,120
58,262,93380,2,0,B|144:280,1,80
168,285,93697,1,0,0:0:0
199,291,93802,1,4,0:0:0
368,312,94014,1,8,0:0:0
381,283,94119,1,0,0:0:0
388,251,94225,1,0,0:0:0
390,219,94330,1,0,0:0:0
389,186,94436,1,0,0:0:0
385,154,94542,1,0,0:0:0
375,123,94647,21,4,0:0:0
128,192,94964,1,0,0:0:0
128,192,95070,2,0,B|224:184,1,80,10|0,0:0|0:0,0:0:0
375,123,95492,1,0,0:0:0
207,185,95704,1,2,0:0:0
336,304,95915,2,10,B|464:312,1,120,12|0,0:0|0:0,0:0:0
455,311,96338,5,4,0:0:0
192,32,96654,1,0,0:0:0
192,32,96760,2,0,B|200:104,2,53.3333333333333,10|0|0,0:0|0:0|0:0,0:0:0
176,272,97183,1,0,0:0:0
312,192,97394,1,2,0:0:0
152,272,97605,2,2,B|24:264,1,120,8|0,0:0|0:0,0:0:0
33,264,98028,5,4,0:0:0
344,304,98345,1,0,0:0:0
344,304,98450,2,0,B|384:296|456:296,1,80,10|0,0:0|0:0,0:0:0
312,192,98873,2,0,B|328:152|336:104,1,80,0|2,0:0|0:0,0:0:0
240,272,99295,2,0,B|200:272|160:264,1,80,8|2,0:0|0:0,0:0:0
136,32,99718,38,0,B|160:88|152:168,1,120,4|0,0:0|0:0,0:0:0
64,208,100140,2,0,B|56:184|56:128,2,53.3333333333333,8|0|0,0:0|0:0|0:0,0:0:0
240,272,100563,2,0,B|248:248|248:192,2,53.3333333333333,0|0|8,0:0|0:0|0:0,0:0:0
432,312,100985,2,0,B|416:280|424:216,1,80,0|8,0:0|0:0,0:0:0
422,233,101302,1,2,0:0:0
422,233,101408,6,0,B|464:192|448:112,1,120,4|0,0:0|0:0,0:0:0
440,88,101830,1,8,0:0:0
328,160,102042,1,0,0:0:0
440,88,102253,2,0,B|344:80,1,80,0|4,0:0|0:0,0:0:0
152,168,102676,2,0,B|248:160,1,80,8|0,0:0|0:0,0:0:0
256,32,103098,6,0,B|160:32,1,80,0|0,0:0|0:0,0:0:0
24,40,103521,2,0,B|24:73|33:119,1,80,8|0,0:0|0:0,0:0:0
64,352,103943,2,0,B|64:318|54:272,1,80,8|0,0:0|0:0,0:0:0
168,264,104366,1,0,0:0:0
200,264,104471,1,0,0:0:0
232,272,104577,1,0,0:0:0
264,288,104683,1,0,0:0:0
296,304,104788,6,0,B|328:248|312:160,1,120,4|0,0:0|0:0,0:0:0
315,187,105211,2,0,B|416:168,1,80,8|0,0:0|0:0,0:0:0
480,56,105633,2,0,B|379:75,1,80,0|0,0:0|0:0,0:0:0
256,48,106056,2,0,B|192:32,2,53.3333333333333,8|0|0,0:0|0:0|0:0,0:0:0
40,136,106478,22,0,B|72:112|120:120,1,80,4|4,0:0|0:0,0:0:0
104,256,106901,2,0,B|72:280|24:272,1,80,0|4,0:0|0:0,0:0:0
240,272,107323,1,0,0:0:0
376,296,107535,1,12,0:0:0
383,265,107640,1,0,0:0:0
388,233,107746,1,0,0:0:0
391,201,107852,1,0,0:0:0
391,169,107957,1,0,0:0:0
390,136,108063,1,0,0:0:0
385,104,108169,5,0,0:0:0
24,160,108485,5,0,0:0:0
24,160,108591,2,0,B|16:256,1,80,8|2,0:0|0:0,0:0:0
144,160,109014,2,0,B|137:80,1,80,0|2,0:0|0:0,0:0:0
152,192,109436,2,2,B|226:200|311:198,1,160
480,160,110176,1,0,0:0:0
456,160,110281,6,0,B|424:168|384:160,2,53.3333333333333,8|0|0,0:0|0:0|0:0,0:0:0
464,280,110704,2,0,B|416:264|375:262,1,80,0|4,0:0|0:0,0:0:0
312,192,111126,1,0,0:0:0
307,157,111232,1,0,0:0:0
307,121,111338,1,0,0:0:0
312,86,111443,1,0,0:0:0
322,51,111549,22,0,B|282:43|242:43,1,80,4|0,0:0|0:0,0:0:0
224,232,111971,2,0,B|217:276|216:312,1,80,8|2,0:0|0:0,0:0:0
40,336,112394,2,0,B|80:336|120:344,1,80,0|2,0:0|0:0,0:0:0
392,368,112816,2,0,B|352:368|312:360,1,80,8|2,0:0|0:0,0:0:0
112,152,113239,6,2,B|168:160|259:143,1,120,6|0,0:0|0:0,0:0:0
360,184,113661,2,0,B|368:208|384:256,2,53.3333333333333,10|0|0,0:0|0:0|0:0,0:0:0
472,152,114084,2,0,B|480:128|486:100,2,53.3333333333333,0|0|10,0:0|0:0|0:0,0:0:0
384,64,114507,1,2,0:0:0
349,57,114612,1,0,0:0:0
313,54,114718,1,8,0:0:0
278,56,114823,1,0,0:0:0
243,59,114929,5,2,0:0:0
8,184,115246,1,2,0:0:0
8,184,115352,2,0,B|16:104,1,80,8|2,0:0|0:0,0:0:0
0,320,115774,2,0,B|88:328,1,80,6|0,0:0|0:0,0:0:0
192,144,116197,2,0,B|192:112|192:64,1,80,10|0,0:0|0:0,0:0:0
296,208,116619,2,0,B|296:256|304:328,1,120,2|0,0:0|0:0,0:0:0
400,312,117042,6,2,B|432:304|480:296,2,53.3333333333333,8|2|2,0:0|0:0|0:0,0:0:0
400,152,117465,1,6,0:0:0
296,192,117676,1,4,0:0:0
176,240,117887,1,8,0:0:0
176,240,117992,1,0,0:0:0
176,240,118098,1,2,0:0:0
64,288,118310,22,0,B|61:334|64:400,1,80,4|2,0:0|0:0,0:0:0
296,192,118732,2,2,B|362:189|441:200,1,120,4|2,0:0|0:0,0:0:0
416,197,119155,2,0,B|424:152|424:104,1,80,12|2,0:0|0:0,0:0:0
320,296,119577,1,0,0:0:0
320,296,119683,1,2,0:0:0
224,264,119894,1,0,0:0:0
224,264,120000,5,2,0:0:0
248,96,120211,1,0,0:0:0
152,112,120422,1,2,0:0:0
296,192,120633,1,2,0:0:0
120,216,120845,2,0,B|136:212|144:208,2,20,0|0|0,0:0|0:0|0:0,0:0:0
84,223,121056,5,8,0:0:0
52,239,121161,1,0,0:0:0
21,258,121267,1,0,0:0:0
27,222,121373,1,8,0:0:0
28,186,121478,1,0,0:0:0
23,150,121584,1,0,0:0:0
13,115,121690,1,4,0:0:0
240,288,133943,6,2,B|252:292|264:296,7,20
240,288,134366,2,0,B|193:292|152:288,1,80,4|0,0:0|0:0,0:0:0
40,272,134788,1,0,0:0:0
9,240,134894,1,0,0:0:0
6,195,135000,1,2,0:0:0
31,159,135105,1,2,0:0:0
65,147,135211,22,0,B|127:152|201:147,1,120,4|8,0:0|0:0,0:0:0
384,112,136056,1,8,0:0:0
384,112,136161,1,0,0:0:0
400,304,136478,1,8,0:0:0
304,304,136690,1,8,0:0:0
304,304,136795,1,0,0:0:0
200,320,137007,1,8,0:0:0
200,320,137112,1,0,0:0:0
120,368,137323,5,0,0:0:0
240,248,137535,1,8,0:0:0
80,208,137746,1,0,0:0:0
80,208,137852,1,8,0:0:0
304,304,138169,2,0,B|330:301|384:304,1,60.0000022888184
400,312,138486,2,0,B|424:272|424:224,1,90.0000034332277,8|8,0:0|0:0,0:0:0
365,101,139014,2,0,B|352:128|352:160,1,60.0000022888184,0|8,0:0|0:0,0:0:0
253,202,139436,2,0,B|253:170|240:144,1,60.0000022888184,12|0,0:0|0:0,0:0:0
224,128,139718,6,0,B|201:123,2,20.0000007629395,0|0|8,0:0|0:0|0:0,0:0:0
160,208,140070,1,0,0:0:0
160,208,140176,1,8,0:0:0
64,232,140387,1,0,0:0:0
64,232,140492,1,8,0:0:0
256,328,140704,1,0,0:0:0
352,320,140915,1,8,0:0:0
432,352,141126,1,0,0:0:0
432,352,141232,1,8,0:0:0
280,136,141549,2,2,B|264:136,6,15.0000005722046
280,136,141971,38,0,B|222:140|160:135,1,120,4|8,0:0|0:0,0:0:0
16,112,142816,1,4,0:0:0
40,320,143239,2,0,B|66:317|120:320,1,60.0000022888184
136,304,143556,2,0,B|169:301|227:296,1,90.0000034332277,8|8,0:0|0:0,0:0:0
408,312,144084,1,0,0:0:0
248,288,144295,1,8,0:0:0
416,288,144507,1,8,0:0:0
424,264,144612,1,8,0:0:0
128,216,144929,6,0,B|200:208,1,60.0000022888184,0|8,0:0|0:0,0:0:0
448,208,145352,1,4,0:0:0
448,208,145774,1,0,0:0:0
336,144,145985,1,0,0:0:0
392,328,146197,1,4,0:0:0
272,256,146408,2,0,B|248:256,2,20.0000007629395
220,245,146620,1,0,0:0:0
187,251,146725,1,0,0:0:0
155,261,146831,1,0,0:0:0
117,283,146937,5,4,0:0:0
88,316,147042,1,0,0:0:0
65,354,147148,1,0,0:0:0
66,309,147254,1,0,0:0:0
66,265,147359,1,0,0:0:0
53,212,147465,1,0,0:0:0
36,161,147570,1,0,0:0:0
10,112,147676,2,0,B|0:85,3,30.0000011444092
20,67,147887,2,0,B|38:30,2,30.0000011444092
192,40,148098,22,2,B|244:73|260:153|212:217,1,180.000006866455,0|8,0:0|0:0,0:0:0
224,328,148521,1,2,0:0:0
224,328,148732,6,0,B|92:315,1,133.333333333333,4|0,0:0|0:0,0:0:0
376,208,149154,2,0,B|392:112,1,80,2|0,0:0|0:0,0:0:0
208,88,149577,2,0,B|192:216,1,120,2|0,0:0|0:0,0:0:0
192,232,150000,5,2,0:0:0
376,240,150211,1,2,0:0:0
376,240,150422,54,2,B|432:248|512:240,1,120,0|0,0:0|0:0,0:0:0
240,304,150845,2,2,B|184:320|160:360,1,80,2|0,0:0|0:0,0:0:0
256,144,151267,2,2,B|248:80|224:48,1,80,2|0,0:0|0:0,0:0:0
120,96,151690,1,6,0:0:0
16,64,151901,1,2,0:0:0
0,216,152112,6,0,B|50:183|140:204,1,120,2|0,0:0|0:0,0:0:0
240,320,152535,1,2,0:0:0
360,296,152746,1,2,0:0:0
116,199,152957,2,2,B|208:184,1,80,0|2,0:0|0:0,0:0:0
201,197,153239,1,0,0:0:0
209,207,153309,1,0,0:0:0
217,217,153380,1,0,0:0:0
344,160,153591,1,2,0:0:0
360,296,153802,6,0,B|496:304,1,120,2|0,0:0|0:0,0:0:0
344,160,154225,2,2,B|424:160,1,80,2|0,0:0|0:0,0:0:0
264,48,154647,2,2,B|416:32,1,120
383,35,155070,1,0,0:0:0
112,208,155281,1,2,0:0:0
144,192,155387,1,0,0:0:0
176,176,155492,6,2,B|200:224|216:288,1,120,6|0,0:0|0:0,0:0:0
120,368,155915,2,0,B|80:360|41:359,1,80,2|0,0:0|0:0,0:0:0
0,248,156338,2,0,B|64:256|144:272,1,120,2|0,0:0|0:0,0:0:0
286,157,156760,2,2,B|238:149|208:144,1,80
448,176,157183,22,0,B|471:226|488:288,1,120,2|0,0:0|0:0,0:0:0
344,208,157605,2,2,B|367:250|384:280,1,80,2|0,0:0|0:0,0:0:0
184,152,158028,2,0,B|232:192|280:288,1,160,2|6,0:0|0:0,0:0:0
304,376,158661,1,0,0:0:0
24,312,158873,6,2,B|103:305,1,80,2|0,0:0|0:0,0:0:0
128,304,159190,1,0,0:0:0
152,304,159295,1,10,0:0:0
272,320,159507,1,2,0:0:0
384,344,159718,1,4,0:0:0
408,224,159929,2,0,B|440:216,3,26.6666666666667,2|0|0|0,0:0|0:0|0:0|0:0,0:0:0
272,320,160352,1,2,0:0:0
304,200,160563,6,0,B|320:144|296:72,1,120,2|0,0:0|0:0,0:0:0
299,81,160985,1,8,0:0:0
136,96,161197,1,2,0:0:0
299,81,161408,1,8,0:0:0
136,96,161619,1,4,0:0:0
160,288,161830,1,2,0:0:0
125,268,161936,1,0,0:0:0
85,260,162041,1,12,0:0:0
44,259,162147,1,0,0:0:0
8,264,162253,6,0,B|8:200|0:136,1,120,0|0,0:0|0:0,0:0:0
176,200,162675,2,0,B|212:216|272:216,1,80,10|0,0:0|0:0,0:0:0
400,224,163098,2,0,B|408:288|408:352,1,120,2|0,0:0|0:0,0:0:0
280,216,163521,21,2,0:0:0
400,200,163732,1,2,0:0:0
376,88,163943,22,2,B|320:96|240:88,1,120,0|8,0:0|0:0,0:0:0
176,200,164366,2,2,B|200:248|232:280,1,80,2|8,0:0|0:0,0:0:0
40,344,164788,2,2,B|32:280|19:267,1,80,2|0,0:0|0:0,0:0:0
7,242,165105,1,0,0:0:0
2,214,165211,1,6,0:0:0
80,112,165422,1,2,0:0:0
176,200,165633,6,0,B|226:233|316:212,1,120,2|0,0:0|0:0,0:0:0
352,144,166056,1,10,0:0:0
352,304,166267,1,2,0:0:0
448,168,166478,1,0,0:0:0
448,272,166690,1,2,0:0:0
448,272,166760,1,0,0:0:0
448,272,166830,1,0,0:0:0
448,272,166900,1,8,0:0:0
352,144,167112,1,2,0:0:0
176,200,167323,22,2,B|168:336,1,120,2|8,0:0|0:0,0:0:0
48,160,167746,2,2,B|48:240,1,80,2|8,0:0|0:0,0:0:0
264,56,168168,2,2,B|280:208,1,120
288,208,168591,1,8,0:0:0
304,240,168697,1,0,0:0:0
320,272,168802,1,2,0:0:0
336,304,168908,1,0,0:0:0
352,336,169013,6,2,B|416:336|488:352,1,120,6|0,0:0|0:0,0:0:0
376,112,169436,2,2,B|375:151|367:191,1,80,8|0,0:0|0:0,0:0:0
192,224,169859,2,2,B|184:288|168:368,1,120,2|0,0:0|0:0,0:0:0
288,120,170281,2,2,B|240:112|210:107,1,80,8|2,0:0|0:0,0:0:0
56,352,170704,22,2,B|112:340|176:340,1,120,2|8,0:0|0:0,0:0:0
96,128,171127,2,0,B|97:167|105:207,1,80,0|8,0:0|0:0,0:0:0
296,224,171550,2,2,B|304:288|320:368,1,120,2|0,0:0|0:0,0:0:0
416,336,171971,1,4,0:0:0
512,325,172183,1,0,0:0:0
512,325,172288,1,0,0:0:0
512,325,172394,21,0,0:0:0
96,128,172711,1,0,0:0:0
96,128,172816,1,10,0:0:0
72,272,173028,1,2,0:0:0
176,168,173239,1,0,0:0:0
32,192,173450,2,0,B|24:160,3,26.6666666666667,2|0|0|0,0:0|0:0|0:0|0:0,0:0:0
160,256,173873,1,2,0:0:0
192,272,173978,1,0,0:0:0
224,288,174084,5,0,0:0:0
352,280,174295,1,0,0:0:0
224,136,174507,5,4,0:0:0
96,128,174718,1,0,0:0:0
320,184,174929,1,4,0:0:0
348,184,175035,1,0,0:0:0
375,184,175140,1,4,0:0:0
403,184,175246,1,0,0:0:0
431,184,175352,1,0,0:0:0
458,184,175457,1,0,0:0:0
488,184,175563,1,8,0:0:0
352,280,175774,37,4,0:0:0
224,136,175985,2,0,B|219:175,1,40,8|0,0:0|0:0,0:0:0
152,296,176302,2,0,B|147:256,1,40,8|0,0:0|0:0,0:0:0
32,56,176619,5,4,0:0:0
32,56,177042,1,4,0:0:0
224,136,177464,2,0,B|233:128|240:112,2,30.0000011444092,8|0|0,0:0|0:0|0:0,0:0:0
208,240,177887,1,0,0:0:0
312,256,178098,2,0,B|448:272,1,120.000004577637,4|0,0:0|0:0,0:0:0
431,270,178732,1,0,0:0:0
320,144,178943,1,8,0:0:0
320,144,179049,1,0,0:0:0
320,144,179154,1,0,0:0:0
320,144,179260,1,0,0:0:0
320,144,179366,1,0,0:0:0
208,240,179577,2,0,B|208:272|224:296,1,60.0000022888184,8|0,0:0|0:0,0:0:0
144,128,180000,5,0,0:0:0
48,192,180211,1,0,0:0:0
112,296,180422,1,0,0:0:0
208,240,180633,1,8,0:0:0
144,128,180845,2,0,B|153:120|160:104,2,30.0000011444092,0|8|0,0:0|0:0|0:0,0:0:0
256,128,181267,1,8,0:0:0
376,144,181479,2,0,B|400:112|384:40,1,90.0000034332277,4|0,0:0|0:0,0:0:0
376,32,181901,1,0,0:0:0
256,128,182113,1,0,0:0:0
336,248,182323,1,8,0:0:0
448,160,182535,2,0,B|454:176|464:184,2,30.0000011444092,0|8|0,0:0|0:0|0:0,0:0:0
312,232,182957,5,8,0:0:0
216,208,183168,1,4,0:0:0
192,304,183379,1,0,0:0:0
288,328,183591,21,0,0:0:0
128,232,183802,1,0,0:0:0
0,360,184014,1,8,0:0:0
24,248,184225,2,0,B|14:240|8:224,2,30.0000011444092,0|8|0,0:0|0:0|0:0,0:0:0
104,344,184647,1,8,0:0:0
128,232,184858,1,4,0:0:0
132,221,184964,1,0,0:0:0
135,209,185069,5,0,0:0:0
136,197,185175,1,0,0:0:0
137,185,185280,1,0,0:0:0
104,72,185492,1,0,0:0:0
137,185,185704,2,0,B|240:176,1,90.0000034332277,8|0,0:0|0:0,0:0:0
226,177,186126,1,0,0:0:0
320,160,186338,1,8,0:0:0
408,144,186549,1,2,0:0:0
408,144,186654,1,2,0:0:0
408,144,186760,6,0,B|416:176|416:208,1,60.0000022888184
328,296,187183,1,0,0:0:0
424,344,187394,1,8,0:0:0
416,224,187605,1,0,0:0:0
328,296,187816,2,0,B|248:312,1,60.0000022888184,0|8,0:0|0:0,0:0:0
96,272,188239,2,0,B|200:256,1,90.0000034332277,4|0,0:0|0:0,0:0:0
184,258,188661,1,0,0:0:0
272,184,188873,1,0,0:0:0
168,144,189084,1,8,0:0:0
272,184,189295,2,2,B|280:128|288:48,2,120.000004577637,0|8|0,0:0|0:0|0:0,0:0:0
192,256,190352,5,0,0:0:0
256,336,190563,1,0,0:0:0
328,272,190774,1,8,0:0:0
272,184,190985,2,0,B|192:168,1,60.0000022888184,4|0,0:0|0:0,0:0:0
120,144,191408,1,8,0:0:0
24,128,191619,2,8,B|16:176|24:240,1,90.0000034332277
21,217,192042,1,0,0:0:0
40,328,192253,1,0,0:0:0
120,264,192464,1,8,0:0:0
40,328,192676,2,0,B|48:337|64:344,2,30.0000011444092,4|0|0,0:0|0:0|0:0,0:0:0
120,264,193098,2,0,B|152:264|176:248,1,60.0000022888184,8|4,0:0|0:0,0:0:0
240,176,193521,21,0,0:0:0
280,96,193732,1,0,0:0:0
368,72,193943,1,0,0:0:0
440,128,194154,2,0,B|464:160|448:232,1,90.0000034332277,8|0,0:0|0:0,0:0:0
451,214,194577,1,0,0:0:0
416,304,194788,2,0,B|344:296,1,60.0000022888184,8|4,0:0|0:0,0:0:0
232,336,195211,1,0,0:0:0
232,336,195422,2,0,B|304:344,1,60.0000022888184
160,264,195844,1,8,0:0:0
136,360,196056,2,0,B|120:366|112:376,2,30.0000011444092,4|8|0,0:0|0:0|0:0,0:0:0
232,304,196478,5,8,0:0:0
216,208,196689,1,4,0:0:0
128,224,196900,1,0,0:0:0
144,320,197112,21,0,0:0:0
280,248,197323,1,0,0:0:0
152,152,197535,2,0,B|146:92|144:24,1,120.000004577637,8|0,0:0|0:0,0:0:0
256,72,198168,1,8,0:0:0
352,136,198379,1,2,0:0:0
356,147,198485,1,2,0:0:0
359,159,198590,21,2,0:0:0
360,171,198696,1,0,0:0:0
361,183,198801,1,0,0:0:0
376,288,199014,2,0,B|384:360,1,60.0000022888184,0|8,0:0|0:0,0:0:0
288,248,199436,1,4,0:0:0
200,208,199647,1,0,0:0:0
288,248,199859,2,0,B|280:320,1,60.0000022888184,8|4,0:0|0:0,0:0:0
192,344,200281,5,4,0:0:0
200,208,200492,2,2,B|140:205|80:200,1,120.000004577637,0|8,0:0|0:0,0:0:0
24,112,201126,1,2,0:0:0
120,96,201337,2,2,B|208:96,1,60.0000022888184,0|10,0:0|0:0,0:0:0
288,80,201760,1,2,0:0:0
296,192,201971,5,4,0:0:0
424,176,202182,1,2,0:0:0
416,40,202394,1,0,0:0:0
288,48,202605,1,2,0:0:0
296,192,202816,2,2,B|296:296|304:352,1,160,2|2,0:0|0:0,0:0:0
339,342,203345,1,0,0:0:0
374,337,203450,1,0,0:0:0
410,335,203556,1,0,0:0:0
445,337,203661,5,6,0:0:0
168,200,203977,1,0,0:0:0
168,200,204083,2,2,B|128:200|64:208,1,80
160,72,204506,1,0,0:0:0
288,64,204717,1,2,0:0:0
296,192,204928,1,8,0:0:0
312,88,205139,22,2,B|397:84|472:72,1,160
472,73,205668,1,0,0:0:0
472,73,205773,1,0,0:0:0
448,192,205984,1,2,0:0:0
432,320,206196,2,0,B|336:328,1,80,2|0,0:0|0:0,0:0:0
248,200,206618,1,10,0:0:0
312,352,206830,1,0,0:0:0
256,176,207041,6,2,B|197:178|136:183,1,120,6|0,0:0|0:0,0:0:0
40,232,207463,1,2,0:0:0
136,184,207675,1,0,0:0:0
272,136,207886,1,2,0:0:0
184,72,208097,1,2,0:0:0
136,184,208308,1,8,0:0:0
224,239,208520,2,2,B|312:232|383:233,1,160,2|2,0:0|0:0,0:0:0
384,233,209048,1,0,0:0:0
384,233,209153,1,0,0:0:0
464,144,209365,1,2,0:0:0
344,104,209576,2,0,B|304:112|224:112,1,120,10|0,0:0|0:0,0:0:0
32,120,209999,2,0,B|33:165|31:199,1,80,8|0,0:0|0:0,0:0:0
32,216,210315,1,0,0:0:0
32,232,210421,6,2,B|74:234|136:240,1,80,4|0,0:0|0:0,0:0:0
192,152,210844,1,2,0:0:0
192,152,211055,2,2,B|188:114|186:72,1,80,0|8,0:0|0:0,0:0:0
264,248,211477,1,2,0:0:0
264,248,211689,2,0,B|306:249|360:264,1,80,2|0,0:0|0:0,0:0:0
192,328,212111,2,2,B|120:328|8:336,1,160,0|8,0:0|0:0,0:0:0
304,344,212745,1,2,0:0:0
408,368,212956,1,8,0:0:0
432,264,213168,1,2,0:0:0
328,240,213379,2,0,B|324:209|320:176,2,40,8|0|2,0:0|0:0|0:0,0:0:0
32,248,213801,5,4,0:0:0
144,272,214013,1,2,0:0:0
264,288,214223,2,2,B|368:296,1,80,8|2,0:0|0:0,0:0:0
456,192,214646,1,2,0:0:0
352,176,214857,1,0,0:0:0
320,48,215069,2,0,B|400:48,1,80,10|2,0:0|0:0,0:0:0
208,128,215491,22,0,B|200:48,1,80,2|0,0:0|0:0,0:0:0
272,312,215914,1,2,0:0:0
296,200,216125,1,8,0:0:0
192,240,216337,1,0,0:0:0
272,312,216548,1,8,0:0:0
303,320,216654,1,0,0:0:0
328,336,216759,2,0,B|391:338|463:330,1,120,4|0,0:0|0:0,0:0:0
480,248,217182,6,2,B|488:208|488:168,1,80,4|2,0:0|0:0,0:0:0
288,184,217604,2,2,B|120:192,2,160,2|8|2,0:0|0:0|0:0,0:0:0
400,176,218661,1,0,0:0:0
168,288,218872,2,0,B|48:296,1,120,8|0,0:0|0:0,0:0:0
48,295,219294,1,0,0:0:0
272,312,219506,1,8,0:0:0
376,344,219717,2,0,B|464:352,1,80,8|2,0:0|0:0,0:0:0
352,232,220139,1,0,0:0:0
352,232,220245,1,0,0:0:0
352,232,220351,1,2,0:0:0
256,208,220562,6,0,B|256:160|264:112,1,80,12|0,0:0|0:0,0:0:0
261,128,220879,1,0,0:0:0
261,128,220984,1,0,0:0:0
384,104,221196,1,8,0:0:0
135,152,221407,2,2,B|128:264|128:312,1,160,8|2,0:0|0:0,0:0:0
320,328,222041,1,2,0:0:0
320,328,222252,6,0,B|440:336,1,120,8|0,0:0|0:0,0:0:0
336,208,222675,2,0,B|248:216,1,80,0|8,0:0|0:0,0:0:0
120,240,223097,2,2,B|128:120,1,120,8|0,0:0|0:0,0:0:0
232,24,223520,2,0,B|240:112,1,80,2|0,0:0|0:0,0:0:0
239,103,223837,1,0,0:0:0
239,103,223942,21,6,0:0:0
432,160,224259,1,0,0:0:0
432,160,224365,2,2,B|440:200|432:240,1,80,2|0,0:0|0:0,0:0:0
296,256,224787,1,10,0:0:0
160,272,224999,1,2,0:0:0
304,304,225210,2,0,B|400:312,1,80,8|2,0:0|0:0,0:0:0
224,176,225632,2,2,B|344:184,1,120,0|2,0:0|0:0,0:0:0
240,56,226055,2,2,B|152:64,1,80,0|2,0:0|0:0,0:0:0
32,224,226477,2,2,B|24:344,1,120,8|0,0:0|0:0,0:0:0
160,272,226900,2,0,B|152:208,2,40,8|0|0,0:0|0:0|0:0,0:0:0
176,376,227322,21,6,0:0:0
304,232,227639,1,0,0:0:0
304,232,227745,2,0,B|344:224|384:232,1,80,2|2,0:0|0:0,0:0:0
496,256,228168,2,2,B|512:168,1,80,8|2,0:0|0:0,0:0:0
510,177,228484,1,0,0:0:0
510,177,228590,1,8,0:0:0
224,144,228801,2,2,B|144:131|64:131,1,160
264,35,229435,2,2,B|176:27,1,80,4|2,0:0|0:0,0:0:0
232,280,229857,2,2,B|112:272,1,120,4|2,0:0|0:0,0:0:0
72,288,230280,1,8,0:0:0
336,336,230491,1,2,0:0:0
336,336,230597,1,0,0:0:0
336,336,230703,6,2,B|395:334|440:328,1,80,6|0,0:0|0:0,0:0:0
336,200,231125,1,8,0:0:0
237,120,231337,1,0,0:0:0
144,176,231548,1,2,0:0:0
88,72,231759,1,2,0:0:0
192,8,231970,1,8,0:0:0
237,120,232182,2,2,B|230:208|232:280,1,160,2|2,0:0|0:0,0:0:0
231,280,232710,1,0,0:0:0
231,280,232815,1,8,0:0:0
344,256,233027,1,6,0:0:0
232,320,233238,2,0,B|198:322|153:321,1,80,0|0,0:0|0:0,0:0:0
24,312,233661,1,4,0:0:0
24,312,233766,1,0,0:0:0
24,312,233872,1,8,0:0:0
32,184,234083,22,2,B|34:142|40:80,1,80,4|0,0:0|0:0,0:0:0
360,208,234506,1,10,0:0:0
288,128,234717,1,2,0:0:0
360,208,234928,2,2,B|398:212|440:214,1,80,0|0,0:0|0:0,0:0:0
288,128,235351,2,0,B|287:86|272:32,1,80,8|2,0:0|0:0,0:0:0
256,232,235773,2,2,B|192:232|137:245,1,120,4|0,0:0|0:0,0:0:0
136,245,236196,1,8,0:0:0
240,336,236407,1,0,0:0:0
272,327,236513,1,0,0:0:0
304,320,236618,2,0,B|310:291,2,20
337,322,236830,1,0,0:0:0
368,331,236935,1,0,0:0:0
399,341,237041,1,0,0:0:0
420,316,237146,1,0,0:0:0
504,224,237358,1,0,0:0:0
504,224,237463,53,0,0:0:0
352,120,237675,2,0,B|347:80|347:80|344:40,1,60.0000022888184,8|0,0:0|0:0,0:0:0
280,248,237991,2,0,B|320:243|320:243|352:240,1,60.0000022888184,8|0,0:0|0:0,0:0:0
160,208,238308,2,0,B|166:247|166:247|166:287,1,60.0000022888184,8|0,0:0|0:0,0:0:0
80,88,238625,2,0,B|120:87|120:87|160:80,1,60.0000022888184,8|0,0:0|0:0,0:0:0
56,320,238942,1,4,0:0:0
