osu file format v10

[General]
AudioFilename: worldendddddddddd.mp3
AudioLeadIn: 0
PreviewTime: 40563
Countdown: 0
SampleSet: Normal
StackLeniency: 0.7
Mode: 0
LetterboxInBreaks: 1

[Editor]
Bookmarks: 13521,67605,81126,94647,121690,135211,148732,175774
DistanceSpacing: 1
BeatDivisor: 2
GridSize: 8

[Metadata]
Title:worldenddominator
TitleUnicode:worldenddominator
Artist:07th Expansion
ArtistUnicode:07th Expansion
Creator:Natteke
Version:Easy
Source:Umineko no Naku Koro ni
Tags:zts Rue La Cataline LC
BeatmapID:172168
BeatmapSetID:57032

[Difficulty]
HPDrainRate:1
CircleSize:3
OverallDifficulty:1
ApproachRate:3
SliderMultiplier:0.9
SliderTickRate:1

[Events]
//Background and Video events
0,0,"bg.jpg"
//Break Periods
2,81326,93207
2,121890,133771
//Storyboard Layer 0 (Background)
//Storyboard Layer 1 (Fail)
//Storyboard Layer 2 (Pass)
//Storyboard Layer 3 (Foreground)
//Storyboard Sound Samples
//Background Colour Transformations
3,100,163,162,255

[TimingPoints]
0,422.535211267606,4,1,0,20,1,0
27042,-100,4,1,0,35,0,0
40563,-100,4,1,0,55,0,0
54084,-100,4,1,0,55,0,0
135211,-133.333333333333,4,1,0,25,0,0
148732,-100,4,1,0,65,0,0
203661,422.535211267606,4,1,0,60,1,0

[Colours]
Combo1 : 255,255,255
Combo2 : 173,255,95
Combo3 : 255,88,100
Combo4 : 255,94,55
Combo5 : 17,254,176

[HitObjects]
64,96,13521,6,0,B|140:105|248:119,1,180,4|0,0:0|0:0,0:0:0
336,128,14788,1,0,0:0:0
336,128,15211,2,0,B|289:211|292:310,1,180
208,264,16478,1,0,0:0:0
120,272,16901,6,0,B|70:283|24:301,2,90
232,200,18380,2,0,B|232:157|237:102,2,90
240,248,19436,2,0,B|342:243,1,90
416,232,20281,6,0,B|438:157|407:42,1,180
320,40,21549,1,0,0:0:0
152,104,22394,1,0,0:0:0
312,184,23239,1,0,0:0:0
392,224,23661,6,0,B|372:274|360:320,1,90
272,312,24507,2,0,B|165:298,1,90
96,288,25352,2,0,B|46:210|74:84|164:60,1,270
248,72,27042,5,4,0:0:0
424,80,27887,2,2,B|426:128|427:181,1,90
376,248,28732,1,0,0:0:0
288,272,29154,2,2,B|192:291,2,90
296,184,30422,5,0,0:0:0
128,128,31267,1,2,0:0:0
176,56,31690,1,2,0:0:0
256,96,32112,1,0,0:0:0
208,176,32535,1,2,0:0:0
128,128,32957,2,2,B|115:221,1,90
152,296,33802,6,0,B|359:299,1,180,0|2,0:0|0:0,0:0:0
416,320,35070,1,2,0:0:0
368,144,35915,1,2,0:0:0
280,144,36338,1,2,0:0:0
192,144,36760,1,2,0:0:0
96,296,37605,1,2,0:0:0
186,296,38028,6,2,B|201:196|186:107,1,180
256,192,39295,12,4,40563,0:0:0
184,144,41408,5,0,0:0:0
272,128,41830,2,0,B|356:106|458:103,1,180,8|8,0:0|0:0,0:0:0
488,184,43098,1,0,0:0:0
352,296,43943,5,4,0:0:0
176,272,44788,1,0,0:0:0
176,272,45211,2,8,B|181:193|209:94,1,180
288,56,46478,2,0,B|406:34,2,90,0|8|4,0:0|0:0|0:0,0:0:0
128,144,48169,5,0,0:0:0
128,144,48591,2,8,B|115:206|121:330,1,180
208,336,49859,1,0,0:0:0
296,336,50281,1,8,0:0:0
384,336,50704,5,4,0:0:0
392,160,51549,1,4,0:0:0
216,152,52394,1,4,0:0:0
216,328,53239,1,0,0:0:0
304,336,53661,1,0,0:0:0
394,336,54084,6,0,B|435:284|502:249,2,135,4|0|0,0:0|0:0|0:0,0:0:0
304,320,55774,2,0,B|152:288,2,135
360,248,57464,6,0,B|361:178|368:81,2,135
272,224,59154,2,0,B|198:220|126:211,2,135
352,184,60845,6,0,B|365:100|360:8,1,135
232,96,62112,1,0,0:0:0
232,96,62535,2,0,B|219:180|224:272,1,135
216,320,63591,1,0,0:0:0
304,312,64014,1,0,0:0:0
304,312,64225,6,0,B|399:299,1,90
480,280,65070,2,0,B|464:182,1,90
440,104,65915,2,4,B|352:122|255:130,1,180
176,136,67183,1,0,0:0:0
88,128,67605,6,2,B|51:209|77:321,1,180,6|2,0:0|0:0,0:0:0
256,296,69295,1,2,0:0:0
264,208,69718,1,2,0:0:0
248,120,70140,1,2,0:0:0
256,32,70563,1,2,0:0:0
344,56,70985,6,2,B|433:92|481:197|445:313,1,270
360,272,72676,1,4,0:0:0
184,256,73521,1,4,0:0:0
296,120,74366,6,2,B|214:100|108:106,1,180,6|2,0:0|0:0,0:0:0
64,176,75633,1,2,0:0:0
72,264,76056,1,2,0:0:0
160,256,76478,1,2,0:0:0
152,168,76901,1,0,0:0:0
240,160,77323,1,2,0:0:0
328,152,77746,6,2,B|434:150|516:135,1,180,6|2,0:0|0:0,0:0:0
472,56,79014,1,2,0:0:0
384,64,79436,2,2,B|361:154|397:250,1,180
336,312,80704,1,0,0:0:0
248,320,81126,1,4,0:0:0
64,96,94647,6,2,B|167:74|118:157|265:110,1,180,6|0,0:0|0:0,0:0:0
328,104,95915,1,10,0:0:0
416,88,96338,2,2,B|433:142|436:289,1,180
352,304,97605,1,8,0:0:0
280,248,98028,6,2,B|180:252|90:270,1,180
104,176,99295,1,10,0:0:0
192,160,99718,2,2,B|203:92|203:39,2,90,2|10|2,0:0|0:0|0:0,0:0:0
280,160,100985,1,10,0:0:0
368,144,101408,6,2,B|376:237|409:326,1,180
320,336,102676,1,10,0:0:0
232,320,103098,2,2,B|104:304,2,90,2|10|2,0:0|0:0|0:0,0:0:0
272,240,104366,1,10,0:0:0
328,176,104788,6,2,B|347:130|331:55,2,90,2|10|2,0:0|0:0|0:0,0:0:0
200,208,106267,2,2,B|181:162|197:87,2,90,2|2|2,0:0|0:0|0:0,0:0:0
232,240,107323,2,6,B|320:256,1,90,4|14,0:0|0:0,0:0:0
408,272,108169,6,6,B|472:202|458:77|369:12,1,270,6|10,0:0|0:0,0:0:0
296,40,109859,2,2,B|201:58,1,90,2|10,0:0|0:0,0:0:0
240,136,110704,2,2,B|335:154,1,90,2|10,0:0|0:0,0:0:0
344,240,111549,6,2,B|273:256|220:273,1,90,2|10,0:0|0:0,0:0:0
168,280,112394,2,0,B|144:245|152:184,1,90,2|10,0:0|0:0,0:0:0
232,152,113239,2,6,B|320:120|406:94,1,180,6|6,0:0|0:0,0:0:0
456,168,114507,1,8,0:0:0
416,248,114929,6,2,B|317:252|226:251,1,180,4|2,0:0|0:0,0:0:0
144,248,116197,1,10,0:0:0
88,184,116619,1,2,0:0:0
96,96,117042,1,8,0:0:0
176,56,117464,1,2,0:0:0
264,80,117887,1,10,0:0:0
304,160,118309,6,2,B|315:230|304:355,1,180,6|0,0:0|0:0,0:0:0
224,304,119577,1,0,0:0:0
136,280,120000,2,4,B|59:250|4:240,2,135
224,256,121690,1,4,0:0:0
48,96,135211,5,4,0:0:0
48,96,135633,2,0,B|28:154|42:181,1,67.5000025749208
80,208,136478,1,0,0:0:0
144,208,136901,2,0,B|224:208,1,67.5000025749208
280,208,137746,2,0,B|292:261|289:283,1,67.5000025749208
248,328,138591,5,0,0:0:0
184,296,139014,1,0,0:0:0
168,232,139436,1,0,0:0:0
200,168,139859,1,0,0:0:0
264,136,140281,2,0,B|321:137|381:142,2,101.250003862381
200,128,141971,5,4,0:0:0
184,264,142816,1,0,0:0:0
320,280,143661,1,4,0:0:0
336,144,144506,1,0,0:0:0
256,192,145352,12,6,148732,0:0:0
80,104,149577,6,2,B|156:98|266:94,1,180
408,192,151267,2,2,B|304:188|228:182,1,180
64,256,152957,6,0,B|45:297|63:346,1,90,2|2,0:0|0:0,0:0:0
152,320,153802,2,0,B|212:289|305:308,1,135,4|2,0:0|0:0,0:0:0
328,320,154647,2,0,B|399:335|459:304,1,135,4|2,0:0|0:0,0:0:0
464,256,155492,6,0,B|470:177|461:91,2,135,4|2|0,0:0|0:0|0:0,0:0:0
376,232,157183,2,0,B|276:218|217:227,2,135,4|2|0,0:0|0:0|0:0,0:0:0
424,152,158873,5,4,0:0:0
248,136,159718,1,4,0:0:0
88,152,160563,1,4,0:0:0
56,232,160985,1,4,0:0:0
144,264,161408,1,4,0:0:0
176,184,161830,1,4,0:0:0
248,128,162253,6,0,B|337:95,1,90,6|10,0:0|0:0,0:0:0
424,96,163098,2,2,B|443:171|446:243,1,135
416,264,163943,2,0,B|326:298,1,90,2|10,0:0|0:0,0:0:0
240,280,164788,2,2,B|170:252|98:296,1,135
80,320,165633,5,6,0:0:0
72,232,166056,2,0,B|70:169|79:39,1,180,2|2,0:0|0:0,0:0:0
168,40,167323,2,4,B|240:37|305:41,2,135,4|6|6,0:0|0:0|0:0,0:0:0
128,120,169014,5,6,0:0:0
216,120,169436,1,10,0:0:0
304,120,169859,1,2,0:0:0
392,120,170281,2,2,B|408:216,2,90,10|2|10,0:0|0:0|0:0,0:0:0
304,136,171549,2,0,B|239:122|224:227|147:207,1,180,2|6,0:0|0:0,0:0:0
112,80,173239,5,4,0:0:0
128,256,174084,1,4,0:0:0
304,240,174929,1,4,0:0:0
256,192,175352,12,4,176619,0:0:0
