osu file format v14

[General]
AudioFilename: Worldenddominator.mp3
AudioLeadIn: 0
PreviewTime: 99623
Countdown: 0
SampleSet: None
StackLeniency: 0.7
Mode: 0
LetterboxInBreaks: 1
WidescreenStoryboard: 0

[Editor]
DistanceSpacing: 0.9
BeatDivisor: 4
GridSize: 4
TimelineZoom: 1

[Metadata]
Title:worldenddominator (DT ver)
TitleUnicode:worldenddominator (DT ver)
Artist:07th Expansion
ArtistUnicode:07th Expansion
Creator:lahphnya
Version:Arles
Source:Umineko no naku koro ni
Tags:
BeatmapID:864055
BeatmapSetID:397287

[Difficulty]
HPDrainRate:4
CircleSize:4
OverallDifficulty:8.4
ApproachRate:10
SliderMultiplier:2.2
SliderTickRate:1

[Events]
//Background and Video events
0,0,"Konachan.com - 64278 frederica_bernkastel umineko_no_naku_koro_ni.jpg",0,0
//Break Periods
//Storyboard Layer 0 (Background)
//Storyboard Layer 1 (Fail)
//Storyboard Layer 2 (Pass)
//Storyboard Layer 3 (Foreground)
//Storyboard Sound Samples

[TimingPoints]
477,281.666866094993,4,1,0,50,1,0
481,-133.333333333333,4,1,0,50,0,0
9474,-100,4,1,0,50,0,0
54286,-90.9090909090909,4,1,0,50,0,0
81199,-133.333333333333,4,1,0,50,0,0
90170,-111.111111111111,4,1,0,50,0,0
96899,-100,4,1,0,50,0,0
98020,-86.9565217391304,4,1,0,50,0,0
117634,-66.6666666666667,4,1,0,50,0,0
118197,-133.333333333333,4,1,0,50,0,0
121569,-200,4,1,0,50,0,0
127230,563.332676111878,4,1,0,50,1,0
127230,-133.333333333333,4,1,0,50,0,0
134815,-66.6666666666667,4,1,0,50,0,0
135112,281.669512538743,4,1,0,50,1,0
135143,-100,4,1,0,50,0,0
158756,-66.6666666666667,4,1,0,50,0,0
163262,-80,4,1,0,50,0,0
177909,-100,4,1,0,50,0,0
186923,-86.9565217391304,4,1,0,50,0,0
222202,-66.6666666666667,4,1,0,50,0,0
222976,-133.333333333333,4,1,0,50,0,0
231990,-111.111111111111,4,1,0,50,0,0
238750,-100,4,1,0,50,0,0
240158,-83.3333333333333,4,1,0,50,0,0
241003,-76.9230769230769,4,1,0,50,0,0
258467,-66.6666666666667,4,1,0,50,0,0
259593,-133.333333333333,4,1,0,50,0,0
275649,-117.647058823529,4,1,0,50,0,0
276212,-90.9090909090909,4,1,0,50,0,0
277620,-83.3333333333333,4,1,0,50,0,0
300170,-57.1428571428571,4,1,0,50,0,0

[HitObjects]
368,196,477,6,0,P|384:248|384:304,1,82.5000031471254,2|0,0:0|0:0,0:0:0:0:
264,360,758,1,0,0:0:0:0:
144,272,899,2,0,P|208:264|248:256,1,82.5000031471254,2|0,0:0|0:0,0:0:0:0:
464,196,1181,2,0,P|408:192|348:184,1,82.5000031471254
232,28,1462,2,0,P|200:100|272:176,1,165.000006294251,2|0,0:0|0:0,0:0:0:0:
360,360,1885,2,0,P|380:288|380:256,1,82.5000031471254
256,140,2167,2,0,P|256:216|268:260,1,82.5000031471254,2|0,0:0|0:0,0:0:0:0:
488,60,2448,1,0,0:0:0:0:
344,112,2589,1,0,0:0:0:0:
440,160,2730,1,0,0:0:0:0:
388,12,2871,1,2,0:0:0:0:
260,128,3012,2,0,P|252:168|244:224,1,82.5000031471254
128,352,3293,5,2,0:0:0:0:
56,232,3434,2,0,P|48:172|56:136,1,82.5000031471254
300,200,3716,2,0,P|248:236|144:192,1,165.000006294251,2|0,0:0|0:0,0:0:0:0:
432,132,4138,2,0,B|448:160|448:160|444:240,1,82.5000031471254,2|0,0:0|0:0,0:0:0:0:
328,360,4420,2,0,B|312:332|312:332|316:252,1,82.5000031471254,2|0,0:0|0:0,0:0:0:0:
164,28,4702,2,0,B|180:56|180:56|176:136,1,82.5000031471254,2|0,0:0|0:0,0:0:0:0:
60,256,4983,2,0,B|44:228|44:228|48:148,1,82.5000031471254
352,200,5265,1,0,0:0:0:0:
392,280,5406,1,0,0:0:0:0:
192,236,5547,1,0,0:0:0:0:
200,328,5687,1,0,0:0:0:0:
364,296,5828,2,0,P|412:264|452:240,1,82.5000031471254
492,124,6110,2,0,L|440:120|388:116,1,82.5000031471254
204,144,6392,2,0,P|224:208|312:228,1,165.000006294251
288,144,6814,5,0,0:0:0:0:
124,208,6955,2,0,P|120:264|132:308,1,82.5000031471254
280,360,7237,2,0,P|288:296|280:244,1,82.5000031471254
200,160,7518,2,0,P|196:88|192:44,1,82.5000031471254
352,36,7800,1,0,0:0:0:0:
448,136,7941,1,0,0:0:0:0:
348,324,8082,1,0,0:0:0:0:
348,324,8222,1,0,0:0:0:0:
292,196,9490,6,0,P|376:216|468:108,1,220
336,32,9912,1,0,0:0:0:0:
32,164,10053,2,0,P|24:232|64:308,1,110
148,324,10335,1,0,0:0:0:0:
116,56,10476,1,0,0:0:0:0:
288,176,10617,2,0,P|288:236|276:300,1,110
184,376,10898,2,0,B|168:336|168:336|152:228,1,110
176,88,11180,1,0,0:0:0:0:
40,248,11321,1,0,0:0:0:0:
224,280,11462,1,0,0:0:0:0:
88,16,11602,1,0,0:0:0:0:
24,100,11743,6,0,P|80:140|128:172,1,110
300,120,12025,2,0,P|228:160|180:184,1,110
132,360,12307,2,0,P|144:260|148:224,1,110
164,40,12588,1,0,0:0:0:0:
224,264,12729,1,0,0:0:0:0:
440,152,12870,1,0,0:0:0:0:
268,176,13011,1,0,0:0:0:0:
272,192,13081,1,0,0:0:0:0:
276,208,13152,1,0,0:0:0:0:
151,333,13292,1,0,0:0:0:0:
128,228,13433,2,0,P|152:300|148:352,1,110
348,340,13715,2,0,P|412:328|464:320,1,110
192,120,13997,5,0,0:0:0:0:
236,352,14137,1,0,0:0:0:0:
372,124,14278,1,0,0:0:0:0:
352,356,14419,1,0,0:0:0:0:
40,204,14560,1,0,0:0:0:0:
296,208,14701,1,0,0:0:0:0:
136,88,14842,1,0,0:0:0:0:
128,344,14982,1,0,0:0:0:0:
132,332,15053,1,0,0:0:0:0:
136,320,15123,6,0,P|144:252|136:196,1,110
24,108,15405,2,0,P|104:108|160:88,1,110
492,208,15687,2,0,P|420:200|368:204,1,110
228,236,15968,1,0,0:0:0:0:
316,76,16109,1,0,0:0:0:0:
300,320,16250,5,0,0:0:0:0:
220,40,16391,1,0,0:0:0:0:
400,168,16532,1,0,0:0:0:0:
128,208,16672,1,0,0:0:0:0:
436,96,16813,2,0,P|432:172|424:240,1,110
312,340,17095,2,0,P|380:336|460:336,1,110
472,96,17377,6,0,P|372:108|336:108,1,110
32,200,17658,2,0,P|96:200|152:212,1,110
308,372,17940,2,0,P|308:296|304:232,1,110
336,144,18222,1,0,0:0:0:0:
356,156,18292,1,0,0:0:0:0:
376,168,18362,1,0,0:0:0:0:
392,180,18433,1,0,0:0:0:0:
416,192,18503,6,0,P|412:284|400:332,1,110
320,368,18714,1,0,0:0:0:0:
316,352,18785,2,0,P|240:328|192:336,1,110
116,364,19067,1,0,0:0:0:0:
208,192,19207,1,0,0:0:0:0:
16,204,19348,2,0,P|40:280|56:324,1,110
324,28,19630,6,0,P|320:112|316:164,1,110
176,108,19912,1,0,0:0:0:0:
384,208,20052,1,0,0:0:0:0:
480,84,20193,2,0,P|476:168|472:224,1,110
440,304,20475,2,0,P|376:312|312:288,1,110
160,360,20757,6,0,P|156:280|160:216,1,110
160,148,21038,1,0,0:0:0:0:
400,232,21179,1,0,0:0:0:0:
236,68,21320,1,0,0:0:0:0:
284,360,21461,1,0,0:0:0:0:
340,16,21602,1,0,0:0:0:0:
40,180,21742,1,0,0:0:0:0:
40,180,21813,1,0,0:0:0:0:
40,180,21883,2,0,P|108:164|184:180,1,110
472,240,22165,2,0,P|392:248|344:240,1,110
212,48,22447,1,0,0:0:0:0:
312,316,22587,1,0,0:0:0:0:
312,16,22728,1,0,0:0:0:0:
192,344,22869,1,0,0:0:0:0:
276,148,23010,5,0,0:0:0:0:
56,200,23151,1,0,0:0:0:0:
288,336,23292,1,0,0:0:0:0:
348,80,23432,1,0,0:0:0:0:
192,344,23573,1,0,0:0:0:0:
104,196,23714,1,0,0:0:0:0:
448,52,23855,1,0,0:0:0:0:
436,256,23996,1,0,0:0:0:0:
248,152,24137,5,0,0:0:0:0:
488,136,24277,1,0,0:0:0:0:
200,240,24418,1,0,0:0:0:0:
368,28,24559,1,0,0:0:0:0:
220,328,24700,1,0,0:0:0:0:
228,24,24841,1,0,0:0:0:0:
304,376,24982,1,0,0:0:0:0:
108,96,25122,1,0,0:0:0:0:
488,136,25263,5,0,0:0:0:0:
224,240,25404,1,0,0:0:0:0:
392,68,25545,1,0,0:0:0:0:
348,340,25686,1,0,0:0:0:0:
80,220,25827,1,0,0:0:0:0:
368,152,25967,1,0,0:0:0:0:
80,220,26108,1,0,0:0:0:0:
348,340,26249,1,0,0:0:0:0:
356,32,26390,6,0,P|384:152|404:288,1,220
172,376,26812,2,0,P|112:312|136:168,1,220
336,144,27235,1,0,0:0:0:0:
336,160,27305,1,0,0:0:0:0:
336,176,27376,1,0,0:0:0:0:
336,192,27446,1,0,0:0:0:0:
336,208,27517,5,0,0:0:0:0:
200,88,27657,1,0,0:0:0:0:
244,68,27728,1,0,0:0:0:0:
292,80,27798,1,0,0:0:0:0:
208,248,27939,1,0,0:0:0:0:
68,140,28080,1,0,0:0:0:0:
144,368,28221,1,0,0:0:0:0:
352,148,28362,2,0,P|284:160|224:152,1,110
248,352,28643,6,0,P|316:348|380:364,1,110
484,108,28925,1,0,0:0:0:0:
296,216,29066,1,0,0:0:0:0:
300,240,29136,1,0,0:0:0:0:
304,264,29207,1,0,0:0:0:0:
112,160,29347,1,0,0:0:0:0:
240,368,29488,1,0,0:0:0:0:
240,108,29629,1,0,0:0:0:0:
404,236,29770,5,0,0:0:0:0:
128,172,29911,1,0,0:0:0:0:
344,120,30052,1,0,0:0:0:0:
212,272,30192,1,0,0:0:0:0:
204,256,30263,1,0,0:0:0:0:
196,240,30333,1,0,0:0:0:0:
248,380,30474,1,0,0:0:0:0:
24,284,30615,2,0,P|104:284|160:256,1,110
320,304,30897,6,0,P|292:232|284:176,1,110
476,56,31178,2,0,P|480:120|464:184,1,110
416,232,31389,1,0,0:0:0:0:
372,208,31460,1,0,0:0:0:0:
352,164,31530,1,0,0:0:0:0:
360,116,31601,1,0,0:0:0:0:
456,48,31742,1,0,0:0:0:0:
388,328,31882,1,0,0:0:0:0:
376,336,31953,1,0,0:0:0:0:
364,344,32023,6,0,P|308:340|240:336,1,110
440,148,32305,1,0,0:0:0:0:
192,212,32446,1,0,0:0:0:0:
452,256,32587,2,0,P|444:172|436:128,1,110
40,96,32868,1,0,0:0:0:0:
276,144,33009,1,0,0:0:0:0:
280,160,33079,1,0,0:0:0:0:
284,180,33150,6,0,P|288:248|284:316,1,110
80,368,33432,2,0,P|64:300|64:244,1,110
280,92,33713,1,0,0:0:0:0:
204,288,33854,1,0,0:0:0:0:
96,128,33995,1,0,0:0:0:0:
396,200,34136,1,0,0:0:0:0:
24,260,34277,6,0,P|112:252|152:240,1,110
284,272,34558,1,0,0:0:0:0:
176,72,34699,1,0,0:0:0:0:
124,68,34769,1,0,0:0:0:0:
84,96,34840,1,0,0:0:0:0:
152,176,34981,1,0,0:0:0:0:
256,164,35122,2,0,P|272:92|268:36,1,110
468,288,35403,6,0,P|408:276|344:268,1,110
20,168,35685,2,0,P|88:172|160:168,1,110
204,144,35896,1,0,0:0:0:0:
228,188,35967,1,0,0:0:0:0:
228,236,36037,1,0,0:0:0:0:
200,276,36107,1,0,0:0:0:0:
320,32,36248,1,0,0:0:0:0:
352,264,36389,1,0,0:0:0:0:
156,360,36530,5,0,0:0:0:0:
136,80,36671,1,0,0:0:0:0:
364,196,36812,1,0,0:0:0:0:
12,152,36952,1,0,0:0:0:0:
20,168,37023,1,0,0:0:0:0:
28,184,37093,2,0,P|96:192|164:204,1,110
300,348,37375,2,0,P|376:320|420:304,1,110
196,72,37657,6,0,P|136:48|36:168,1,220
200,348,38079,1,0,0:0:0:0:
308,364,38220,2,0,P|308:296|304:240,1,110
40,204,38502,2,0,P|112:192|184:184,1,110
168,200,38713,1,0,0:0:0:0:
184,212,38783,5,0,0:0:0:0:
336,132,38924,1,0,0:0:0:0:
200,368,39065,2,0,P|184:296|176:236,1,110
340,116,39347,2,0,L|340:200|340:256,1,110
32,80,39628,1,0,0:0:0:0:
188,120,39769,1,0,0:0:0:0:
192,140,39839,1,0,0:0:0:0:
196,164,39910,6,0,P|200:248|192:304,1,110
480,132,40192,2,0,P|408:140|324:156,1,110
316,236,40403,1,0,0:0:0:0:
304,224,40473,2,0,P|288:160|288:104,1,110
296,72,40684,1,0,0:0:0:0:
252,96,40755,1,0,0:0:0:0:
204,100,40825,1,0,0:0:0:0:
160,80,40896,1,0,0:0:0:0:
112,64,40966,1,0,0:0:0:0:
64,72,41037,5,0,0:0:0:0:
96,252,41177,1,0,0:0:0:0:
108,244,41248,1,0,0:0:0:0:
124,240,41318,2,0,P|184:236|268:260,1,110
484,76,41600,2,0,P|408:116|344:116,1,110
344,108,41811,1,0,0:0:0:0:
340,156,41882,1,0,0:0:0:0:
324,204,41952,1,0,0:0:0:0:
332,252,42022,1,0,0:0:0:0:
376,276,42093,1,0,0:0:0:0:
424,264,42163,5,0,0:0:0:0:
220,76,42304,1,0,0:0:0:0:
144,304,42445,1,0,0:0:0:0:
356,372,42586,1,0,0:0:0:0:
432,160,42727,1,0,0:0:0:0:
308,216,42867,2,0,P|292:132|280:76,1,110
476,44,43149,1,0,0:0:0:0:
472,64,43219,1,0,0:0:0:0:
468,84,43290,5,0,0:0:0:0:
288,88,43431,1,0,0:0:0:0:
372,320,43572,2,0,P|384:256|396:200,1,110
348,144,43783,1,0,0:0:0:0:
312,176,43853,1,0,0:0:0:0:
316,224,43924,1,0,0:0:0:0:
352,256,43994,1,0,0:0:0:0:
24,152,44135,1,0,0:0:0:0:
232,372,44276,1,0,0:0:0:0:
244,360,44346,1,0,0:0:0:0:
256,348,44417,5,0,0:0:0:0:
420,168,44557,1,0,0:0:0:0:
384,280,44698,2,0,P|296:264|244:256,1,110
236,288,44909,1,0,0:0:0:0:
244,240,44980,1,0,0:0:0:0:
240,192,45050,1,0,0:0:0:0:
220,148,45121,1,0,0:0:0:0:
32,100,45262,1,0,0:0:0:0:
76,124,45332,1,0,0:0:0:0:
124,124,45402,1,0,0:0:0:0:
168,104,45473,1,0,0:0:0:0:
192,60,45543,6,0,P|276:44|328:40,1,110
432,156,45825,2,0,P|428:232|428:296,1,110
248,372,46107,2,0,P|220:236|200:124,1,220
328,208,46529,2,0,P|320:272|312:296,1,55
136,320,46670,2,0,P|108:248|104:192,1,110
288,32,46952,2,0,P|316:96|320:232,1,165
328,208,47233,2,0,P|400:204|460:192,1,110
156,128,47515,1,0,0:0:0:0:
200,376,47656,1,0,0:0:0:0:
248,224,47797,6,0,P|144:216|108:208,1,110
16,140,48078,2,0,P|32:220|44:300,1,110
184,336,48360,2,0,P|168:248|160:200,1,110
288,88,48642,2,0,P|308:176|320:224,1,110
168,340,48923,5,0,0:0:0:0:
108,104,49064,1,0,0:0:0:0:
344,44,49205,1,0,0:0:0:0:
404,280,49346,1,0,0:0:0:0:
68,244,49487,1,0,0:0:0:0:
460,136,49627,1,0,0:0:0:0:
212,16,49768,1,0,0:0:0:0:
304,360,49909,1,0,0:0:0:0:
84,104,50050,6,0,P|144:120|200:156,1,110
360,28,50332,2,0,P|304:84|276:136,1,110
56,252,50613,2,0,P|128:240|216:352,1,220
448,156,51036,1,0,0:0:0:0:
304,376,51177,2,0,P|280:312|280:260,1,110
68,88,51458,2,0,P|96:168|104:224,1,110
108,360,51740,1,0,0:0:0:0:
296,244,51881,1,0,0:0:0:0:
284,224,51951,1,0,0:0:0:0:
276,208,52022,2,0,P|256:128|268:80,1,110
28,232,52303,6,0,P|128:236|240:260,1,165
265,316,52585,2,0,P|277:244|273:188,1,110
464,76,52867,2,0,P|476:168|484:224,1,110
376,364,53148,2,0,L|360:276|352:232,1,110
232,52,53430,5,0,0:0:0:0:
84,304,53571,1,0,0:0:0:0:
68,256,53641,1,0,0:0:0:0:
52,208,53712,1,0,0:0:0:0:
344,100,53852,1,0,0:0:0:0:
232,320,53993,2,0,P|308:336|412:280,1,165
452,248,54275,1,0,0:0:0:0:
444,224,54345,1,0,0:0:0:0:
436,204,54416,1,0,0:0:0:0:
428,184,54486,1,0,0:0:0:0:
416,160,54557,6,0,P|400:88|404:28,1,121.000003692627
44,212,54838,1,0,0:0:0:0:
344,100,54979,1,0,0:0:0:0:
240,348,55120,1,0,0:0:0:0:
144,24,55261,1,0,0:0:0:0:
144,40,55331,1,0,0:0:0:0:
144,64,55402,2,0,P|156:136|172:204,1,121.000003692627
320,368,55683,6,0,P|336:284|336:232,1,121.000003692627
496,68,55965,2,0,P|440:96|364:128,1,121.000003692627
240,188,56247,1,0,0:0:0:0:
472,340,56387,1,0,0:0:0:0:
472,340,56458,1,0,0:0:0:0:
472,340,56528,2,0,P|476:252|468:212,1,121.000003692627
76,80,56810,5,0,0:0:0:0:
152,364,56951,1,0,0:0:0:0:
228,40,57092,1,0,0:0:0:0:
40,252,57232,1,0,0:0:0:0:
288,356,57373,1,0,0:0:0:0:
464,160,57514,1,0,0:0:0:0:
40,252,57655,1,0,0:0:0:0:
388,20,57796,1,0,0:0:0:0:
84,92,57937,5,0,0:0:0:0:
288,356,58077,1,0,0:0:0:0:
224,24,58218,1,0,0:0:0:0:
288,356,58359,1,0,0:0:0:0:
388,20,58500,1,0,0:0:0:0:
288,356,58641,1,0,0:0:0:0:
24,252,58782,1,0,0:0:0:0:
76,244,58852,1,0,0:0:0:0:
128,252,58922,1,0,0:0:0:0:
176,280,58993,1,0,0:0:0:0:
204,328,59063,2,0,P|304:352|420:264,1,242.000007385254
256,92,59486,1,0,0:0:0:0:
256,92,59556,1,0,0:0:0:0:
256,92,59627,2,0,B|240:136|240:136|272:176|288:224,1,121.000003692627
464,160,59908,1,0,0:0:0:0:
384,344,60049,1,0,0:0:0:0:
224,196,60190,6,0,P|312:192|360:204,1,121.000003692627
56,352,60472,2,0,P|128:368|216:344,1,121.000003692627
480,104,60753,2,0,P|480:192|472:256,1,121.000003692627
240,232,61035,2,0,P|248:312|272:368,1,121.000003692627
24,128,61317,6,0,P|92:112|192:76,1,121.000003692627
232,364,61598,1,0,0:0:0:0:
124,184,61739,1,0,0:0:0:0:
8,312,61880,1,0,0:0:0:0:
240,60,62021,1,0,0:0:0:0:
148,324,62162,1,0,0:0:0:0:
96,72,62302,1,0,0:0:0:0:
304,208,62443,6,0,P|248:232|176:232,1,121.000003692627
108,196,62654,1,0,0:0:0:0:
96,212,62725,2,0,P|104:288|124:352,1,121.000003692627
272,368,63007,1,0,0:0:0:0:
424,312,63147,1,0,0:0:0:0:
452,264,63218,1,0,0:0:0:0:
440,212,63288,1,0,0:0:0:0:
408,168,63359,1,0,0:0:0:0:
364,136,63429,1,0,0:0:0:0:
356,80,63499,1,0,0:0:0:0:
396,44,63570,6,0,P|304:80|212:-16,1,242.000007385254
168,352,63992,1,0,0:0:0:0:
160,328,64063,1,0,0:0:0:0:
152,304,64133,2,0,P|148:200|160:136,1,121.000003692627
480,136,64415,2,0,P|404:184|340:200,1,121.000003692627
32,96,64697,6,0,P|108:96|188:128,1,121.000003692627
360,20,64978,2,0,P|364:92|364:132,1,80.6666691284181
360,296,65154,1,0,0:0:0:0:
284,348,65260,2,0,P|200:352|120:256,1,161.333338256836
84,212,65542,2,0,B|60:264|56:288|56:288|40:304|40:304|60:332|64:368,1,161.333338256836
148,364,65823,5,0,0:0:0:0:
280,204,65964,1,0,0:0:0:0:
448,292,66105,1,0,0:0:0:0:
460,188,66246,1,0,0:0:0:0:
468,172,66316,1,0,0:0:0:0:
476,160,66387,2,0,P|472:88|448:32,1,121.000003692627
308,100,66668,2,0,B|320:156|320:156|312:196|312:196|328:216|328:216|332:220|352:248|344:300,1,181.500005538941
320,344,66950,2,0,B|252:320|192:328|192:328|164:256,1,181.500005538941
132,192,67232,6,0,P|84:196|44:216,1,80.6666691284181
224,100,67408,1,0,0:0:0:0:
152,192,67513,2,0,P|124:240|116:284,1,80.6666691284181
204,4,67689,1,0,0:0:0:0:
252,216,67795,2,0,P|332:236|412:192,1,161.333338256836
440,136,68077,6,0,L|424:272,1,121.000003692627
44,76,68358,1,0,0:0:0:0:
84,352,68499,1,0,0:0:0:0:
348,316,68640,1,0,0:0:0:0:
312,48,68781,1,0,0:0:0:0:
312,48,68851,1,0,0:0:0:0:
312,48,68922,1,0,0:0:0:0:
20,212,69062,1,0,0:0:0:0:
216,368,69203,6,0,P|224:280|224:228,1,121.000003692627
416,24,69485,2,0,P|432:120|440:160,1,121.000003692627
288,308,69767,1,0,0:0:0:0:
216,112,69907,1,0,0:0:0:0:
264,88,69978,1,0,0:0:0:0:
316,96,70048,1,0,0:0:0:0:
96,192,70189,1,0,0:0:0:0:
456,128,70330,5,0,0:0:0:0:
280,208,70471,1,0,0:0:0:0:
248,8,70612,1,0,0:0:0:0:
440,232,70752,1,0,0:0:0:0:
452,284,70823,1,0,0:0:0:0:
448,340,70893,1,0,0:0:0:0:
172,316,71034,1,0,0:0:0:0:
468,120,71175,1,0,0:0:0:0:
280,368,71316,1,0,0:0:0:0:
276,356,71386,1,0,0:0:0:0:
268,336,71457,6,0,P|264:248|268:116,1,181.500005538941
280,80,71738,1,0,0:0:0:0:
332,100,71809,1,0,0:0:0:0:
384,92,71879,1,0,0:0:0:0:
428,60,71949,1,0,0:0:0:0:
480,72,72020,1,0,0:0:0:0:
500,124,72090,1,0,0:0:0:0:
484,176,72161,1,0,0:0:0:0:
432,188,72231,1,0,0:0:0:0:
384,164,72302,1,0,0:0:0:0:
332,176,72372,1,0,0:0:0:0:
316,228,72442,1,0,0:0:0:0:
344,276,72513,1,0,0:0:0:0:
400,276,72583,6,0,P|304:296|232:320,1,121.000003692627
0,144,72865,2,0,P|104:168|152:192,1,121.000003692627
480,72,73147,1,0,0:0:0:0:
232,140,73287,1,0,0:0:0:0:
220,156,73358,1,0,0:0:0:0:
208,176,73428,2,0,P|212:256|232:308,1,121.000003692627
432,356,73710,6,0,P|448:260|424:120,1,181.500005538941
380,100,73992,2,0,P|448:84|500:96,1,80.6666691284181
304,160,74168,1,0,0:0:0:0:
284,60,74273,2,0,P|320:8|356:-8,1,80.6666691284181
280,252,74449,1,0,0:0:0:0:
184,76,74555,2,0,P|104:64|16:124,1,161.333338256836
144,252,74837,6,0,P|252:252|396:280,1,242.000007385254
492,144,75259,1,0,0:0:0:0:
124,352,75400,2,0,P|120:244|120:196,1,121.000003692627
364,32,75682,2,0,P|376:108|384:172,1,121.000003692627
372,304,75963,6,0,P|296:272|276:152,1,181.500005538941
316,96,76245,2,0,P|292:160|272:200,1,80.6666691284181
216,240,76421,1,0,0:0:0:0:
68,156,76527,2,0,P|128:184|164:204,1,80.6666691284181
220,244,76703,1,0,0:0:0:0:
192,48,76808,2,0,L|216:240,1,161.333338256836
228,328,77090,5,0,0:0:0:0:
404,160,77231,1,0,0:0:0:0:
52,280,77372,1,0,0:0:0:0:
336,272,77512,1,0,0:0:0:0:
212,144,77653,1,0,0:0:0:0:
164,172,77724,1,0,0:0:0:0:
108,176,77794,1,0,0:0:0:0:
56,152,77864,1,0,0:0:0:0:
28,104,77935,1,0,0:0:0:0:
24,124,78005,1,0,0:0:0:0:
20,144,78076,1,0,0:0:0:0:
16,160,78146,1,0,0:0:0:0:
12,184,78217,6,0,P|44:276|40:376,1,181.500005538941
216,336,78498,6,0,P|208:256|204:224,1,80.6666691284181
252,32,78674,1,0,0:0:0:0:
376,104,78780,2,0,P|392:160|396:224,1,80.6666691284181
220,356,78956,1,0,0:0:0:0:
504,248,79062,2,0,P|404:216|300:244,1,161.333338256836
280,280,79343,6,0,P|264:188|272:128,1,121.000003692627
292,80,79554,1,0,0:0:0:0:
292,80,79625,2,0,B|360:64|360:64|440:72,1,121.000003692627
380,248,79907,1,0,0:0:0:0:
380,248,79977,1,0,0:0:0:0:
380,248,80047,2,0,P|316:244|288:232,1,60.5000018463135
228,368,80188,1,0,0:0:0:0:
228,368,80259,1,0,0:0:0:0:
228,368,80329,2,0,P|216:304|216:288,1,60.5000018463135
108,72,80470,5,0,0:0:0:0:
96,80,80540,1,0,0:0:0:0:
84,96,80611,2,0,P|96:192|104:248,1,121.000003692627
160,296,80822,2,0,B|224:304|224:304|304:276,1,121.000003692627
360,188,81033,1,0,0:0:0:0:
400,224,81104,1,0,0:0:0:0:
420,276,81174,1,0,0:0:0:0:
408,328,81244,1,0,0:0:0:0:
364,360,81315,1,0,0:0:0:0:
328,288,81385,1,0,0:0:0:0:
256,256,81456,1,0,0:0:0:0:
188,300,81526,1,0,0:0:0:0:
172,376,81597,6,0,L|192:288,1,82.5000031471254
252,152,81878,2,0,L|272:248,1,82.5000031471254
404,368,82160,2,0,L|384:272,1,82.5000031471254
464,136,82442,2,0,L|488:240,1,82.5000031471254
48,188,82723,6,0,P|112:168|144:160,1,82.5000031471254
340,132,83005,2,0,P|260:164|244:168,1,82.5000031471254
64,324,83287,2,0,P|120:304|160:296,1,82.5000031471254
364,260,83568,2,0,P|312:276|272:284,1,82.5000031471254
176,48,83850,6,0,P|184:112|192:152,1,82.5000031471254
296,352,84132,1,0,0:0:0:0:
352,260,84272,1,0,0:0:0:0:
184,256,84413,2,0,P|112:268|80:268,1,82.5000031471254
88,256,84589,1,0,0:0:0:0:
76,240,84648,1,0,0:0:0:0:
76,224,84695,2,0,P|96:312|96:340,1,82.5000031471254
232,340,84977,5,0,0:0:0:0:
320,316,85117,1,0,0:0:0:0:
508,212,85258,1,0,0:0:0:0:
412,184,85399,1,0,0:0:0:0:
356,32,85540,1,0,0:0:0:0:
356,32,85822,2,0,P|360:88|364:120,1,82.5000031471254
232,376,86103,6,0,P|216:312|208:288,1,82.5000031471254
92,224,86385,2,0,P|108:296|112:324,1,82.5000031471254
472,256,86667,2,0,P|464:176|460:156,1,82.5000031471254
336,208,86948,1,0,0:0:0:0:
384,304,87089,1,0,0:0:0:0:
280,348,87230,6,0,P|252:284|236:252,1,82.5000031471254
72,212,87512,2,0,P|152:220|192:216,1,82.5000031471254
340,184,87793,2,0,P|268:168|240:164,1,82.5000031471254
32,128,88075,2,0,P|104:120|136:112,1,82.5000031471254
232,44,88357,5,0,0:0:0:0:
336,60,88497,1,0,0:0:0:0:
160,268,88638,1,0,0:0:0:0:
140,168,88779,1,0,0:0:0:0:
140,168,88849,1,0,0:0:0:0:
140,168,88920,1,0,0:0:0:0:
376,224,89061,1,0,0:0:0:0:
300,300,89202,1,0,0:0:0:0:
232,44,89342,1,0,0:0:0:0:
336,60,89483,6,0,P|340:172|360:236,1,165.000006294251
296,316,89906,1,0,0:0:0:0:
168,284,90047,2,0,P|160:256|152:232,1,41.2500015735627
220,172,90187,2,0,L|224:112,1,41.2500015735627
144,36,90328,1,0,0:0:0:0:
92,24,90399,1,0,0:0:0:0:
40,44,90469,1,0,0:0:0:0:
16,92,90539,1,0,0:0:0:0:
20,144,90610,6,0,P|44:208|64:272,1,98.9999969787599
208,360,90892,2,0,P|224:272|228:240,1,98.9999969787599
324,68,91173,2,0,P|344:128|356:176,1,98.9999969787599
432,360,91455,2,0,P|456:288|472:244,1,98.9999969787599
504,80,91737,6,0,P|448:92|392:100,1,98.9999969787599
216,156,92018,2,0,P|296:168|360:180,1,98.9999969787599
488,232,92300,2,0,L|432:248|376:264,1,98.9999969787599
184,304,92582,1,0,0:0:0:0:
140,124,92722,1,0,0:0:0:0:
364,168,92863,6,0,P|360:252|360:376,1,197.99999395752
184,320,93286,1,0,0:0:0:0:
168,128,93427,2,0,P|112:120|64:164,1,98.9999969787599
48,172,93603,1,0,0:0:0:0:
48,144,93661,1,0,0:0:0:0:
44,116,93708,5,0,0:0:0:0:
148,224,93849,1,0,0:0:0:0:
252,68,93990,6,0,P|276:148|288:192,1,98.9999969787599
440,56,94272,1,0,0:0:0:0:
372,260,94412,1,0,0:0:0:0:
364,244,94483,1,0,0:0:0:0:
356,228,94553,1,0,0:0:0:0:
172,372,94694,1,0,0:0:0:0:
160,268,94835,1,0,0:0:0:0:
396,324,94976,1,0,0:0:0:0:
356,228,95117,5,0,0:0:0:0:
356,228,95398,6,0,P|364:136|364:104,1,98.9999969787599
100,52,95680,1,0,0:0:0:0:
104,204,95821,1,0,0:0:0:0:
256,96,95962,1,0,0:0:0:0:
32,128,96102,1,0,0:0:0:0:
164,292,96243,1,0,0:0:0:0:
180,280,96525,1,0,0:0:0:0:
200,272,96807,1,0,0:0:0:0:
220,268,97088,1,0,0:0:0:0:
240,268,97229,1,0,0:0:0:0:
260,272,97370,5,0,0:0:0:0:
292,236,97440,1,0,0:0:0:0:
296,188,97511,1,0,0:0:0:0:
284,140,97581,1,0,0:0:0:0:
256,96,97652,1,0,0:0:0:0:
260,48,97722,1,0,0:0:0:0:
300,20,97792,2,0,P|344:20|400:32,1,55
476,132,97933,1,0,0:0:0:0:
476,152,98004,1,0,0:0:0:0:
476,168,98074,1,0,0:0:0:0:
476,184,98144,1,0,0:0:0:0:
476,200,98215,1,0,0:0:0:0:
404,176,98285,1,0,0:0:0:0:
325,186,98356,1,0,0:0:0:0:
264,228,98426,1,0,0:0:0:0:
224,292,98497,6,0,L|240:356|244:372,1,63.250001206398
340,376,98637,2,0,P|360:324|364:308,1,63.250001206398
384,164,98778,2,0,P|348:180|320:188,1,63.250001206398
132,216,98919,2,0,P|144:264|148:316,1,63.250001206398
376,336,99060,1,0,0:0:0:0:
416,264,99130,1,0,0:0:0:0:
396,184,99201,1,0,0:0:0:0:
332,136,99271,1,0,0:0:0:0:
252,152,99342,1,0,0:0:0:0:
212,80,99412,1,0,0:0:0:0:
260,12,99482,1,0,0:0:0:0:
340,36,99553,1,0,0:0:0:0:
352,116,99623,6,0,P|348:204|320:276,1,126.500002412796
80,32,99905,2,0,P|80:112|104:184,1,126.500002412796
448,24,100187,2,0,P|452:108|444:164,1,126.500002412796
72,288,100468,1,0,0:0:0:0:
452,204,100609,1,0,0:0:0:0:
240,96,100750,5,0,0:0:0:0:
280,368,100891,1,0,0:0:0:0:
288,352,100961,1,0,0:0:0:0:
296,336,101032,2,0,P|292:264|272:200,1,126.500002412796
448,24,101313,2,0,P|448:108|452:176,1,126.500002412796
168,348,101595,1,0,0:0:0:0:
96,100,101736,1,0,0:0:0:0:
280,24,101877,6,0,P|288:124|288:176,1,126.500002412796
172,364,102158,1,0,0:0:0:0:
144,56,102299,1,0,0:0:0:0:
384,128,102440,1,0,0:0:0:0:
16,176,102581,1,0,0:0:0:0:
68,152,102651,1,0,0:0:0:0:
124,140,102722,1,0,0:0:0:0:
180,140,102792,1,0,0:0:0:0:
236,148,102862,1,0,0:0:0:0:
88,276,103003,5,0,0:0:0:0:
420,108,103144,1,0,0:0:0:0:
192,36,103285,1,0,0:0:0:0:
316,368,103426,1,0,0:0:0:0:
84,68,103567,1,0,0:0:0:0:
464,200,103707,1,0,0:0:0:0:
60,300,103848,1,0,0:0:0:0:
440,96,103989,1,0,0:0:0:0:
192,372,104130,2,0,P|192:276|184:200,1,126.500002412796
352,24,104412,2,0,P|352:108|364:172,1,126.500002412796
400,344,104693,2,0,P|308:312|260:296,1,126.500002412796
24,104,104975,1,0,0:0:0:0:
176,44,105116,1,0,0:0:0:0:
360,180,105257,6,0,P|372:264|368:328,1,126.500002412796
148,336,105538,2,0,P|132:240|136:184,1,126.500002412796
448,148,105820,2,0,P|352:184|284:188,1,126.500002412796
16,176,106102,1,0,0:0:0:0:
160,192,106242,1,0,0:0:0:0:
456,172,106383,6,0,P|368:136|276:256,1,253.000004825592
136,364,106806,1,0,0:0:0:0:
124,344,106876,1,0,0:0:0:0:
112,328,106947,2,0,P|100:256|112:176,1,126.500002412796
372,228,107228,1,0,0:0:0:0:
248,360,107369,1,0,0:0:0:0:
196,80,107510,5,0,0:0:0:0:
360,328,107651,1,0,0:0:0:0:
364,16,107792,2,0,P|368:108|372:168,1,126.500002412796
296,272,108073,1,0,0:0:0:0:
240,276,108144,1,0,0:0:0:0:
192,248,108214,1,0,0:0:0:0:
172,196,108284,1,0,0:0:0:0:
180,140,108355,1,0,0:0:0:0:
128,160,108425,1,0,0:0:0:0:
72,148,108496,1,0,0:0:0:0:
40,100,108566,1,0,0:0:0:0:
44,44,108637,6,0,P|52:144|56:216,1,126.500002412796
336,352,108918,2,0,P|336:252|340:200,1,126.500002412796
244,32,109200,2,0,P|204:120|168:152,1,126.500002412796
36,288,109482,2,0,P|124:288|204:320,1,126.500002412796
476,164,109763,5,0,0:0:0:0:
264,332,109904,1,0,0:0:0:0:
252,24,110045,1,0,0:0:0:0:
400,332,110186,1,0,0:0:0:0:
412,312,110256,1,0,0:0:0:0:
424,292,110327,2,0,P|428:216|416:152,1,126.500002412796
56,284,110608,2,0,P|132:276|208:272,1,126.500002412796
476,164,110890,6,0,P|404:192|312:124,1,189.750003619194
308,108,111172,1,0,0:0:0:0:
180,96,111312,1,0,0:0:0:0:
120,216,111453,1,0,0:0:0:0:
312,360,111594,1,0,0:0:0:0:
320,340,111664,1,0,0:0:0:0:
328,320,111735,2,0,P|328:224|320:160,1,126.500002412796
96,68,112017,5,0,0:0:0:0:
400,128,112157,1,0,0:0:0:0:
96,232,112298,1,0,0:0:0:0:
408,272,112439,1,0,0:0:0:0:
200,16,112580,2,0,P|188:72|184:92,1,63.250001206398
264,288,112721,2,0,P|276:232|280:204,1,63.250001206398
432,48,112862,1,0,0:0:0:0:
436,64,112932,1,0,0:0:0:0:
440,80,113002,1,0,0:0:0:0:
444,96,113073,1,0,0:0:0:0:
448,112,113143,6,0,P|452:204|456:324,1,189.750003619194
408,368,113425,2,0,P|328:360|280:300,1,126.500002412796
68,120,113707,2,0,P|92:212|104:264,1,126.500002412796
240,368,113988,2,0,P|264:276|280:212,1,126.500002412796
136,44,114270,5,0,0:0:0:0:
108,312,114411,1,0,0:0:0:0:
376,340,114552,1,0,0:0:0:0:
404,72,114692,1,0,0:0:0:0:
404,72,114763,1,0,0:0:0:0:
404,72,114833,2,0,P|376:136|348:208,1,126.500002412796
240,368,115115,2,0,P|172:344|84:324,1,126.500002412796
480,132,115397,6,0,P|392:144|332:144,1,126.500002412796
272,120,115608,1,0,0:0:0:0:
244,168,115678,1,0,0:0:0:0:
260,220,115749,1,0,0:0:0:0:
312,244,115819,2,0,P|380:232|404:224,1,63.250001206398
508,140,115960,2,0,P|460:168|436:184,1,63.250001206398
368,360,116101,2,0,P|376:304|384:280,1,63.250001206398
364,144,116242,1,0,0:0:0:0:
312,120,116312,1,0,0:0:0:0:
256,112,116382,1,0,0:0:0:0:
200,128,116453,1,0,0:0:0:0:
160,168,116523,6,0,P|152:224|156:272,1,63.250001206398
352,216,116664,2,0,P|360:160|356:112,1,63.250001206398
100,220,116805,2,0,P|160:232|192:244,1,63.250001206398
412,164,116946,2,0,P|352:152|320:140,1,63.250001206398
216,28,117087,1,0,0:0:0:0:
204,84,117157,1,0,0:0:0:0:
204,140,117227,1,0,0:0:0:0:
224,192,117298,1,0,0:0:0:0:
260,236,117368,1,0,0:0:0:0:
184,200,117439,1,0,0:0:0:0:
104,216,117509,1,0,0:0:0:0:
48,276,117579,1,0,0:0:0:0:
44,360,117650,6,0,B|20:276|20:276|44:152,1,165.000006294251
144,64,117861,2,0,P|188:144|152:264,1,165.000006294251
164,360,118072,2,0,P|136:288|124:260,1,82.5000031471254
88,132,118213,6,0,P|156:104|260:124,1,165.000006294251
496,120,118636,1,0,0:0:0:0:
368,336,118777,2,0,P|356:272|352:236,1,82.5000031471254
480,120,119058,2,0,L|488:168|496:216,1,82.5000031471254
308,48,119340,6,0,P|248:60|212:64,1,82.5000031471254
40,168,119622,2,0,P|104:164|144:168,1,82.5000031471254
348,176,119903,2,0,P|272:184|232:192,1,82.5000031471254
36,280,120185,2,0,P|96:280|148:284,1,82.5000031471254
380,364,120467,5,0,0:0:0:0:
416,256,120607,1,0,0:0:0:0:
144,180,120748,1,0,0:0:0:0:
124,284,120889,1,0,0:0:0:0:
352,144,121030,6,0,L|308:144|252:144,1,82.5000031471254
104,292,121312,2,0,P|176:288|220:288,1,82.5000031471254
424,276,121593,1,0,0:0:0:0:
268,228,121734,1,0,0:0:0:0:
364,136,121875,1,0,0:0:0:0:
316,352,122016,1,0,0:0:0:0:
128,188,122157,6,0,P|192:196|284:128,1,165.000006294251
428,92,122720,2,0,P|440:144|440:164,1,55
400,232,123002,2,0,P|368:236|328:224,1,55
248,200,123283,6,0,P|256:240|260:268,1,55
176,344,123565,2,0,P|168:304|164:276,1,55
144,136,123847,2,0,B|124:164|124:164|80:168|80:168|80:204|80:204|96:232|96:232|112:200,1,165
208,268,124410,6,0,P|204:220|196:196,1,55
252,128,124692,1,0,0:0:0:0:
328,192,124832,1,0,0:0:0:0:
340,200,124903,1,0,0:0:0:0:
352,208,124973,2,0,P|404:200|428:192,1,55
484,84,125255,2,0,P|448:80|420:76,1,55
240,96,125537,6,0,L|244:128|248:160,1,55
192,288,125818,1,0,0:0:0:0:
88,272,125959,2,0,P|40:252|24:236,1,55
212,184,126241,2,0,P|200:280|196:308,1,110
380,344,126669,6,0,P|376:316|368:280,1,55
308,248,126945,2,0,P|316:208|320:176,1,55
156,88,127230,6,0,P|160:136|160:148,1,41.2500015735627
80,200,127511,2,0,P|68:160|64:152,1,41.2500015735627
264,220,127793,2,0,P|208:232|196:236,1,41.2500015735627
36,292,128075,2,0,P|84:296|100:296,1,41.2500015735627
236,348,128356,5,0,0:0:0:0:
260,340,128638,1,0,0:0:0:0:
284,332,128920,2,0,P|328:336|348:340,1,41.2500015735627
448,304,129201,2,0,P|400:296|384:296,1,41.2500015735627
268,244,129483,6,0,P|260:192|280:140,1,82.5000031471254
312,100,129906,1,0,0:0:0:0:
420,188,130187,2,0,B|432:220|432:220|424:260|436:296,1,82.5000031471254
336,340,130610,5,0,0:0:0:0:
248,304,130751,1,0,0:0:0:0:
156,324,130891,2,0,P|96:320|84:320,1,41.2500015735627
160,340,131314,2,0,L|120:348,1,41.2500015735627
96,352,131596,1,0,0:0:0:0:
252,376,131736,6,0,P|248:308|244:256,1,82.5000031471254
376,224,132300,2,0,L|384:304|388:344,2,82.5000031471254
256,156,133426,1,0,0:0:0:0:
256,144,133990,2,0,B|248:192|248:192|268:228|268:228|260:276,1,123.750004720688
232,348,134553,2,0,L|200:340,3,20.6250007867813
140,252,134835,6,0,L|200:272,3,41.2500015735627
232,272,135075,5,0,0:0:0:0:
228,256,135173,1,0,0:0:0:0:
224,240,135244,1,0,0:0:0:0:
220,224,135314,1,0,0:0:0:0:
216,208,135384,1,0,0:0:0:0:
212,196,135455,1,0,0:0:0:0:
208,184,135525,1,0,0:0:0:0:
204,172,135596,1,0,0:0:0:0:
200,160,135666,1,0,0:0:0:0:
252,176,135737,1,0,0:0:0:0:
304,168,135807,1,0,0:0:0:0:
340,128,135877,1,0,0:0:0:0:
352,72,135948,1,0,0:0:0:0:
324,24,136018,1,0,0:0:0:0:
284,0,136089,1,0,0:0:0:0:
228,4,136159,1,0,0:0:0:0:
192,44,136238,6,0,P|128:52|72:44,1,110
84,336,136520,2,0,P|160:340|220:348,1,110
392,296,136802,1,0,0:0:0:0:
260,92,136942,1,0,0:0:0:0:
280,368,137083,1,0,0:0:0:0:
408,104,137224,1,0,0:0:0:0:
76,188,137365,6,0,P|144:192|200:216,1,110
420,92,137647,2,0,P|400:184|396:284,1,165
392,296,137928,2,0,P|328:284|244:296,1,110
224,128,138210,1,0,0:0:0:0:
96,336,138351,1,0,0:0:0:0:
88,320,138421,1,0,0:0:0:0:
80,300,138492,2,0,P|64:240|80:172,1,110
324,60,138773,2,0,P|272:108|212:124,1,110
108,124,139055,1,0,0:0:0:0:
452,176,139196,1,0,0:0:0:0:
196,24,139337,1,0,0:0:0:0:
224,320,139477,1,0,0:0:0:0:
352,56,139618,5,0,0:0:0:0:
80,216,139759,1,0,0:0:0:0:
312,360,139900,1,0,0:0:0:0:
112,108,140041,1,0,0:0:0:0:
112,128,140111,1,0,0:0:0:0:
112,152,140182,2,0,P|172:176|248:156,1,110
340,320,140463,2,0,P|420:296|472:288,1,110
85,358,140745,6,0,P|48:268|96:144,1,220
192,244,141167,1,0,0:0:0:0:
184,292,141238,1,0,0:0:0:0:
176,340,141308,1,0,0:0:0:0:
216,104,141449,1,0,0:0:0:0:
376,256,141590,1,0,0:0:0:0:
392,32,141731,1,0,0:0:0:0:
148,340,141872,5,0,0:0:0:0:
284,24,142012,1,0,0:0:0:0:
332,364,142153,1,0,0:0:0:0:
80,124,142294,1,0,0:0:0:0:
464,160,142435,1,0,0:0:0:0:
148,340,142576,1,0,0:0:0:0:
380,84,142717,1,0,0:0:0:0:
312,384,142857,1,0,0:0:0:0:
200,32,142998,5,0,0:0:0:0:
256,140,143139,1,0,0:0:0:0:
488,100,143280,2,0,P|480:180|472:232,1,110
320,368,143562,2,0,P|308:292|296:240,1,110
176,40,143843,1,0,0:0:0:0:
48,168,143984,1,0,0:0:0:0:
64,176,144055,1,0,0:0:0:0:
80,184,144125,5,0,0:0:0:0:
372,136,144266,1,0,0:0:0:0:
112,296,144407,1,0,0:0:0:0:
368,132,144547,1,0,0:0:0:0:
208,364,144688,1,0,0:0:0:0:
372,136,144829,2,0,P|376:184|376:220,1,55
372,280,144970,1,0,0:0:0:0:
168,108,145111,2,0,P|212:92|248:84,1,55
304,56,145252,6,0,B|284:136|276:184|276:184|228:184|172:212,1,220
104,296,145674,1,0,0:0:0:0:
156,88,145815,2,0,P|172:160|188:216,1,110
340,364,146097,2,0,P|360:280|368:236,1,110
448,120,146378,6,0,P|368:124|304:136,1,110
264,216,146660,2,0,P|280:288|292:340,1,110
188,376,146942,2,0,P|168:312|152:256,1,110
32,260,147223,2,0,P|56:344|64:376,1,110
160,48,147505,5,0,0:0:0:0:
252,220,147646,1,0,0:0:0:0:
268,208,147716,1,0,0:0:0:0:
284,196,147787,1,0,0:0:0:0:
460,200,147927,1,0,0:0:0:0:
356,368,148068,1,0,0:0:0:0:
276,192,148209,1,0,0:0:0:0:
272,176,148280,1,0,0:0:0:0:
272,160,148350,1,0,0:0:0:0:
320,56,148491,1,0,0:0:0:0:
264,280,148632,6,0,P|196:288|132:260,1,110
80,232,148843,1,0,0:0:0:0:
80,232,148913,2,0,B|80:288|80:288|100:368,1,110
264,280,149195,1,0,0:0:0:0:
260,260,149265,1,0,0:0:0:0:
256,244,149336,1,0,0:0:0:0:
252,228,149406,1,0,0:0:0:0:
248,212,149477,1,0,0:0:0:0:
296,224,149547,1,0,0:0:0:0:
344,208,149617,1,0,0:0:0:0:
380,172,149688,1,0,0:0:0:0:
384,124,149758,5,0,0:0:0:0:
344,352,149899,1,0,0:0:0:0:
292,36,150040,1,0,0:0:0:0:
424,268,150181,1,0,0:0:0:0:
180,52,150322,1,0,0:0:0:0:
432,144,150462,1,0,0:0:0:0:
108,140,150603,1,0,0:0:0:0:
396,24,150744,1,0,0:0:0:0:
84,128,150885,6,0,P|136:216|136:316,1,165
136,304,151167,2,0,P|204:288|264:284,1,110
488,204,151448,2,0,P|412:204|328:200,1,110
16,160,151730,2,0,P|88:148|144:140,1,110
300,40,152012,5,0,0:0:0:0:
272,276,152153,1,0,0:0:0:0:
472,296,152293,1,0,0:0:0:0:
184,136,152434,1,0,0:0:0:0:
448,72,152575,1,0,0:0:0:0:
292,288,152716,1,0,0:0:0:0:
212,16,152857,1,0,0:0:0:0:
464,60,152998,1,0,0:0:0:0:
312,304,153138,5,0,0:0:0:0:
268,280,153209,1,0,0:0:0:0:
220,280,153279,1,0,0:0:0:0:
176,300,153350,1,0,0:0:0:0:
144,340,153420,1,0,0:0:0:0:
128,292,153490,1,0,0:0:0:0:
108,248,153561,1,0,0:0:0:0:
80,208,153631,1,0,0:0:0:0:
44,172,153702,1,0,0:0:0:0:
36,124,153772,1,0,0:0:0:0:
60,80,153843,1,0,0:0:0:0:
108,64,153913,1,0,0:0:0:0:
156,80,153983,1,0,0:0:0:0:
180,124,154054,1,0,0:0:0:0:
176,172,154124,1,0,0:0:0:0:
140,204,154195,1,0,0:0:0:0:
92,208,154265,6,0,B|80:248|80:248|112:352,1,110
488,164,154547,1,0,0:0:0:0:
264,176,154688,1,0,0:0:0:0:
32,188,154828,2,0,P|44:96|48:56,1,110
152,40,155110,1,0,0:0:0:0:
272,264,155251,2,0,P|320:256|344:244,1,55
408,220,155392,6,0,L|396:368,1,110
192,164,155673,2,0,P|188:60|184:12,1,110
308,92,155955,5,0,0:0:0:0:
208,308,156096,1,0,0:0:0:0:
192,296,156166,1,0,0:0:0:0:
176,284,156237,1,0,0:0:0:0:
412,220,156378,1,0,0:0:0:0:
68,220,156518,5,0,0:0:0:0:
348,336,156659,1,0,0:0:0:0:
276,16,156800,1,0,0:0:0:0:
196,340,156941,1,0,0:0:0:0:
180,48,157082,1,0,0:0:0:0:
292,340,157223,1,0,0:0:0:0:
68,148,157363,1,0,0:0:0:0:
376,288,157504,1,0,0:0:0:0:
88,272,157645,5,0,0:0:0:0:
260,4,157786,1,0,0:0:0:0:
276,16,157856,1,0,0:0:0:0:
292,28,157927,2,0,P|308:104|300:180,1,110
204,356,158208,1,0,0:0:0:0:
164,324,158279,1,0,0:0:0:0:
116,316,158349,1,0,0:0:0:0:
68,324,158420,1,0,0:0:0:0:
24,348,158490,1,0,0:0:0:0:
16,300,158560,1,0,0:0:0:0:
4,252,158631,1,0,0:0:0:0:
20,204,158701,1,0,0:0:0:0:
60,140,158772,6,0,P|164:104|228:168,1,165.000006294251
316,220,158983,2,0,P|424:204|464:160,1,165.000006294251
468,144,159194,2,0,B|480:216|480:216|472:336,1,165.000006294251
240,356,159405,2,0,B|228:284|228:284|236:164,1,165.000006294251
312,48,159617,1,0,0:0:0:0:
224,104,159687,2,0,P|132:120|48:140,1,165.000006294251
20,204,159898,5,0,0:0:0:0:
40,240,159969,1,0,0:0:0:0:
76,256,160039,1,0,0:0:0:0:
116,244,160110,1,0,0:0:0:0:
144,216,160180,1,0,0:0:0:0:
148,176,160251,1,0,0:0:0:0:
124,140,160321,1,0,0:0:0:0:
88,124,160391,1,0,0:0:0:0:
76,84,160462,1,0,0:0:0:0:
92,44,160532,1,0,0:0:0:0:
128,24,160603,1,0,0:0:0:0:
168,32,160673,1,0,0:0:0:0:
196,64,160743,1,0,0:0:0:0:
196,104,160814,1,0,0:0:0:0:
172,140,160884,1,0,0:0:0:0:
172,180,160955,1,0,0:0:0:0:
196,212,161025,5,0,0:0:0:0:
236,224,161096,1,0,0:0:0:0:
276,212,161166,1,0,0:0:0:0:
300,176,161236,1,0,0:0:0:0:
292,136,161307,1,0,0:0:0:0:
332,148,161377,1,0,0:0:0:0:
372,140,161448,1,0,0:0:0:0:
404,112,161518,1,0,0:0:0:0:
420,72,161588,1,0,0:0:0:0:
432,112,161659,1,0,0:0:0:0:
432,152,161729,1,0,0:0:0:0:
424,192,161800,1,0,0:0:0:0:
416,232,161870,1,0,0:0:0:0:
420,272,161941,1,0,0:0:0:0:
428,312,162011,1,0,0:0:0:0:
448,348,162081,1,0,0:0:0:0:
480,372,162152,5,0,0:0:0:0:
440,356,162222,1,0,0:0:0:0:
400,352,162293,1,0,0:0:0:0:
360,352,162363,1,0,0:0:0:0:
320,360,162433,1,0,0:0:0:0:
280,372,162504,1,0,0:0:0:0:
240,376,162574,1,0,0:0:0:0:
200,372,162645,1,0,0:0:0:0:
164,348,162715,1,0,0:0:0:0:
160,308,162786,1,0,0:0:0:0:
188,276,162856,1,0,0:0:0:0:
228,272,162926,1,0,0:0:0:0:
260,296,162997,1,0,0:0:0:0:
264,336,163067,1,0,0:0:0:0:
300,356,163138,1,0,0:0:0:0:
340,344,163208,1,0,0:0:0:0:
356,308,163278,6,0,B|380:280|380:280|432:252,3,68.75
244,144,163560,2,0,P|252:176|272:228,3,68.75
444,112,163842,1,0,0:0:0:0:
424,116,163912,1,0,0:0:0:0:
404,120,163983,1,0,0:0:0:0:
384,124,164053,1,0,0:0:0:0:
364,128,164123,1,0,0:0:0:0:
344,132,164194,1,0,0:0:0:0:
324,136,164264,1,0,0:0:0:0:
304,140,164335,1,0,0:0:0:0:
264,160,164405,5,0,0:0:0:0:
252,220,164476,1,0,0:0:0:0:
284,272,164546,1,0,0:0:0:0:
344,284,164616,1,0,0:0:0:0:
404,264,164687,1,0,0:0:0:0:
424,204,164757,1,0,0:0:0:0:
408,144,164828,1,0,0:0:0:0:
356,108,164898,1,0,0:0:0:0:
344,48,164968,1,0,0:0:0:0:
384,0,165039,1,0,0:0:0:0:
448,4,165109,1,0,0:0:0:0:
480,56,165180,1,0,0:0:0:0:
464,116,165250,1,0,0:0:0:0:
408,144,165321,1,0,0:0:0:0:
348,128,165391,1,0,0:0:0:0:
288,120,165461,1,0,0:0:0:0:
228,136,165532,5,0,0:0:0:0:
168,140,165602,1,0,0:0:0:0:
128,96,165673,1,0,0:0:0:0:
124,36,165743,1,0,0:0:0:0:
168,0,165813,1,0,0:0:0:0:
176,16,165884,1,0,0:0:0:0:
184,32,165954,1,0,0:0:0:0:
196,48,166025,1,0,0:0:0:0:
208,64,166095,1,0,0:0:0:0:
220,76,166166,1,0,0:0:0:0:
232,88,166236,1,0,0:0:0:0:
248,100,166306,1,0,0:0:0:0:
296,112,166377,1,0,0:0:0:0:
284,136,166447,1,0,0:0:0:0:
276,160,166518,1,0,0:0:0:0:
268,188,166588,1,0,0:0:0:0:
260,216,166658,1,0,0:0:0:0:
256,244,166729,1,0,0:0:0:0:
252,272,166799,1,0,0:0:0:0:
248,300,166870,1,0,0:0:0:0:
272,384,166940,5,0,0:0:0:0:
220,348,167011,1,0,0:0:0:0:
160,340,167081,1,0,0:0:0:0:
100,352,167151,1,0,0:0:0:0:
44,380,167222,1,0,0:0:0:0:
8,328,167292,1,0,0:0:0:0:
32,272,167363,1,0,0:0:0:0:
92,264,167433,1,0,0:0:0:0:
136,308,167503,1,0,0:0:0:0:
144,368,167574,1,0,0:0:0:0:
204,380,167644,1,0,0:0:0:0:
256,348,167715,1,0,0:0:0:0:
248,288,167785,6,0,P|232:136|220:-8,1,275
440,56,168208,1,0,0:0:0:0:
448,72,168278,1,0,0:0:0:0:
456,92,168349,2,0,P|444:200|432:272,1,137.5
352,356,168560,2,0,P|328:272|304:200,1,137.5
216,80,168771,2,0,P|212:144|212:172,1,68.75
192,244,168912,2,0,B|152:272|152:272|36:264,1,137.5
316,132,169194,1,0,0:0:0:0:
316,344,169334,1,0,0:0:0:0:
488,164,169475,2,0,P|408:208|320:200,1,137.5
200,64,169757,1,0,0:0:0:0:
76,152,169898,1,0,0:0:0:0:
64,160,169968,1,0,0:0:0:0:
48,168,170039,6,0,P|48:260|88:328,1,137.5
344,244,170320,2,0,P|328:148|304:104,1,137.5
164,32,170602,1,0,0:0:0:0:
96,284,170743,1,0,0:0:0:0:
348,352,170884,1,0,0:0:0:0:
416,100,171024,1,0,0:0:0:0:
64,140,171165,1,0,0:0:0:0:
456,256,171306,1,0,0:0:0:0:
308,4,171447,1,0,0:0:0:0:
204,372,171588,1,0,0:0:0:0:
160,16,171729,1,0,0:0:0:0:
356,368,171873,1,0,0:0:0:0:
364,356,171944,1,0,0:0:0:0:
372,344,172014,2,0,P|372:260|344:112,1,206.25
344,120,172292,6,0,P|264:148|180:164,1,137.5
16,280,172574,2,0,P|124:296|192:320,1,137.5
284,364,172855,1,0,0:0:0:0:
188,72,172996,1,0,0:0:0:0:
284,364,173137,1,0,0:0:0:0:
344,64,173278,1,0,0:0:0:0:
88,192,173419,6,0,B|128:208|128:208|164:192|164:192|192:200|248:200,1,137.5
484,148,173700,2,0,B|448:136|448:136|384:148|320:152,1,137.5
64,224,173982,2,0,B|58:239|70:275|70:275|62:307|62:307|66:359,1,137.5
448,160,174264,2,0,B|453:144|441:108|441:108|449:76|449:76|445:24,1,137.5
152,32,174545,5,0,0:0:0:0:
224,324,174686,1,0,0:0:0:0:
488,104,174827,1,0,0:0:0:0:
160,188,174968,1,0,0:0:0:0:
352,348,175109,1,0,0:0:0:0:
320,40,175249,1,0,0:0:0:0:
144,192,175390,1,0,0:0:0:0:
460,264,175531,1,0,0:0:0:0:
464,252,175601,1,0,0:0:0:0:
472,240,175672,6,0,B|484:168|484:168|464:124|464:124|484:88|484:88|456:44|468:0,1,206.25
384,24,175954,2,0,B|368:64|368:64|388:192,1,137.5
248,228,176235,2,0,B|200:216|200:216|64:220,1,137.5
172,72,176517,1,0,0:0:0:0:
220,360,176658,1,0,0:0:0:0:
380,176,176799,5,0,0:0:0:0:
52,224,176939,1,0,0:0:0:0:
64,232,177010,1,0,0:0:0:0:
72,240,177080,1,0,0:0:0:0:
40,48,177221,1,0,0:0:0:0:
284,200,177362,2,0,B|240:224|240:224|236:272|204:352,1,137.5
464,372,177644,2,0,B|464:328|464:328|460:316|452:304|452:304|456:284|460:264|460:264|448:192,1,137.5
252,84,177925,6,0,P|176:76|112:204,1,220
296,368,178348,1,0,0:0:0:0:
408,240,178489,2,0,P|404:164|400:112,1,110
116,144,178770,1,0,0:0:0:0:
68,352,178911,1,0,0:0:0:0:
128,368,178982,1,0,0:0:0:0:
188,348,179052,1,0,0:0:0:0:
260,252,179193,1,0,0:0:0:0:
384,220,179334,2,0,P|392:308|400:372,1,110
100,156,179615,2,0,P|168:144|240:120,1,110
432,68,179897,1,0,0:0:0:0:
252,272,180038,1,0,0:0:0:0:
276,24,180179,5,0,0:0:0:0:
400,352,180319,1,0,0:0:0:0:
492,136,180460,2,0,B|440:152|440:152|352:144,1,110
24,208,180742,2,0,B|64:188|64:188|160:192,1,110
436,288,181031,2,0,B|404:280|404:280|320:284,1,110
56,104,181305,5,0,0:0:0:0:
124,332,181446,1,0,0:0:0:0:
280,56,181587,1,0,0:0:0:0:
20,220,181728,1,0,0:0:0:0:
360,356,181869,1,0,0:0:0:0:
364,340,181939,1,0,0:0:0:0:
368,324,182009,1,0,0:0:0:0:
372,308,182080,1,0,0:0:0:0:
376,292,182150,1,0,0:0:0:0:
380,276,182221,1,0,0:0:0:0:
384,260,182291,1,0,0:0:0:0:
388,244,182362,1,0,0:0:0:0:
392,228,182432,5,0,0:0:0:0:
168,40,182573,1,0,0:0:0:0:
120,32,182643,1,0,0:0:0:0:
76,56,182714,1,0,0:0:0:0:
152,220,182854,1,0,0:0:0:0:
312,160,182995,2,0,B|320:104|320:104|300:8,1,110
60,164,183277,2,0,P|88:256|116:360,1,165
180,368,183559,5,0,0:0:0:0:
304,184,183699,1,0,0:0:0:0:
352,172,183770,1,0,0:0:0:0:
400,188,183840,1,0,0:0:0:0:
352,352,183981,1,0,0:0:0:0:
360,72,184122,1,0,0:0:0:0:
352,368,184263,1,0,0:0:0:0:
496,172,184404,2,0,P|392:196|364:188,1,110
160,144,184685,6,0,P|172:224|184:296,1,110
92,368,184967,2,0,P|56:288|36:240,1,110
280,104,185249,2,0,P|260:200|248:260,1,110
500,360,185530,2,0,P|488:264|484:216,1,110
368,32,185812,5,0,0:0:0:0:
368,32,185882,1,0,0:0:0:0:
368,32,185953,2,0,L|368:80|368:120,1,55
324,272,186094,2,0,P|284:224|268:216,1,55
140,120,186235,2,0,P|200:104|236:96,1,55
296,96,186375,1,0,0:0:0:0:
320,140,186446,1,0,0:0:0:0:
328,188,186516,1,0,0:0:0:0:
324,236,186587,1,0,0:0:0:0:
308,284,186657,1,0,0:0:0:0:
232,252,186727,1,0,0:0:0:0:
148,260,186798,1,0,0:0:0:0:
76,300,186868,1,0,0:0:0:0:
36,372,186939,6,0,P|48:236|24:112,1,242.000007385254
168,24,187361,1,0,0:0:0:0:
288,160,187502,2,0,P|360:160|436:136,1,121.000003692627
208,360,187784,1,0,0:0:0:0:
136,132,187925,1,0,0:0:0:0:
84,124,187995,1,0,0:0:0:0:
40,156,188065,6,0,P|52:232|72:312,1,121.000003692627
228,368,188347,2,0,P|216:264|216:208,1,121.000003692627
336,68,188629,2,0,P|420:68|492:64,1,121.000003692627
192,348,188910,2,0,P|120:336|64:328,1,121.000003692627
328,152,189192,6,0,P|344:260|340:356,1,181.500005538941
348,348,189474,2,0,B|396:344|396:344|488:316,1,121.000003692627
192,196,189755,2,0,B|156:192|156:192|20:200,1,121.000003692627
240,104,190037,1,0,0:0:0:0:
224,336,190178,1,0,0:0:0:0:
384,36,190319,5,0,0:0:0:0:
100,64,190460,1,0,0:0:0:0:
128,348,190600,1,0,0:0:0:0:
412,320,190741,1,0,0:0:0:0:
240,8,190882,1,0,0:0:0:0:
276,368,191023,1,0,0:0:0:0:
64,220,191164,1,0,0:0:0:0:
468,172,191305,1,0,0:0:0:0:
124,360,191445,6,0,P|128:252|108:144,1,181.500005538941
72,120,191727,2,0,P|120:104|216:64,1,121.000003692627
472,284,192009,2,0,P|400:284|348:288,1,121.000003692627
248,204,192290,2,0,P|344:164|352:64,1,181.500005538941
376,56,192572,6,0,B|384:112|384:112|416:204,1,121.000003692627
208,368,192854,2,0,P|200:292|144:176,1,181.500005538941
128,188,193135,2,0,P|196:144|196:92,1,121.000003692627
16,300,193417,2,0,B|76:288|144:324|144:324|192:280,1,181.500005538941
240,244,193699,6,0,B|256:288|256:288|248:376,1,121.000003692627
428,240,193980,2,0,B|416:176|416:176|420:72,1,121.000003692627
476,32,194192,1,0,0:0:0:0:
472,48,194262,2,0,L|328:28,1,121.000003692627
44,96,194544,1,0,0:0:0:0:
252,160,194685,1,0,0:0:0:0:
256,176,194755,1,0,0:0:0:0:
260,192,194825,6,0,P|264:272|248:348,1,121.000003692627
508,276,195107,2,0,P|464:208|448:152,1,121.000003692627
32,200,195389,1,0,0:0:0:0:
52,192,195459,1,0,0:0:0:0:
72,180,195530,1,0,0:0:0:0:
88,168,195600,1,0,0:0:0:0:
104,156,195670,1,0,0:0:0:0:
176,188,195741,1,0,0:0:0:0:
256,176,195811,1,0,0:0:0:0:
324,136,195882,1,0,0:0:0:0:
352,64,195952,5,0,0:0:0:0:
280,296,196093,1,0,0:0:0:0:
216,36,196234,1,0,0:0:0:0:
488,164,196375,1,0,0:0:0:0:
472,180,196445,1,0,0:0:0:0:
456,192,196515,2,0,P|372:196|308:172,1,121.000003692627
120,136,196797,2,0,P|144:220|160:288,1,121.000003692627
280,364,197079,5,0,0:0:0:0:
296,120,197220,1,0,0:0:0:0:
480,92,197360,1,0,0:0:0:0:
448,344,197501,1,0,0:0:0:0:
428,348,197572,1,0,0:0:0:0:
408,352,197642,2,0,P|336:336|264:324,1,121.000003692627
36,240,197924,2,0,P|100:232|176:224,1,121.000003692627
240,200,198135,5,0,0:0:0:0:
248,216,198205,2,0,P|244:132|224:72,1,121.000003692627
428,48,198487,1,0,0:0:0:0:
408,248,198628,1,0,0:0:0:0:
168,128,198769,2,0,P|236:116|312:104,1,121.000003692627
488,280,199050,2,0,B|384:256|336:176|336:248,1,126.500002412796
56,208,199332,5,0,0:0:0:0:
372,160,199473,1,0,0:0:0:0:
168,320,199614,1,0,0:0:0:0:
124,44,199755,1,0,0:0:0:0:
124,44,199825,1,0,0:0:0:0:
124,44,199895,2,0,P|192:40|272:88,1,121.000003692627
316,332,200177,1,0,0:0:0:0:
368,352,200248,1,0,0:0:0:0:
424,348,200318,1,0,0:0:0:0:
468,316,200388,1,0,0:0:0:0:
492,268,200459,6,0,P|496:184|492:128,1,121.000003692627
260,24,200740,1,0,0:0:0:0:
152,144,200881,2,0,P|148:220|168:292,1,121.000003692627
412,160,201163,2,0,P|344:144|268:136,1,121.000003692627
48,200,201445,1,0,0:0:0:0:
272,28,201586,5,0,0:0:0:0:
248,304,201726,1,0,0:0:0:0:
168,84,201867,1,0,0:0:0:0:
284,376,202008,1,0,0:0:0:0:
496,160,202149,2,0,P|384:152|332:180,1,121.000003692627
16,212,202431,2,0,P|84:232|152:216,1,121.000003692627
432,60,202712,5,0,0:0:0:0:
388,368,202853,1,0,0:0:0:0:
80,324,202994,5,0,0:0:0:0:
124,16,203135,1,0,0:0:0:0:
124,16,203205,1,0,0:0:0:0:
124,16,203276,1,0,0:0:0:0:
448,240,203416,1,0,0:0:0:0:
44,148,203557,1,0,0:0:0:0:
284,8,203698,1,0,0:0:0:0:
284,8,203768,1,0,0:0:0:0:
284,8,203839,5,0,0:0:0:0:
216,360,203980,1,0,0:0:0:0:
488,144,204121,2,0,P|424:156|320:156,1,121.000003692627
20,248,204402,1,0,0:0:0:0:
72,228,204473,1,0,0:0:0:0:
128,224,204543,1,0,0:0:0:0:
180,232,204613,1,0,0:0:0:0:
224,268,204684,1,0,0:0:0:0:
276,280,204754,1,0,0:0:0:0:
332,280,204825,1,0,0:0:0:0:
384,260,204895,1,0,0:0:0:0:
428,228,204966,6,0,P|412:152|420:4,1,181.500005538941
496,16,205247,2,0,P|488:92|488:152,1,121.000003692627
484,228,205458,1,0,0:0:0:0:
484,228,205529,2,0,P|412:232|344:216,1,121.000003692627
204,104,205811,6,0,P|208:192|216:336,1,181.500005538941
220,368,206092,1,0,0:0:0:0:
164,32,206280,1,0,0:0:0:0:
176,24,206374,6,0,P|232:24|280:44,1,80.6666691284181
356,104,206562,1,0,0:0:0:0:
184,264,206656,2,0,P|104:256|52:160,1,161.333338256836
288,192,206937,2,0,L|272:368,1,161.333338256836
388,268,207219,5,0,0:0:0:0:
160,136,207360,2,0,P|244:160|296:160,1,121.000003692627
472,52,207641,1,0,0:0:0:0:
148,112,207782,2,0,P|152:192|164:280,1,121.000003692627
280,360,208064,2,0,P|288:296|296:224,1,121.000003692627
484,36,208346,6,0,P|496:120|504:200,1,121.000003692627
260,116,208627,6,0,P|324:100|392:120,1,80.6666691284181
152,240,208815,1,0,0:0:0:0:
328,28,208909,2,0,P|340:104|340:152,1,80.6666691284181
336,272,209097,1,0,0:0:0:0:
24,160,209191,2,0,B|108:148|108:148|176:84,1,161.333338256836
260,64,209472,1,0,0:0:0:0:
200,308,209613,1,0,0:0:0:0:
184,292,209684,1,0,0:0:0:0:
164,272,209754,2,0,P|148:200|168:136,1,121.000003692627
460,152,210036,2,0,P|396:184|328:196,1,121.000003692627
272,40,210317,1,0,0:0:0:0:
324,336,210458,1,0,0:0:0:0:
80,216,210599,1,0,0:0:0:0:
392,88,210740,1,0,0:0:0:0:
16,104,210881,1,0,0:0:0:0:
432,276,211021,1,0,0:0:0:0:
404,8,211162,2,0,P|392:88|392:176,1,121.000003692627
296,372,211444,2,0,P|272:292|260:248,1,121.000003692627
176,80,211726,6,0,P|104:80|28:132,1,121.000003692627
472,96,212007,1,0,0:0:0:0:
200,280,212148,1,0,0:0:0:0:
288,16,212289,1,0,0:0:0:0:
400,372,212430,1,0,0:0:0:0:
440,176,212571,6,0,P|372:192|332:200,1,80.6666691284181
140,196,212758,1,0,0:0:0:0:
284,376,212852,6,0,P|288:276|284:168,1,161.333338256836
464,112,213134,2,0,P|396:144|332:160,1,121.000003692627
300,136,213345,1,0,0:0:0:0:
244,140,213416,1,0,0:0:0:0:
204,176,213486,1,0,0:0:0:0:
204,232,213556,1,0,0:0:0:0:
240,272,213627,1,0,0:0:0:0:
292,284,213697,1,0,0:0:0:0:
332,248,213768,1,0,0:0:0:0:
388,244,213838,1,0,0:0:0:0:
436,272,213909,1,0,0:0:0:0:
460,320,213979,6,0,P|448:184|436:72,1,242.000007385254
56,180,214401,1,0,0:0:0:0:
64,192,214472,1,0,0:0:0:0:
72,208,214542,2,0,P|148:212|216:180,1,121.000003692627
336,32,214824,2,0,P|428:52|468:80,1,121.000003692627
464,156,215035,5,0,0:0:0:0:
456,172,215106,2,0,P|456:268|464:316,1,121.000003692627
272,360,215387,6,0,P|240:328|220:292,1,80.6666691284181
12,244,215575,1,0,0:0:0:0:
212,56,215669,2,0,P|208:124|196:172,1,80.6666691284181
128,352,215857,1,0,0:0:0:0:
352,376,215951,2,0,P|336:288|328:172,1,161.333338256836
352,104,216232,6,0,B|292:124|292:124|240:112|200:116|200:116|228:180,1,181.500005538941
208,248,216514,2,0,P|156:292|152:204,1,181.500005538941
296,200,216796,2,0,B|300:268|312:328|312:328|292:380,1,181.500005538941
220,340,217077,1,0,0:0:0:0:
156,76,217218,1,0,0:0:0:0:
456,212,217359,6,0,B|392:216|336:240|336:240|272:200,1,181.500005538941
168,72,217641,6,0,P|180:128|180:192,1,80.6666691284181
188,292,217828,1,0,0:0:0:0:
380,192,217922,2,0,P|320:200|284:212,1,80.6666691284181
188,292,218110,1,0,0:0:0:0:
300,40,218204,2,0,L|224:208,1,161.333338256836
188,292,218486,6,0,P|112:276|60:280,1,121.000003692627
60,176,218697,1,0,0:0:0:0:
72,180,218767,2,0,P|156:176|208:152,1,121.000003692627
424,144,219049,1,0,0:0:0:0:
192,136,219190,1,0,0:0:0:0:
288,352,219331,1,0,0:0:0:0:
392,52,219472,1,0,0:0:0:0:
84,184,219612,5,0,0:0:0:0:
432,284,219753,1,0,0:0:0:0:
208,64,219894,2,0,P|192:116|192:160,1,80.6666691284181
236,256,220082,1,0,0:0:0:0:
480,176,220176,2,0,P|400:144|328:160,1,161.333338256836
176,332,220457,2,0,B|128:332|88:344|88:344|60:288|48:272,1,161.333338256836
136,244,220739,5,0,0:0:0:0:
360,364,220880,1,0,0:0:0:0:
368,352,220950,1,0,0:0:0:0:
376,340,221021,2,0,P|384:260|364:208,1,121.000003692627
92,24,221302,2,0,P|100:120|156:164,1,121.000003692627
176,184,221514,1,0,0:0:0:0:
176,184,221584,1,0,0:0:0:0:
432,32,221725,1,0,0:0:0:0:
376,36,221795,1,0,0:0:0:0:
332,68,221866,5,0,0:0:0:0:
208,32,222007,1,0,0:0:0:0:
304,296,222147,1,0,0:0:0:0:
312,276,222218,2,0,L|292:104,1,165.000006294251
432,32,222429,1,0,0:0:0:0:
428,56,222499,1,0,0:0:0:0:
424,76,222570,1,0,0:0:0:0:
420,96,222640,1,0,0:0:0:0:
416,112,222711,1,0,0:0:0:0:
332,112,222781,1,0,0:0:0:0:
264,160,222852,1,0,0:0:0:0:
236,236,222922,1,0,0:0:0:0:
248,316,222992,6,0,P|224:224|188:140,2,165.000006294251
360,200,223837,1,0,0:0:0:0:
268,64,223978,1,0,0:0:0:0:
504,152,224119,6,0,P|420:168|336:216,2,165.000006294251
172,332,224964,1,0,0:0:0:0:
160,224,225105,1,0,0:0:0:0:
272,216,225246,5,0,0:0:0:0:
280,324,225387,2,0,P|228:328|180:324,1,82.5000031471254
60,264,225668,1,0,0:0:0:0:
56,248,225739,1,0,0:0:0:0:
48,232,225809,2,0,P|48:176|56:136,1,82.5000031471254
324,36,226091,2,0,P|332:88|340:136,1,82.5000031471254
392,276,226372,6,0,P|432:208|440:192,1,82.5000031471254
480,92,226654,1,0,0:0:0:0:
376,80,226795,1,0,0:0:0:0:
240,160,226936,2,0,P|252:248|272:356,1,165.000006294251
272,344,227358,1,0,0:0:0:0:
488,224,227499,6,0,P|424:200|384:188,1,82.5000031471254
212,176,227781,2,0,P|272:164|320:152,1,82.5000031471254
496,64,228062,2,0,P|440:52|392:40,1,82.5000031471254
184,72,228344,1,0,0:0:0:0:
208,276,228485,1,0,0:0:0:0:
4,180,228626,2,0,P|68:188|148:112,2,165.000006294251
144,128,229471,2,0,P|148:204|148:244,1,82.5000031471254
212,296,229752,5,0,0:0:0:0:
276,64,230034,1,0,0:0:0:0:
388,48,230175,1,0,0:0:0:0:
440,176,230316,2,0,P|436:256|432:288,1,82.5000031471254
436,284,230504,1,0,0:0:0:0:
408,280,230551,1,0,0:0:0:0:
380,276,230597,1,0,0:0:0:0:
268,184,230738,1,0,0:0:0:0:
120,360,230879,6,0,P|124:288|128:240,1,82.5000031471254
268,200,231161,2,0,P|284:256|300:304,1,82.5000031471254
16,152,231442,2,0,P|80:144|104:136,1,82.5000031471254
392,40,231724,1,0,0:0:0:0:
420,68,231795,1,0,0:0:0:0:
428,108,231865,1,0,0:0:0:0:
412,148,231935,1,0,0:0:0:0:
376,168,232006,6,0,P|312:152|264:144,1,98.9999969787599
36,312,232287,2,0,P|96:292|144:284,1,98.9999969787599
340,372,232569,2,0,P|328:288|320:248,1,98.9999969787599
192,44,232851,1,0,0:0:0:0:
220,272,232992,1,0,0:0:0:0:
320,48,233132,5,0,0:0:0:0:
104,184,233273,1,0,0:0:0:0:
344,324,233414,2,0,P|416:320|460:276,1,98.9999969787599
204,172,233696,2,0,P|208:252|216:312,1,98.9999969787599
336,44,233977,2,0,P|340:120|340:184,1,98.9999969787599
340,336,234259,5,0,0:0:0:0:
40,248,234400,1,0,0:0:0:0:
188,208,234541,1,0,0:0:0:0:
344,352,234682,1,0,0:0:0:0:
352,336,234752,1,0,0:0:0:0:
360,320,234823,2,0,P|360:240|352:208,1,98.9999969787599
476,88,235104,1,0,0:0:0:0:
244,144,235245,1,0,0:0:0:0:
336,8,235386,5,0,0:0:0:0:
396,328,235527,1,0,0:0:0:0:
228,128,235668,2,0,P|240:196|264:256,1,98.9999969787599
252,304,235879,1,0,0:0:0:0:
232,304,235949,2,0,P|164:296|104:304,1,98.9999969787599
24,192,236231,2,0,B|64:180|64:180|148:168,1,98.9999969787599
296,24,236513,6,0,P|304:92|312:148,1,98.9999969787599
220,120,236794,1,0,0:0:0:0:
364,248,236935,2,0,B|408:256|408:256|472:240,1,98.9999969787599
168,328,237217,1,0,0:0:0:0:
144,228,237358,1,0,0:0:0:0:
336,352,237498,1,0,0:0:0:0:
492,156,237639,6,0,P|476:72|468:40,1,98.9999969787599
284,176,237921,2,0,P|280:248|280:308,1,98.9999969787599
40,76,238203,1,0,0:0:0:0:
156,340,238343,1,0,0:0:0:0:
184,332,238414,1,0,0:0:0:0:
212,324,238484,1,0,0:0:0:0:
240,316,238555,1,0,0:0:0:0:
268,308,238625,1,0,0:0:0:0:
496,136,238766,6,0,P|472:204|464:280,1,110
456,288,238977,1,0,0:0:0:0:
408,288,239048,1,0,0:0:0:0:
368,256,239118,1,0,0:0:0:0:
356,208,239188,2,0,P|360:160|364:148,1,55
448,32,239329,1,0,0:0:0:0:
408,60,239400,1,0,0:0:0:0:
360,72,239470,1,0,0:0:0:0:
312,68,239540,1,0,0:0:0:0:
272,40,239611,1,0,0:0:0:0:
224,28,239681,1,0,0:0:0:0:
176,40,239752,2,0,P|160:64|152:104,1,55
144,220,239893,5,0,0:0:0:0:
212,264,239963,1,0,0:0:0:0:
293,274,240033,1,0,0:0:0:0:
367,238,240104,1,0,0:0:0:0:
429,161,240174,2,0,P|432:110|427:66,1,65.9999979858399
305,26,240315,2,0,P|308:89|309:117,1,65.9999979858399
310,280,240456,2,0,P|265:252|245:234,1,65.9999979858399
81,144,240597,2,0,P|153:137|183:133,1,65.9999979858399
388,20,240738,1,0,0:0:0:0:
402,20,240808,1,0,0:0:0:0:
417,23,240878,1,0,0:0:0:0:
432,29,240949,1,0,0:0:0:0:
444,40,241019,6,0,B|464:88|464:88|444:224,1,142.99999345398
36,304,241301,5,0,0:0:0:0:
367,238,241442,1,0,0:0:0:0:
88,64,241583,1,0,0:0:0:0:
164,368,241723,1,0,0:0:0:0:
360,120,241864,1,0,0:0:0:0:
80,56,242005,1,0,0:0:0:0:
328,336,242146,5,0,0:0:0:0:
416,4,242287,1,0,0:0:0:0:
24,184,242428,2,0,P|104:200|180:172,1,142.99999345398
488,64,242709,1,0,0:0:0:0:
428,356,242850,1,0,0:0:0:0:
208,204,242991,2,0,P|192:112|208:20,1,142.99999345398
488,48,243273,5,0,0:0:0:0:
424,368,243413,1,0,0:0:0:0:
64,240,243554,1,0,0:0:0:0:
468,200,243695,1,0,0:0:0:0:
104,56,243836,1,0,0:0:0:0:
176,364,243977,2,0,B|204:344|204:344|224:336,3,47.6666644846599
480,192,244258,1,0,0:0:0:0:
304,44,244399,6,0,P|212:20|52:112,1,285.99998690796
324,380,244822,1,0,0:0:0:0:
408,16,244963,1,0,0:0:0:0:
112,244,245103,1,0,0:0:0:0:
492,220,245244,1,0,0:0:0:0:
168,36,245385,1,0,0:0:0:0:
508,112,245526,6,0,P|492:212|480:304,1,142.99999345398
288,376,245808,2,0,P|272:272|268:208,1,142.99999345398
72,40,246089,1,0,0:0:0:0:
384,168,246230,2,0,P|392:248|396:328,1,142.99999345398
104,364,246512,1,0,0:0:0:0:
100,344,246582,1,0,0:0:0:0:
96,328,246653,5,0,0:0:0:0:
392,364,246793,1,0,0:0:0:0:
392,52,246934,1,0,0:0:0:0:
100,204,247075,1,0,0:0:0:0:
320,272,247216,1,0,0:0:0:0:
216,40,247357,1,0,0:0:0:0:
256,364,247498,1,0,0:0:0:0:
320,20,247638,1,0,0:0:0:0:
8,140,247779,6,0,P|104:112|224:252,1,285.99998690796
472,360,248202,1,0,0:0:0:0:
484,312,248272,1,0,0:0:0:0:
488,264,248343,2,0,P|472:176|480:96,1,142.99999345398
37,122,248624,2,0,P|38:194|24:264,1,142.99999345398
144,348,248906,5,0,0:0:0:0:
100,80,249047,1,0,0:0:0:0:
368,36,249188,1,0,0:0:0:0:
368,292,249328,1,0,0:0:0:0:
28,224,249469,1,0,0:0:0:0:
88,248,249540,1,0,0:0:0:0:
152,248,249610,1,0,0:0:0:0:
212,224,249681,1,0,0:0:0:0:
264,188,249751,1,0,0:0:0:0:
320,180,249821,1,0,0:0:0:0:
388,172,249892,1,0,0:0:0:0:
448,196,249962,1,0,0:0:0:0:
488,244,250033,6,0,P|472:144|456:60,1,142.99999345398
40,196,250314,2,0,P|60:280|76:364,1,142.99999345398
344,4,250596,2,0,P|248:24|160:48,1,142.99999345398
272,368,250878,1,0,0:0:0:0:
160,104,251019,1,0,0:0:0:0:
484,264,251159,5,0,0:0:0:0:
24,204,251300,1,0,0:0:0:0:
344,20,251441,1,0,0:0:0:0:
168,348,251582,1,0,0:0:0:0:
204,16,251723,1,0,0:0:0:0:
308,368,251864,1,0,0:0:0:0:
504,80,252004,2,0,B|452:104|452:104|392:96|336:100,1,142.99999345398
8,304,252286,6,0,B|60:280|60:280|120:288|176:284,1,142.99999345398
472,360,252568,1,0,0:0:0:0:
256,32,252709,1,0,0:0:0:0:
224,384,252849,1,0,0:0:0:0:
480,208,252990,1,0,0:0:0:0:
484,144,253061,1,0,0:0:0:0:
468,80,253131,1,0,0:0:0:0:
424,32,253201,1,0,0:0:0:0:
364,12,253272,1,0,0:0:0:0:
24,196,253413,5,0,0:0:0:0:
372,128,253554,1,0,0:0:0:0:
80,304,253694,1,0,0:0:0:0:
256,32,253835,1,0,0:0:0:0:
192,352,253976,1,0,0:0:0:0:
120,44,254117,1,0,0:0:0:0:
392,156,254258,1,0,0:0:0:0:
16,164,254399,1,0,0:0:0:0:
416,52,254539,5,0,0:0:0:0:
396,360,254680,1,0,0:0:0:0:
64,312,254821,1,0,0:0:0:0:
488,136,254962,1,0,0:0:0:0:
256,360,255103,1,0,0:0:0:0:
132,28,255244,1,0,0:0:0:0:
252,360,255384,1,0,0:0:0:0:
376,28,255525,1,0,0:0:0:0:
56,328,255666,5,0,0:0:0:0:
464,208,255807,1,0,0:0:0:0:
36,60,255948,1,0,0:0:0:0:
476,212,256089,1,0,0:0:0:0:
224,8,256229,1,0,0:0:0:0:
288,376,256370,1,0,0:0:0:0:
480,120,256511,1,0,0:0:0:0:
32,264,256652,1,0,0:0:0:0:
224,8,256793,5,0,0:0:0:0:
184,56,256863,1,0,0:0:0:0:
192,120,256934,1,0,0:0:0:0:
248,148,257004,1,0,0:0:0:0:
312,140,257074,1,0,0:0:0:0:
352,88,257145,1,0,0:0:0:0:
416,80,257215,1,0,0:0:0:0:
472,112,257286,1,0,0:0:0:0:
492,172,257356,1,0,0:0:0:0:
468,232,257426,1,0,0:0:0:0:
408,256,257497,1,0,0:0:0:0:
348,236,257567,1,0,0:0:0:0:
280,224,257638,1,0,0:0:0:0:
220,244,257708,1,0,0:0:0:0:
184,300,257779,1,0,0:0:0:0:
212,360,257849,1,0,0:0:0:0:
272,384,257919,5,0,0:0:0:0:
272,320,257990,1,0,0:0:0:0:
220,284,258060,1,0,0:0:0:0:
156,292,258131,1,0,0:0:0:0:
112,340,258201,1,0,0:0:0:0:
48,332,258271,1,0,0:0:0:0:
12,280,258342,1,0,0:0:0:0:
28,216,258412,1,0,0:0:0:0:
92,204,258483,6,0,P|144:196|200:188,1,82.5000031471254
500,144,258624,2,0,P|428:152|380:156,1,82.5000031471254
56,76,258764,2,0,P|136:80|184:84,1,82.5000031471254
484,16,258905,2,0,P|424:40|368:64,1,82.5000031471254
232,164,259046,1,0,0:0:0:0:
236,240,259117,1,0,0:0:0:0:
272,304,259187,2,0,P|336:312|392:304,1,82.5000031471254
500,144,259328,1,0,0:0:0:0:
396,108,259398,2,0,P|296:116|192:120,1,165.000006294251
68,80,259609,6,0,P|40:164|76:232,1,165.000006294251
176,304,260032,1,0,0:0:0:0:
288,228,260173,2,0,P|352:244|380:256,1,82.5000031471254
500,144,260454,1,0,0:0:0:0:
376,100,260595,2,0,P|324:112|280:120,1,82.5000031471254
180,48,260877,1,0,0:0:0:0:
40,156,261018,1,0,0:0:0:0:
204,232,261159,1,0,0:0:0:0:
376,100,261299,6,0,P|412:136|440:168,1,82.5000031471254
304,248,261581,2,0,L|296:320|292:356,1,82.5000031471254
152,52,261863,1,0,0:0:0:0:
44,176,262004,2,0,P|60:240|64:272,1,82.5000031471254
176,344,262285,1,0,0:0:0:0:
360,180,262426,6,0,L|416:180|448:180,1,82.5000031471254
396,340,262708,2,0,L|280:320,1,82.5000031471254
24,192,262989,6,0,L|72:188|120:184,1,82.5000031471254
292,152,263271,2,0,P|216:144|192:144,1,82.5000031471254
56,80,263553,2,0,P|116:72|156:68,1,82.5000031471254
344,80,263834,1,0,0:0:0:0:
364,252,263975,1,0,0:0:0:0:
472,164,264116,6,0,P|492:96|504:48,1,82.5000031471254
272,152,264398,1,0,0:0:0:0:
368,272,264539,1,0,0:0:0:0:
476,180,264679,6,0,P|472:96|468:84,1,82.5000031471254
244,248,264961,2,0,P|248:332|252:344,1,82.5000031471254
40,200,265243,2,0,P|92:204|148:192,1,82.5000031471254
240,80,265524,1,0,0:0:0:0:
328,120,265665,1,0,0:0:0:0:
252,180,265806,6,0,P|204:172|160:128,1,82.5000031471254
416,136,266088,2,0,L|416:212|416:248,1,82.5000031471254
304,316,266369,1,0,0:0:0:0:
152,240,266510,2,0,L|92:236|32:232,1,82.5000031471254
268,172,266792,1,0,0:0:0:0:
180,336,266933,6,0,P|172:280|168:228,1,82.5000031471254
344,124,267215,1,0,0:0:0:0:
256,264,267355,2,0,P|236:204|228:168,1,82.5000031471254
436,120,267637,1,0,0:0:0:0:
344,124,267778,1,0,0:0:0:0:
268,172,267919,1,0,0:0:0:0:
256,264,268060,6,0,P|316:284|364:272,1,82.5000031471254
240,76,268341,2,0,P|192:64|140:68,1,82.5000031471254
72,144,268623,6,0,P|68:204|64:244,1,82.5000031471254
164,368,268905,2,0,P|160:304|156:264,1,82.5000031471254
360,208,269186,1,0,0:0:0:0:
256,160,269327,1,0,0:0:0:0:
256,276,269468,1,0,0:0:0:0:
364,224,269609,2,0,P|360:144|344:112,1,82.5000031471254
144,44,269890,1,0,0:0:0:0:
232,168,270031,2,0,P|296:156|320:144,1,82.5000031471254
432,40,270313,6,0,P|424:96|420:144,1,82.5000031471254
324,368,270595,2,0,P|316:300|312:268,1,82.5000031471254
92,144,270876,1,0,0:0:0:0:
96,256,271017,1,0,0:0:0:0:
360,180,271158,1,0,0:0:0:0:
300,80,271299,1,0,0:0:0:0:
188,200,271440,6,0,P|200:256|208:312,1,82.5000031471254
352,364,271721,2,0,P|360:304|364:276,1,82.5000031471254
268,32,272003,2,0,P|276:96|288:132,1,82.5000031471254
316,192,272285,1,0,0:0:0:0:
24,172,272425,2,0,P|100:160|128:152,1,82.5000031471254
200,116,272707,1,0,0:0:0:0:
240,204,272848,1,0,0:0:0:0:
232,300,272989,1,0,0:0:0:0:
164,368,273130,6,0,P|232:356|260:352,1,82.5000031471254
484,308,273411,2,0,P|424:300|380:296,1,82.5000031471254
164,248,273693,1,0,0:0:0:0:
164,248,273834,2,0,P|228:240|264:236,1,82.5000031471254
404,132,274115,2,0,P|408:208|412:240,1,82.5000031471254
416,316,274397,1,0,0:0:0:0:
268,320,274538,2,0,P|204:312|160:312,1,82.5000031471254
20,216,274820,2,0,P|88:212|116:196,1,82.5000031471254
256,48,275101,2,0,L|256:152,1,82.5000031471254
412,332,275383,6,0,B|424:292|424:292|412:212,1,82.5000031471254
308,120,275665,2,0,B|296:152|296:152|304:232,1,93.500001783371
200,356,275946,1,0,0:0:0:0:
184,168,276087,1,0,0:0:0:0:
56,36,276228,2,0,B|40:72|40:72|52:160,1,121.000003692627
56,296,276510,1,0,0:0:0:0:
108,316,276580,1,0,0:0:0:0:
164,316,276650,1,0,0:0:0:0:
216,300,276721,1,0,0:0:0:0:
260,268,276791,1,0,0:0:0:0:
312,260,276862,1,0,0:0:0:0:
368,268,276932,1,0,0:0:0:0:
416,296,277003,1,0,0:0:0:0:
456,332,277073,1,0,0:0:0:0:
444,280,277143,1,0,0:0:0:0:
456,228,277214,1,0,0:0:0:0:
492,184,277284,1,0,0:0:0:0:
508,132,277355,5,0,0:0:0:0:
480,84,277425,1,0,0:0:0:0:
428,72,277495,1,0,0:0:0:0:
384,104,277566,1,0,0:0:0:0:
376,164,277636,5,0,0:0:0:0:
32,144,277777,1,0,0:0:0:0:
32,144,277848,1,0,0:0:0:0:
32,144,277918,2,0,P|128:136|172:104,1,131.99999597168
328,28,278200,6,0,P|336:120|352:208,1,131.99999597168
192,352,278481,1,0,0:0:0:0:
184,96,278622,1,0,0:0:0:0:
476,168,278763,2,0,P|404:204|340:196,1,131.99999597168
260,176,278974,1,0,0:0:0:0:
240,176,279045,2,0,P|224:264|256:320,1,131.99999597168
400,80,279326,6,0,P|324:44|252:44,1,131.99999597168
76,196,279608,2,0,B|64:244|64:244|80:360,1,131.99999597168
432,168,279890,5,0,0:0:0:0:
76,196,280030,1,0,0:0:0:0:
328,36,280171,1,0,0:0:0:0:
304,356,280312,1,0,0:0:0:0:
164,116,280453,1,0,0:0:0:0:
448,176,280594,1,0,0:0:0:0:
184,364,280735,1,0,0:0:0:0:
148,16,280875,1,0,0:0:0:0:
156,32,280946,1,0,0:0:0:0:
164,48,281016,6,0,P|248:56|340:44,1,131.99999597168
496,208,281298,2,0,P|416:212|340:216,1,131.99999597168
96,356,281580,1,0,0:0:0:0:
72,300,281650,1,0,0:0:0:0:
80,240,281720,1,0,0:0:0:0:
116,192,281791,1,0,0:0:0:0:
164,160,281861,1,0,0:0:0:0:
180,104,281932,1,0,0:0:0:0:
176,44,282002,1,0,0:0:0:0:
136,0,282073,1,0,0:0:0:0:
76,8,282143,6,0,L|232:20,1,131.99999597168
504,228,282425,2,0,P|400:220|344:216,1,131.99999597168
44,120,282706,1,0,0:0:0:0:
268,368,282847,1,0,0:0:0:0:
496,80,282988,2,0,P|392:76|320:72,1,131.99999597168
40,104,283270,2,0,B|48:152|48:152|48:264,1,131.99999597168
76,316,283481,1,0,0:0:0:0:
88,328,283551,2,0,P|172:340|244:304,1,131.99999597168
256,32,283833,1,0,0:0:0:0:
432,340,283974,1,0,0:0:0:0:
256,32,284115,1,0,0:0:0:0:
104,344,284256,1,0,0:0:0:0:
88,328,284326,1,0,0:0:0:0:
76,316,284396,2,0,P|64:216|96:156,1,131.99999597168
400,36,284678,1,0,0:0:0:0:
264,364,284819,1,0,0:0:0:0:
20,112,284960,2,0,P|100:120|168:108,1,131.99999597168
492,240,285241,2,0,P|424:228|344:232,1,131.99999597168
184,288,285523,5,0,0:0:0:0:
312,44,285664,1,0,0:0:0:0:
264,364,285805,1,0,0:0:0:0:
160,72,285946,1,0,0:0:0:0:
264,364,286086,1,0,0:0:0:0:
344,16,286227,1,0,0:0:0:0:
72,220,286368,1,0,0:0:0:0:
424,308,286509,1,0,0:0:0:0:
52,224,286650,6,0,P|136:212|264:240,1,197.99999395752
328,280,286931,2,0,P|348:204|364:140,1,131.99999597168
480,44,287213,1,0,0:0:0:0:
424,328,287354,2,0,B|380:340|380:340|276:328,1,131.99999597168
32,96,287636,1,0,0:0:0:0:
32,96,287706,1,0,0:0:0:0:
32,96,287776,6,0,B|84:104|84:104|116:88|116:88|144:96|192:88,1,131.99999597168
272,168,288058,2,0,P|288:256|296:336,1,131.99999597168
436,364,288340,2,0,P|440:280|448:200,1,131.99999597168
320,16,288621,6,0,P|288:108|268:168,1,131.99999597168
164,360,288903,5,0,0:0:0:0:
116,88,289044,1,0,0:0:0:0:
332,300,289185,1,0,0:0:0:0:
16,264,289326,1,0,0:0:0:0:
32,256,289396,1,0,0:0:0:0:
48,248,289466,1,0,0:0:0:0:
272,104,289607,1,0,0:0:0:0:
340,384,289748,1,0,0:0:0:0:
484,368,289889,1,0,0:0:0:0:
480,352,289959,1,0,0:0:0:0:
476,336,290030,5,0,0:0:0:0:
492,92,290171,1,0,0:0:0:0:
492,92,290241,1,0,0:0:0:0:
492,92,290311,2,0,P|404:112|324:96,1,131.99999597168
24,228,290593,1,0,0:0:0:0:
76,204,290663,1,0,0:0:0:0:
136,204,290734,1,0,0:0:0:0:
192,220,290804,1,0,0:0:0:0:
240,256,290875,1,0,0:0:0:0:
296,268,290945,1,0,0:0:0:0:
356,264,291016,1,0,0:0:0:0:
412,244,291086,1,0,0:0:0:0:
460,212,291156,6,0,P|464:112|456:40,1,131.99999597168
304,8,291438,1,0,0:0:0:0:
16,220,291579,1,0,0:0:0:0:
24,228,291649,1,0,0:0:0:0:
24,228,291720,2,0,P|104:224|180:184,1,131.99999597168
504,80,292001,2,0,P|420:112|360:120,1,131.99999597168
104,48,292283,6,0,P|128:148|148:232,1,131.99999597168
312,364,292565,1,0,0:0:0:0:
392,76,292706,1,0,0:0:0:0:
392,76,292776,1,0,0:0:0:0:
392,76,292846,2,0,P|328:120|260:156,1,131.99999597168
12,256,293128,2,0,P|112:280|176:312,1,131.99999597168
472,216,293410,5,0,0:0:0:0:
192,312,293551,1,0,0:0:0:0:
268,20,293691,1,0,0:0:0:0:
392,364,293832,1,0,0:0:0:0:
392,364,293903,1,0,0:0:0:0:
392,364,293973,2,0,P|404:264|392:176,1,131.99999597168
184,24,294255,2,0,P|192:112|224:208,1,131.99999597168
488,104,294536,6,0,B|444:96|444:96|340:120,1,131.99999597168
92,140,294818,1,0,0:0:0:0:
124,360,294959,1,0,0:0:0:0:
300,248,295100,1,0,0:0:0:0:
296,228,295170,1,0,0:0:0:0:
292,208,295241,1,0,0:0:0:0:
288,192,295311,1,0,0:0:0:0:
284,172,295381,1,0,0:0:0:0:
360,188,295452,1,0,0:0:0:0:
436,164,295522,1,0,0:0:0:0:
488,104,295593,1,0,0:0:0:0:
500,24,295663,5,0,0:0:0:0:
424,340,295804,5,0,0:0:0:0:
120,152,295945,2,0,P|204:156|280:136,1,131.99999597168
504,12,296226,2,0,P|496:112|492:180,1,131.99999597168
312,368,296508,2,0,P|296:280|288:232,1,131.99999597168
200,32,296790,5,0,0:0:0:0:
60,300,296931,1,0,0:0:0:0:
384,92,297071,1,0,0:0:0:0:
48,72,297212,1,0,0:0:0:0:
52,92,297283,1,0,0:0:0:0:
56,112,297353,2,0,P|128:120|192:96,1,131.99999597168
308,264,297635,2,0,P|400:256|460:276,1,131.99999597168
496,100,297916,5,0,0:0:0:0:
468,328,298057,1,0,0:0:0:0:
52,188,298198,2,0,P|44:92|72:36,1,131.99999597168
232,172,298480,2,0,P|248:248|236:332,1,131.99999597168
440,276,298761,1,0,0:0:0:0:
276,16,298902,1,0,0:0:0:0:
44,200,299043,5,0,0:0:0:0:
92,256,299114,1,0,0:0:0:0:
164,264,299184,1,0,0:0:0:0:
232,236,299254,1,0,0:0:0:0:
296,196,299325,1,0,0:0:0:0:
368,188,299395,1,0,0:0:0:0:
436,216,299466,1,0,0:0:0:0:
476,280,299536,1,0,0:0:0:0:
464,356,299606,1,0,0:0:0:0:
432,288,299677,1,0,0:0:0:0:
440,216,299747,1,0,0:0:0:0:
476,152,299818,1,0,0:0:0:0:
480,76,299888,1,0,0:0:0:0:
424,28,299959,1,0,0:0:0:0:
348,24,300029,1,0,0:0:0:0:
296,76,300099,1,0,0:0:0:0:
280,148,300170,6,0,B|260:192|260:192|292:360,1,192.500001835823
200,364,300381,2,0,P|92:384|24:324,1,192.500001835823
20,304,300592,2,0,B|0:212|0:212|16:100,1,192.500001835823
252,36,300804,2,0,B|284:132|284:132|272:280,1,192.500001835823
220,368,301015,1,0,0:0:0:0:
316,316,301085,2,0,P|420:300|520:296,1,192.500001835823
