osu file format v9

[General]
AudioFilename: rog-unlimitation.mp3
AudioLeadIn: 1996
PreviewTime: 71235
Countdown: 0
SampleSet: Normal
StackLeniency: 0.6
Mode: 1
LetterboxInBreaks: 0

[Editor]
Bookmarks: 22152,75594,91962,110507,123598,136689
DistanceSpacing: 0.6
BeatDivisor: 4
GridSize: 16

[Metadata]
Title:rog-unlimitation
Artist:07th Expansion
Creator:AngelHoney
Version:lepidon! - Taiko Oni
Source:Umineko no Naku Koro ni
Tags:xaki

[Difficulty]
HPDrainRate:5
CircleSize:5
OverallDifficulty:6
ApproachRate:5
SliderMultiplier:1.4
SliderTickRate:0.5

[Events]
//Background and Video events
0,0,"10088009.jpg"
//Break Periods
//Storyboard Layer 0 (Background)
//Storyboard Layer 1 (Fail)
//Storyboard Layer 2 (Pass)
//Storyboard Layer 3 (Foreground)
//Storyboard Sound Samples
//Background Colour Transformations
3,100,0,0,0

[TimingPoints]
380,272.727272727273,4,1,0,100,1,0
36380,-100,4,1,0,100,0,1
40743,-100,4,1,0,100,0,0
53834,-100,4,1,0,100,0,1
58198,-100,4,1,0,100,0,0
71289,-100,4,1,0,100,0,1
75652,-100,4,1,0,100,0,0
88743,-100,4,1,0,100,0,1
93107,-100,4,1,0,100,0,0

[HitObjects]
384,112,380,5,4
368,288,789,1,4
368,288,1198,1,4
368,288,1607,1,4
320,288,2016,1,4
320,288,2289,1,4
240,128,2561,1,4
240,128,2970,1,4
240,128,3380,1,4
240,128,3789,1,4
320,128,4198,1,4
320,128,4334,1,12
304,224,4470,1,4
416,192,4743,5,4
384,224,4880,1,4
368,272,5152,1,4
368,272,5289,1,4
320,320,5561,1,4
320,320,5698,1,4
256,224,5970,1,4
256,224,6107,1,4
288,208,6380,1,4
288,208,6652,1,4
384,112,6925,1,4
384,112,7061,1,4
352,256,7334,1,4
352,256,7470,1,4
368,320,7743,1,4
368,320,7880,1,4
240,176,8152,1,4
240,176,8289,1,4
320,144,8561,1,4
384,160,8698,1,12
352,256,8834,1,4
423,76,9107,5,4
432,156,9243,1,12
372,122,9516,1,4
384,160,9652,1,12
459,161,9925,1,4
384,239,10061,1,12
384,160,10334,1,4
412,229,10470,1,12
391,196,10743,1,4
413,294,11016,1,4
423,76,11289,1,4
432,156,11425,1,12
372,122,11698,1,4
384,160,11834,1,12
459,161,12107,1,4
384,239,12243,1,12
384,160,12516,1,4
412,229,12652,1,12
391,196,12925,1,4
451,214,13062,1,12
413,294,13198,1,4
372,106,13470,5,4
459,161,13607,1,12
459,161,13743,1,12
459,161,13880,1,4
459,161,14016,1,12
459,161,14152,1,12
443,189,14289,1,4
451,214,14425,1,12
420,227,14561,1,12
420,227,14698,1,4
420,227,14834,1,12
420,227,14970,1,12
420,227,15107,1,4
420,227,15380,1,4
372,106,15652,5,4
459,161,15789,1,12
459,161,15925,1,12
459,161,16062,1,4
459,161,16198,1,12
459,161,16334,1,12
443,189,16471,1,4
451,214,16607,1,12
420,227,16743,1,12
420,227,16880,1,4
420,227,17016,1,12
420,227,17152,1,12
420,227,17289,1,4
443,189,17425,1,12
464,240,17561,1,4
397,121,17834,2,4,B|36:303|36:303|136:116|136:116|459:316,1,980
272,80,20016,1,4
384,192,20425,1,4
256,192,20834,12,0,22061
304,64,22198,5,4
304,64,22470,1,4
352,240,22743,1,4
352,240,22880,1,4
352,240,23016,1,4
192,176,23289,5,0
416,176,23425,1,8
304,192,23561,1,0
304,192,23698,1,0
304,192,23766,1,0
416,208,23834,1,8
432,240,23970,1,0
272,96,24243,1,0
272,96,24380,1,0
384,288,24516,1,0
384,288,24584,1,0
384,256,24652,1,8
416,208,24789,1,0
288,224,25061,1,0
416,160,25198,1,8
416,208,25334,1,0
128,176,25470,1,0
352,160,25607,1,8
352,224,25743,1,0
384,224,25880,1,0
384,224,25948,1,0
448,192,26016,1,8
336,96,26152,1,0
272,288,26425,1,0
192,160,26561,1,0
192,160,26630,1,0
192,160,26698,1,0
336,96,26834,1,8
416,160,26970,1,0
352,256,27243,1,0
352,256,27311,1,0
352,256,27380,1,0
352,256,27516,1,0
192,176,27652,5,0
416,176,27788,1,8
304,192,27924,1,0
304,192,28061,1,0
304,192,28129,1,0
416,208,28197,1,8
432,240,28333,1,0
272,96,28606,1,0
272,96,28743,1,0
384,288,28879,1,0
384,288,28947,1,0
384,256,29015,1,8
416,208,29152,1,0
288,224,29424,1,0
416,160,29561,1,8
416,208,29697,1,0
192,176,29834,1,0
416,176,29970,1,8
304,192,30106,1,0
304,192,30243,1,0
304,192,30311,1,0
416,208,30379,1,8
432,240,30515,1,0
416,160,30789,1,4
272,160,30925,1,12
272,160,31061,1,4
336,256,31334,1,4
336,256,31470,1,4
384,208,31743,1,12
384,208,31880,1,12
160,128,32016,5,0
368,96,32152,1,0
464,160,32289,1,8
416,192,32425,1,0
416,192,32493,1,0
368,240,32561,1,8
400,240,32698,1,0
288,96,32970,1,0
304,208,33107,1,0
304,144,33243,1,0
464,160,33380,1,8
464,160,33448,1,8
496,208,33516,1,0
352,176,33789,1,0
416,160,33925,1,8
400,320,34061,1,0
160,128,34198,1,0
368,96,34334,1,0
464,160,34471,1,8
416,192,34607,1,0
416,192,34675,1,0
368,240,34743,1,8
400,240,34880,1,0
197,245,35152,1,0
416,160,35289,1,8
476,202,35425,1,0
476,202,35493,1,0
452,192,35561,1,8
368,240,35698,1,0
311,256,35834,1,0
311,256,35902,1,0
311,256,35970,1,0
380,146,36107,1,4
279,63,36380,5,0
279,63,36448,1,0
464,92,36516,1,8
477,142,36652,1,0
477,142,36720,1,0
477,142,36789,1,8
477,142,36925,1,0
477,142,36993,1,0
431,166,37061,1,8
440,222,37198,1,0
440,222,37266,1,0
388,238,37334,1,8
279,63,37470,1,0
279,63,37538,1,0
464,92,37606,1,8
477,142,37742,1,0
477,142,37810,1,0
477,142,37879,1,8
477,142,38015,1,0
477,142,38083,1,0
431,166,38151,1,8
440,222,38288,1,0
440,222,38356,1,0
388,238,38424,1,8
196,151,38561,1,0
291,163,38630,1,8
291,163,38698,1,8
364,159,38834,1,0
431,166,38902,1,8
431,166,38970,1,8
431,166,39107,1,0
431,166,39175,1,8
431,166,39243,1,8
431,166,39380,1,0
431,166,39448,1,8
431,166,39516,1,8
229,97,39652,1,0
364,159,39720,1,8
364,159,39789,1,8
431,166,39925,1,0
459,167,39993,1,8
459,167,40061,1,8
431,166,40198,1,0
459,167,40266,1,8
459,167,40334,1,8
380,156,40470,1,12
325,86,40743,5,0
354,96,40811,1,0
444,132,40880,1,8
459,167,41016,1,0
459,167,41152,1,8
464,225,41289,1,0
464,225,41357,1,8
409,208,41425,1,0
409,208,41561,1,0
409,208,41698,1,8
444,132,41834,1,8
404,128,41902,1,8
459,167,41970,1,0
459,167,42107,1,8
383,220,42243,1,0
422,268,42380,1,8
422,268,42448,1,8
388,272,42516,1,0
388,272,42652,1,0
324,217,42789,1,8
349,144,42925,1,0
349,144,42993,1,0
299,143,43061,1,8
349,144,43198,1,8
443,196,43334,1,0
383,220,43470,1,0
459,167,43539,1,8
383,220,43607,1,0
422,268,43743,1,0
412,220,43880,1,8
420,114,44016,1,8
420,114,44084,1,8
459,167,44152,1,0
427,176,44289,1,8
412,220,44425,1,0
475,200,44561,1,8
475,200,44630,1,8
475,200,44698,1,0
475,200,44766,1,0
443,196,44834,1,8
136,154,45107,5,0
203,178,45243,1,0
203,178,45311,1,0
356,178,45380,1,8
376,244,45516,1,0
459,167,45652,1,8
459,167,45720,1,8
427,176,45789,1,0
435,232,45925,1,0
435,232,46061,1,8
350,115,46198,1,8
350,115,46266,1,8
402,114,46334,1,0
430,139,46470,1,8
349,240,46607,1,8
376,244,46743,1,0
427,297,46880,1,0
427,297,46948,1,0
474,197,47016,1,8
384,270,47152,1,0
368,160,47289,1,8
368,160,47357,1,8
448,192,47425,1,0
448,192,47561,1,8
448,192,47630,1,8
416,224,47698,1,0
272,256,47834,1,0
430,139,47970,1,8
368,160,48107,1,8
368,160,48175,1,8
400,192,48243,1,0
288,208,48380,1,4
288,208,48516,1,4
320,224,48789,1,4
320,224,48925,1,4
416,224,49198,1,12
384,288,49334,1,12
320,112,49470,5,8
320,112,49607,1,8
320,112,49675,1,8
432,160,49743,1,0
432,160,49880,1,8
464,176,50016,1,0
464,176,50084,1,0
464,176,50152,1,8
464,208,50289,1,0
464,208,50425,1,8
208,224,50561,1,0
208,224,50630,1,0
304,304,50698,1,8
384,256,50834,1,0
368,192,50970,1,8
368,96,51107,1,0
320,112,51243,1,0
448,128,51380,1,8
432,160,51448,1,8
416,192,51516,1,0
235,181,51584,1,0
162,140,51652,1,0
432,160,51789,1,8
464,208,51925,1,0
416,192,52061,1,8
176,224,52198,1,0
176,224,52266,1,0
384,256,52334,1,8
416,224,52470,1,0
416,192,52607,1,8
256,160,52743,1,0
304,144,52880,1,0
304,144,53016,1,0
275,224,53152,1,0
275,224,53289,1,0
275,224,53357,1,0
275,224,53425,1,0
275,224,53561,1,0
275,224,53630,1,0
275,224,53698,1,0
226,99,53834,5,0
263,100,53902,1,0
449,132,53970,1,8
488,172,54107,1,0
488,172,54175,1,0
488,172,54243,1,8
388,264,54380,1,0
388,264,54448,1,0
400,217,54516,1,8
440,223,54652,1,0
440,223,54720,1,0
440,223,54789,1,8
226,99,54925,1,0
263,100,54993,1,0
449,132,55061,1,8
488,172,55198,1,0
488,172,55266,1,0
488,172,55334,1,8
388,264,55471,1,0
388,264,55539,1,0
400,217,55607,1,8
367,173,55675,1,8
323,245,55743,1,0
336,272,55880,1,8
223,156,56016,1,0
333,168,56084,1,8
333,168,56152,1,8
440,164,56289,1,0
440,164,56357,1,8
440,164,56425,1,8
440,164,56561,1,0
488,172,56630,1,8
488,172,56698,1,8
440,164,56834,1,0
488,172,56902,1,8
466,188,56970,1,8
368,123,57107,1,4
368,123,57243,1,4
398,132,57380,1,4
398,132,57516,1,4
429,110,57652,1,0
429,110,57720,1,0
488,172,57789,1,8
488,172,57857,1,8
488,172,57925,1,0
488,172,57993,1,0
488,172,58061,1,8
487,89,58198,5,0
368,272,58334,1,0
432,256,58470,1,8
448,224,58607,1,0
448,224,58675,1,0
464,192,58743,1,8
432,256,58880,1,0
230,268,59152,1,0
305,283,59289,1,0
342,194,59425,1,0
432,188,59493,1,8
432,188,59561,1,8
448,224,59698,1,0
380,222,59970,1,0
432,162,60107,1,8
432,188,60243,1,0
432,188,60311,1,0
432,188,60380,1,0
349,279,60516,1,0
379,279,60652,1,8
272,160,60789,1,0
272,160,60857,1,0
470,164,60925,1,8
470,164,61061,1,0
359,250,61334,1,0
380,222,61470,1,0
140,136,61607,1,0
340,162,61675,1,8
432,188,61743,1,0
380,222,61880,1,0
345,208,62152,1,0
345,208,62220,1,0
345,208,62289,1,0
345,208,62425,1,0
487,89,62561,5,0
368,272,62697,1,0
432,256,62833,1,8
448,224,62970,1,0
448,224,63038,1,0
464,192,63106,1,8
432,256,63243,1,0
230,268,63515,1,0
305,283,63652,1,0
342,194,63788,1,0
432,188,63856,1,8
432,188,63924,1,8
448,224,64061,1,0
380,222,64333,1,0
432,162,64470,1,8
432,188,64606,1,0
432,188,64674,1,0
432,188,64743,1,0
349,279,64879,1,0
379,279,65015,1,8
272,160,65152,1,0
272,160,65220,1,0
470,164,65288,1,8
470,164,65424,1,0
359,250,65697,1,4
380,222,65833,1,12
377,201,65970,1,4
377,201,66243,1,4
377,201,66380,1,4
424,168,66652,1,12
424,168,66789,1,12
112,160,66925,5,0
368,160,67061,1,8
380,222,67198,1,0
416,240,67334,1,0
416,240,67402,1,0
424,168,67470,1,8
432,208,67607,1,0
240,256,67880,1,0
320,224,68016,1,0
480,160,68152,1,8
424,168,68220,1,0
480,160,68289,1,8
464,224,68425,1,0
224,160,68698,1,0
424,168,68834,1,8
424,168,68970,1,0
424,168,69039,1,0
432,208,69107,1,0
424,168,69243,1,8
464,224,69380,1,0
416,240,69516,1,0
416,240,69584,1,0
432,208,69652,1,8
432,208,69789,1,0
320,272,70061,1,0
368,160,70198,1,8
368,160,70266,1,8
464,192,70334,1,0
424,168,70470,1,8
432,208,70607,1,0
432,128,70743,1,4
400,128,70880,1,4
400,128,71016,1,4
144,115,71289,5,0
144,115,71357,1,0
338,132,71425,1,8
464,192,71561,1,0
464,192,71630,1,0
464,192,71698,1,8
464,192,71834,1,0
464,192,71902,1,0
464,192,71970,1,8
464,192,72107,1,0
464,192,72175,1,0
464,192,72243,1,8
434,209,72380,1,0
434,209,72448,1,0
464,192,72516,1,8
464,192,72584,1,8
434,209,72652,1,0
464,192,72789,1,8
464,192,72925,1,0
464,192,72993,1,0
464,192,73061,1,8
464,192,73130,1,8
464,192,73198,1,0
434,209,73334,1,8
196,165,73470,1,0
196,165,73539,1,0
368,144,73607,1,8
368,144,73675,1,8
437,176,73743,1,0
437,176,73811,1,0
418,219,73880,1,8
441,244,74016,1,0
441,244,74084,1,0
473,220,74152,1,8
473,220,74220,1,8
473,220,74289,1,0
473,220,74357,1,0
418,219,74425,1,8
368,144,74561,1,4
368,144,74698,1,4
368,144,74834,1,4
368,144,74970,1,4
368,144,75107,1,4
144,160,75652,5,0
464,192,75925,1,8
480,224,76061,1,0
320,272,76334,1,0
416,208,76470,1,8
400,240,76607,1,0
400,240,76675,1,0
464,160,76743,1,8
464,192,76880,1,0
432,176,77016,1,8
400,240,77152,1,0
336,128,77425,1,0
464,160,77561,1,8
416,144,77834,1,0
416,144,77902,1,0
464,160,77970,1,8
416,208,78039,1,8
432,176,78107,1,0
464,192,78175,1,8
464,192,78243,1,8
432,176,78311,1,8
464,192,78380,1,0
432,176,78516,1,8
336,128,78652,1,8
384,144,78720,1,8
464,160,78789,1,0
432,176,78857,1,8
432,176,78925,1,0
256,224,79061,1,0
416,208,79198,1,8
416,208,79334,1,8
384,256,79607,1,0
464,160,79743,1,8
432,176,79880,1,8
432,176,79948,1,8
480,96,80016,5,0
416,208,80289,1,8
457,232,80425,1,0
294,176,80698,1,0
388,172,80834,1,8
388,172,80902,1,8
356,259,80970,1,0
192,256,81107,1,0
192,256,81243,1,0
336,192,81516,1,8
432,176,81652,1,0
432,176,81789,1,8
432,176,81857,1,8
432,176,81925,1,8
432,176,82061,1,0
368,96,82198,1,0
416,128,82266,1,8
432,176,82334,1,0
464,160,82402,1,8
496,160,82470,1,0
400,288,82607,1,8
432,224,82743,1,8
432,224,82811,1,0
464,240,82880,1,8
464,240,82948,1,0
480,208,83016,1,8
480,208,83084,1,8
432,224,83152,1,0
320,208,83289,1,4
320,208,83425,1,4
320,208,83698,1,4
288,224,83834,1,4
384,176,84107,1,12
384,176,84243,1,12
336,96,84380,5,0
448,160,84516,1,8
288,96,84652,1,8
448,192,84789,1,0
416,96,85061,1,0
448,160,85198,1,8
448,192,85334,1,0
448,192,85402,1,0
432,224,85470,1,0
416,192,85743,1,8
416,192,85880,1,8
384,224,86152,1,0
416,192,86289,1,8
416,160,86425,1,8
384,192,86561,1,0
416,160,86630,1,0
448,160,86698,1,8
432,224,86766,1,0
384,192,86834,1,0
432,224,86902,1,0
448,192,86970,1,8
224,208,87107,1,0
416,160,87243,1,8
416,160,87311,1,8
480,176,87380,1,0
480,176,87448,1,0
448,160,87516,1,8
448,96,87652,1,0
416,192,87789,1,0
416,192,87857,1,0
384,224,87925,1,8
400,256,88061,1,0
400,256,88130,1,0
432,224,88198,1,8
400,256,88334,1,0
432,224,88470,1,8
416,192,88607,1,8
186,166,88743,5,0
186,166,88811,1,0
186,166,88880,1,0
186,166,88948,1,0
345,180,89016,1,8
456,179,89152,1,0
456,179,89220,1,0
456,179,89289,1,0
456,179,89357,1,0
416,192,89425,1,8
432,224,89561,1,0
360,230,89698,1,8
288,96,89834,1,0
288,96,89902,1,0
288,96,89970,1,0
456,179,90039,1,8
456,179,90107,1,8
456,179,90243,1,0
456,179,90311,1,0
456,179,90380,1,0
480,192,90448,1,8
480,192,90516,1,8
416,192,90652,1,0
456,179,90789,1,8
416,192,90925,1,0
416,192,90993,1,0
400,215,91061,1,8
456,179,91130,1,8
456,179,91198,1,8
471,219,91334,1,0
471,219,91402,1,0
471,219,91470,1,8
456,179,91539,1,8
456,179,91607,1,8
416,192,91743,1,0
432,224,91880,1,8
351,112,92016,1,8
351,112,92084,1,8
351,112,92152,1,8
351,112,92220,1,8
456,179,92289,1,0
336,224,92425,1,4
379,160,92698,1,12
362,217,92834,1,4
253,52,92970,1,4
112,176,93243,5,0
368,192,93380,1,8
432,160,93652,1,0
456,179,93789,1,8
448,224,93925,1,0
288,192,94061,1,0
224,144,94334,1,0
432,160,94470,1,8
352,160,94743,1,0
432,160,94880,1,8
456,179,95016,1,8
400,288,95152,1,0
384,208,95425,1,0
432,160,95561,1,8
400,160,95834,1,0
456,179,95970,1,8
400,256,96107,1,0
400,288,96243,1,0
336,176,96516,1,0
432,192,96652,1,8
432,160,96925,1,0
456,179,97061,1,8
432,192,97198,1,8
400,256,97334,1,0
160,144,97607,5,0
288,144,97743,1,8
400,208,98016,1,0
432,192,98152,1,8
432,192,98220,1,8
400,208,98289,1,0
400,208,98425,1,0
368,240,98698,1,0
400,208,98834,1,8
432,192,99107,1,0
432,192,99243,1,8
432,192,99311,1,8
432,192,99380,1,8
432,192,99516,1,0
352,160,99789,1,0
400,208,99925,1,8
320,304,100061,1,0
320,304,100130,1,0
320,304,100198,1,0
432,160,100334,1,8
432,160,100402,1,8
400,208,100470,1,0
416,240,100607,1,0
400,208,100880,1,0
432,192,101016,1,8
416,240,101152,1,0
416,240,101220,1,0
416,240,101289,1,0
464,192,101425,1,8
464,192,101493,1,8
464,192,101561,1,8
400,272,101698,1,0
176,160,101970,5,0
336,160,102107,1,8
464,160,102380,1,0
464,160,102516,1,0
464,160,102652,1,8
400,176,102925,1,0
368,176,103198,1,8
432,192,103470,1,0
432,192,103607,1,0
400,176,103743,1,8
224,128,104016,1,0
256,144,104152,1,0
432,128,104289,1,8
432,192,104425,1,0
432,192,104561,1,0
432,192,104698,1,0
400,176,104834,1,8
272,240,104970,1,0
272,240,105039,1,0
368,256,105107,1,0
368,256,105243,1,0
448,160,105380,1,8
432,192,105516,1,0
416,256,105652,1,0
416,256,105789,1,0
384,224,105925,1,8
240,128,106061,1,0
304,128,106334,5,0
448,160,106470,1,8
432,192,106607,1,0
432,192,106675,1,0
432,192,106743,1,0
432,192,106880,1,0
448,160,107016,1,8
448,224,107152,1,0
448,224,107220,1,0
448,224,107289,1,0
368,288,107425,1,0
448,224,107561,1,8
432,192,107698,1,0
448,224,107766,1,0
416,224,107834,1,0
224,176,107970,1,0
352,176,108107,1,8
352,176,108175,1,8
448,224,108243,1,0
304,192,108516,1,0
352,176,108652,1,8
384,128,108789,1,0
384,128,108857,1,0
432,160,108925,1,8
432,192,109061,1,0
496,176,109198,1,8
496,176,109266,1,8
416,224,109334,1,0
384,224,109470,1,0
384,224,109607,1,8
384,224,109675,1,8
384,224,109743,1,8
368,320,109880,1,0
432,160,110016,1,8
496,176,110084,1,8
464,240,110152,1,0
464,240,110220,1,0
464,240,110289,1,0
464,240,110357,1,0
464,240,110425,1,0
96,128,110561,5,4
160,160,110698,1,4
304,288,110970,1,4
304,288,111107,1,4
400,176,111380,1,12
368,176,111516,1,12
368,176,111789,1,12
368,176,111925,1,12
336,160,112198,1,4
336,160,112470,1,4
96,128,112743,1,4
160,160,112880,1,4
304,288,113152,1,4
304,288,113289,1,4
400,176,113562,1,12
368,176,113698,1,12
368,176,113971,1,12
368,176,114107,1,12
272,192,114380,1,0
352,304,114516,1,0
352,304,114652,1,0
400,176,114789,1,12
304,240,115061,5,0
288,64,115198,1,8
416,128,115470,1,8
400,176,115607,1,0
432,208,115743,1,0
400,176,115880,1,8
432,208,116152,1,8
480,240,116289,1,0
336,336,116425,1,0
400,176,116561,1,8
400,176,116630,1,8
400,176,116698,1,8
448,176,116834,1,0
400,176,116970,1,0
208,240,117107,1,0
432,144,117380,1,8
432,208,117516,1,0
448,176,117652,1,8
400,224,117789,1,0
384,256,117925,1,0
400,224,118061,1,8
384,256,118334,1,8
416,256,118470,1,0
384,256,118607,1,0
432,208,118743,1,8
432,208,118811,1,8
432,208,118880,1,8
416,256,119016,1,0
400,304,119152,1,0
112,160,119289,5,0
160,160,119425,1,0
336,176,119561,1,8
352,144,119698,1,0
400,160,119766,1,0
400,160,119834,1,8
400,208,119970,1,0
352,256,120107,1,0
352,144,120243,1,8
288,320,120516,1,8
368,352,120652,1,0
368,352,120789,1,0
432,192,120925,1,8
432,192,120993,1,8
432,192,121061,1,8
400,160,121198,1,0
400,160,121334,1,0
240,192,121402,1,0
256,112,121470,1,8
400,192,121607,1,0
368,208,121743,1,0
320,304,121880,1,0
432,192,122016,1,8
432,192,122084,1,8
432,192,122152,1,8
400,192,122289,1,0
352,256,122425,1,8
160,176,122561,1,0
160,176,122630,1,0
160,176,122698,1,0
320,160,122834,1,8
256,112,122970,1,8
400,192,123107,1,0
240,240,123175,1,0
368,208,123243,1,0
240,240,123311,1,0
432,192,123380,1,8
432,192,123448,1,8
400,240,123516,1,8
336,96,123652,5,4
336,96,123789,1,4
336,208,124061,1,12
352,240,124198,1,12
416,160,124470,1,4
416,160,124607,1,4
432,192,124880,1,12
432,192,125016,1,12
384,176,125289,1,4
384,176,125561,1,12
336,96,125834,1,4
336,96,125971,1,4
336,208,126243,1,12
352,240,126380,1,12
416,160,126652,1,4
416,160,126789,1,4
432,192,127062,1,12
432,192,127198,1,12
384,176,127471,1,4
384,176,127743,1,12
304,144,128016,5,4
304,144,128152,1,4
304,144,128289,1,4
384,176,128425,1,12
384,176,128561,1,12
384,176,128698,1,12
400,224,128834,1,4
400,224,128970,1,4
400,224,129107,1,4
400,224,129243,1,12
400,224,129380,1,12
400,224,129516,1,12
384,176,129652,1,4
368,208,129925,1,12
304,144,130198,1,4
304,144,130334,1,4
304,144,130471,1,4
384,176,130607,1,12
384,176,130743,1,12
384,176,130880,1,12
400,224,131016,1,4
400,224,131152,1,4
400,224,131289,1,4
400,224,131425,1,12
400,224,131562,1,12
400,224,131698,1,12
384,176,131834,1,4
352,144,131970,1,4
368,208,132107,1,12
384,176,132243,1,12
448,96,132380,6,4,B|64:320|64:320|416:304|416:304|256:208,1,980
256,96,134561,1,4
256,144,134970,1,4
256,192,135652,12,0,136743
