osu file format v9

[General]
AudioFilename: rog-unlimitation.mp3
AudioLeadIn: 1996
PreviewTime: 71235
Countdown: 0
SampleSet: Soft
StackLeniency: 0.6
Mode: 0
LetterboxInBreaks: 0

[Editor]
Bookmarks: 22152,75594,91962,110507,123598,136689
DistanceSpacing: 0.6
BeatDivisor: 1
GridSize: 16

[Metadata]
Title:rog-unlimitation
Artist:07th Expansion
Creator:AngelHoney
Version:Normal
Source:Umineko no Naku Koro ni
Tags:xaki

[Difficulty]
HPDrainRate:4
CircleSize:3
OverallDifficulty:4
ApproachRate:4
SliderMultiplier:1.1
SliderTickRate:1

[Events]
//Background and Video events
0,0,"10088009.jpg"
//Break Periods
2,58398,64480
2,101898,109207
//Storyboard Layer 0 (Background)
//Storyboard Layer 1 (Fail)
//Storyboard Layer 2 (Pass)
//Storyboard Layer 3 (Foreground)
//Storyboard Sound Samples
//Background Colour Transformations
3,100,0,0,0

[TimingPoints]
380,272.727272727273,4,1,0,70,1,0
21925,-100,4,1,0,5,0,0
22061,-100,4,1,0,70,0,0
23289,-100,4,1,0,70,0,1
23323,-100,4,1,0,70,0,0
40402,-100,4,1,0,80,0,0
40743,-100,4,1,0,70,0,1
40777,-100,4,1,0,70,0,0
58198,-100,4,1,0,70,0,1
59289,-100,4,1,0,70,0,0
71561,-100,4,2,0,70,0,0
71834,-100,4,1,0,70,0,0
72107,-100,4,2,0,70,0,0
72380,-100,4,1,0,70,0,0
72652,-100,4,2,0,70,0,0
72925,-100,4,1,0,70,0,0
73198,-100,4,2,0,70,0,0
73470,-100,4,1,0,70,0,0
73743,-100,4,2,0,70,0,0
74016,-100,4,1,0,70,0,0
74289,-100,4,2,0,70,0,0
74561,-100,4,1,0,70,0,0
74834,-100,4,2,0,70,0,0
75107,-100,4,1,0,70,0,0
101698,-100,4,1,0,70,0,1
102925,-100,4,1,0,70,0,0
114789,-100,4,1,0,50,0,0
122016,-100,4,1,0,60,0,0
123516,-100,4,1,0,70,0,0
132301,-133.333333333333,4,1,0,70,0,0
135652,-133.333333333333,4,1,0,40,0,0
135925,-133.333333333333,4,1,0,30,0,0
136198,-133.333333333333,4,1,0,20,0,0
136470,-133.333333333333,4,1,0,10,0,0
136743,-133.333333333333,4,1,0,5,0,1
136880,-133.333333333333,4,1,0,30,0,0

[HitObjects]
64,96,380,6,0,B|64:192|144:256,4,165
160,32,2289,1,0
240,112,2561,2,0,B|320:64|432:112,4,165
320,192,4470,1,0
352,304,4743,6,0,B|176:304,4,165
464,336,6652,1,0
432,224,6925,2,0,B|448:48,4,165
320,224,8834,1,0
208,288,9107,6,0,B|224:160|144:64,1,220,4|0
64,144,9925,1,0
0,240,10198,2,0,B|48:256|128:240,2,110
64,336,11016,1,0
176,352,11289,6,0,B|288:304|416:336,1,220
496,352,12107,1,0
464,240,12380,2,0,B|480:112,2,110
352,224,13198,1,0
240,272,13470,6,0,B|144:208|16:240,1,220
0,128,14289,1,0
112,112,14561,2,0,B|176:112|256:80,2,110
176,208,15380,1,0
288,176,15652,6,0,B|560:176,1,220
464,272,16470,1,0
352,304,16743,2,0,B|288:320|224:384,2,110
240,240,17561,1,0
256,192,17834,12,0,21925
64,256,22198,6,0,B|192:304|288:240,1,220
432,128,23289,6,0,B|336:64|208:96,1,220,4|0
128,128,24107,1,0
32,176,24380,1,0
144,320,24925,1,0
352,336,25470,6,0,B|320:208|224:160,1,220
128,128,26289,1,0
32,176,26561,1,0
144,320,27107,1,0
288,208,27652,6,0,B|416:240|528:160,2,220
192,176,29016,1,0
96,208,29289,1,0
160,352,29834,6,0,B|272:320|400:368,1,220
464,304,30652,1,0
416,208,30925,2,0,B|320:256|192:224,1,220,4|4
192,32,32016,6,0,B|176:144|64:224,1,220
288,160,33107,2,0,B|304:288|416:336,1,220
176,304,34198,6,0,B|160:192|48:128,1,220
272,208,35289,2,0,B|288:80|416:48,1,220
480,192,36380,5,4
384,336,36925,1,0
288,352,37198,1,0
304,208,37743,1,0
208,224,38016,1,0
112,240,38289,1,0
208,64,38834,5,0
112,80,39107,1,0
16,96,39380,1,0
32,288,39925,1,0
32,288,40198,2,0,B|80:320|160:320,1,110
240,320,40743,6,0,B|384:288,3,110,4|0|0|0
288,224,41834,2,0,B|432:192,3,110
336,128,42925,2,0,B|480:96,3,110
384,32,44016,2,0,B|528:0,3,110
496,96,45107,6,0,B|464:224|304:240,1,220
240,240,45925,1,0
288,144,46198,2,0,B|192:80|64:112,1,220
192,304,47289,2,0,B|288:368|416:336,1,220
448,112,48380,2,0,B|352:48|224:80,1,220,4|4
64,240,49470,6,0,B|96:192|80:112,1,110
352,240,50289,1,0
352,240,50561,2,0,B|224:240|176:112,1,220
464,144,51652,2,0,B|400:128|368:48,1,110
240,192,52470,1,0
240,192,52743,2,0,B|144:112|16:144,1,220
48,320,53834,6,0,B|176:320,3,110
160,240,54925,2,0,B|272:240,3,110
272,160,56016,2,0,B|400:160,3,110
384,80,57107,2,0,B|512:80,3,110,4|4|4|4
512,160,58198,1,4
112,80,65834,6,0,B|48:192|96:304,1,220,4|4
304,320,66925,6,0,B|400:352|480:288,2,165
256,224,68016,2,0,B|304:112,1,110
224,48,68561,2,0,B|176:160,1,110
96,96,69107,2,0,B|32:176|64:272,2,165
176,160,70198,2,0,B|208:288,1,110
304,288,70743,2,0,B|272:160,1,110
368,160,71289,6,0,B|400:32,3,110,4|6|4|6
304,48,72380,2,0,B|272:176,3,110,4|6|4|6
192,144,73470,2,0,B|224:16,3,110,4|6|4|6
128,32,74561,2,0,B|96:160,2,110,4|6|4
64,240,75652,6,0,B|192:208|288:272,1,220
368,304,76470,1,0
416,208,76743,2,0,B|288:192|240:64,1,220
160,32,77561,1,0
80,96,77834,6,0,B|32:240,3,110
32,304,78925,2,0,B|128:256|224:304,2,165
128,368,80016,6,0,B|240:416|336:336,1,220
384,240,80834,1,0
272,240,81107,2,0,B|128:224|80:112,1,220
64,48,81925,1,0
160,64,82198,6,0,B|288:32,1,110
272,128,82743,2,0,B|400:96,1,110
352,192,83289,2,0,B|432:240|512:192,2,165,4|4|0
272,240,84380,6,0,B|96:240,2,165
240,336,85470,2,0,B|416:336,2,165
144,368,86561,6,0,B|144:240|32:160,1,220
208,48,87652,2,0,B|208:176|320:256,1,220
464,48,88743,6,0,B|336:64,1,110
384,144,89289,2,0,B|256:160,1,110
256,80,89834,2,0,B|128:96,1,110
176,176,90380,2,0,B|48:192,1,110
16,272,90925,6,0,B|144:288,1,110
208,288,91470,2,0,B|336:304,1,110
400,304,92016,2,0,B|528:320,1,110
448,64,92970,6,0,B|368:80|272:64,1,165
32,64,94061,2,0,B|112:80|208:64,1,165
448,160,95152,6,0,B|368:176|272:160,1,165
32,160,96243,2,0,B|112:176|208:160,1,165
448,272,97334,6,0,B|368:288|272:272,1,165
32,272,98425,2,0,B|112:288|208:272,1,165
256,192,99107,12,4,101698
336,80,110561,6,0,B|416:48|512:80,4,165
256,112,112470,1,0
176,160,112743,2,0,B|96:176|0:144,4,165
256,192,114789,12,0,121470
144,48,122561,5,0
112,128,122834,1,0
80,208,123107,1,0
48,288,123380,1,0
112,352,123652,6,0,B|192:384|304:352,4,165,4|0|0|0|0
160,272,125561,1,0
240,224,125834,2,0,B|336:240|432:176,4,165
272,144,127743,1,0
208,80,128016,6,0,B|144:32|32:32,4,165
144,144,129925,1,0
96,224,130198,2,0,B|176:256|288:224,4,165
16,272,132107,1,0
256,192,132380,12,0,135652
256,192,135789,12,4,136743
