osu file format v9

[General]
AudioFilename: rog-unlimitation.mp3
AudioLeadIn: 1996
PreviewTime: 71235
Countdown: 0
SampleSet: Normal
StackLeniency: 0.6
Mode: 0
LetterboxInBreaks: 0

[Editor]
Bookmarks: 22152,75594,91962,110507,123598,136689
DistanceSpacing: 0.6
BeatDivisor: 4
GridSize: 16

[Metadata]
Title:rog-unlimitation
Artist:07th Expansion
Creator:AngelHoney
Version:Insane
Source:Umineko no Naku Koro ni
Tags:xaki

[Difficulty]
HPDrainRate:4
CircleSize:4
OverallDifficulty:5
ApproachRate:9
SliderMultiplier:1.8
SliderTickRate:1

[Events]
//Background and Video events
0,0,"10088009.jpg"
//Break Periods
2,58398,63052
2,101897,109961
//Storyboard Layer 0 (Background)
//Storyboard Layer 1 (Fail)
//Storyboard Layer 2 (Pass)
//Storyboard Layer 3 (Foreground)
//Storyboard Sound Samples
//Background Colour Transformations
3,100,0,0,0

[TimingPoints]
380,272.727272727273,4,1,0,70,1,0
1880,-133.333333333333,4,1,0,70,0,0
2425,-100,4,1,0,70,0,0
4061,-133.333333333333,4,1,0,70,0,0
4607,-100,4,1,0,70,0,0
6243,-133.333333333333,4,1,0,70,0,0
6789,-100,4,1,0,70,0,0
21925,-100,4,1,0,5,0,0
22061,-200,4,1,0,70,0,0
22607,-100,4,1,0,70,0,0
23289,-100,4,1,0,70,0,1
23323,-100,4,1,0,70,0,0
36448,-100,4,1,0,30,0,0
36584,-100,4,1,0,70,0,0
36993,-100,4,1,0,40,0,0
37130,-100,4,1,0,70,0,0
37539,-100,4,1,0,50,0,0
37675,-100,4,1,0,70,0,0
38084,-100,4,1,0,60,0,0
38220,-100,4,1,0,70,0,0
40743,-100,4,1,0,70,0,1
40777,-100,4,1,0,70,0,0
58198,-100,4,1,0,70,0,1
59289,-100,4,1,0,70,0,0
65561,-100,4,1,0,40,0,0
65698,-100,4,1,0,70,0,0
71255,-100,4,2,0,70,0,0
71323,-100,4,1,0,70,0,0
71527,-100,4,2,0,70,0,0
71595,-100,4,1,0,70,0,0
71800,-100,4,2,0,70,0,0
71868,-100,4,1,0,70,0,0
72073,-100,4,2,0,70,0,0
72141,-100,4,1,0,70,0,0
72345,-100,4,2,0,70,0,0
72414,-100,4,1,0,70,0,0
72618,-100,4,2,0,70,0,0
72686,-100,4,1,0,70,0,0
72891,-100,4,2,0,70,0,0
72959,-100,4,1,0,70,0,0
73164,-100,4,2,0,70,0,0
73232,-100,4,1,0,70,0,0
73436,-100,4,2,0,70,0,0
73505,-100,4,1,0,70,0,0
73709,-100,4,2,0,70,0,0
73777,-100,4,1,0,70,0,0
73982,-100,4,2,0,70,0,0
74050,-100,4,1,0,70,0,0
74255,-100,4,2,0,70,0,0
74323,-100,4,1,0,70,0,0
74527,-100,4,2,0,70,0,0
74595,-100,4,1,0,70,0,0
74800,-100,4,2,0,70,0,0
74868,-100,4,1,0,70,0,0
75073,-100,4,2,0,70,0,0
75141,-100,4,1,0,70,0,0
75380,-100,4,1,0,20,0,0
75516,-100,4,1,0,70,0,0
92970,-100,4,1,0,80,0,0
101698,-100,4,1,0,80,0,1
102925,-100,4,1,0,80,0,0
114925,-100,4,1,0,70,0,0
132301,-133.333333333333,4,1,0,20,0,0
132652,-133.333333333333,4,1,0,25,0,0
132925,-133.333333333333,4,1,0,30,0,0
133198,-133.333333333333,4,1,0,35,0,0
133470,-133.333333333333,4,1,0,40,0,0
133743,-133.333333333333,4,1,0,45,0,0
134016,-133.333333333333,4,1,0,50,0,0
134289,-133.333333333333,4,1,0,55,0,0
134561,-133.333333333333,4,1,0,70,0,0
135652,-133.333333333333,4,1,0,40,0,0
135925,-133.333333333333,4,1,0,30,0,0
136198,-133.333333333333,4,1,0,20,0,0
136470,-133.333333333333,4,1,0,10,0,0
136743,-133.333333333333,4,1,0,30,0,1
136880,-100,4,1,0,30,0,0

[HitObjects]
0,176,107,1,0
96,160,380,6,0,B|80:256,1,90
192,144,789,2,0,B|176:240,1,90
288,128,1198,2,0,B|272:224,1,90
384,112,1607,2,0,B|368:208,1,90
480,96,2016,6,0,B|448:240,1,134.999995976687
352,48,2561,6,0,B|368:144,1,90
272,96,2970,2,0,B|288:192,1,90
192,144,3380,2,0,B|208:240,1,90
112,192,3789,2,0,B|128:288,1,90
32,240,4198,6,0,B|56:390,1,134.999995976687,0|4
160,336,4743,6,0,B|256:352,1,90
336,256,5152,2,0,B|240:272,1,90
192,176,5561,2,0,B|288:192,1,90
352,96,5970,2,0,B|256:112,1,90
192,16,6380,6,0,B|336:48,1,134.999995976687
448,64,6925,6,0,B|416:160,1,90
336,208,7334,2,0,B|336:96,1,90,4|0
256,160,7743,2,0,B|224:256,1,90,0|4
144,272,8152,2,0,B|144:176,1,90,4|0
112,224,8425,2,0,B|112:112,1,90,0|4
80,176,8698,2,0,B|80:80,1,90
48,128,8970,2,0,B|48:0,1,90,0|4
192,32,9516,5,0
368,48,9925,1,0
176,112,10334,1,0
352,128,10743,1,0
384,176,11016,1,0
416,224,11289,5,0
288,336,11698,1,0
352,176,12107,1,0
224,288,12516,1,0
288,128,12925,1,0
240,112,13198,1,0
192,96,13470,5,0
16,160,13880,1,0
224,176,14289,1,0
48,240,14698,1,0
256,256,15107,1,0
279,304,15380,1,0
304,352,15652,5,0
448,160,16061,1,0
368,304,16470,1,0
496,96,16880,1,0
434,257,17289,1,0
400,208,17561,1,0
256,192,17834,12,4,20016
256,192,20425,12,0,21925
48,112,22198,6,0,B|160:112,1,90,4|4
269,262,22743,6,0,B|237:326|176:351,1,90,4|4
128,288,23016,2,0,B|159:223|220:198,1,90,4|4
384,288,23289,6,0,B|400:176|304:112,1,180,4|0
208,96,23698,2,0,B|304:128|384:64,1,180
480,96,24107,2,0,B|448:144|448:208,1,90
448,320,24380,2,0,B|400:224|272:176,1,180
304,320,24789,2,0,B|176:352|80:256,1,180
48,208,25198,2,0,B|176:192,1,90
240,192,25470,5,0
448,48,25743,2,0,B|416:160,1,90
368,352,26152,2,0,B|320:240,1,90
256,320,26425,1,0
240,224,26561,2,0,B|144:256|64:208,1,180
144,144,26970,2,0,B|256:144|320:80,1,180
416,64,27380,2,0,B|400:112|400:160,1,90
416,240,27652,5,0
224,336,27925,1,0
224,336,28061,2,0,B|144:288|32:288,1,180
0,208,28470,1,0
64,128,28607,1,0
128,192,28743,2,0,B|176:176|208:112,1,90
304,128,29016,2,0,B|256:96|240:32,1,90
352,208,29289,2,0,B|368:160|432:128,1,90
496,288,29561,2,0,B|496:240|448:192,1,90
384,288,29834,6,0,B|288:256|176:304,1,180
80,256,30243,2,0,B|176:240|224:128,1,180
256,64,30652,1,0
336,16,30789,1,0
416,48,30925,2,0,B|432:176,1,90,4|4
496,208,31198,1,0
400,224,31334,2,0,B|384:320,1,90,4|4
160,176,31743,2,0,B|192:272,1,90,4|4
112,320,32016,6,0,B|96:208|0:176,1,180,4|0
96,112,32425,2,0,B|208:112|272:48,1,180
416,128,32834,2,0,B|352:128|320:96,1,90
256,176,33107,2,0,B|272:288|368:336,1,180
432,288,33516,1,0
464,192,33652,2,0,B|416:208|352:208,1,90
304,112,33925,2,0,B|336:128|400:128,1,90
448,64,34198,5,0
208,112,34470,1,0
128,96,34607,1,0
304,288,34880,1,0
384,256,35016,1,0
352,176,35152,1,0
272,208,35289,2,0,B|80:208,1,180
0,208,35698,1,0
48,288,35834,2,0,B|64:336|128:368,1,90
224,336,36107,2,0,B|208:288|144:256,1,90
320,288,36380,6,0,B|336:160,1,90,4|0
240,128,36652,2,0,B|256:224,1,90
160,288,36925,2,0,B|176:192,1,90
80,144,37198,2,0,B|96:256,1,90
16,336,37470,2,0,B|16:224,1,90
16,64,37743,2,0,B|-16:160,1,90
112,272,38016,2,0,B|160:176,1,90
192,48,38289,2,0,B|224:144,1,90
240,224,38561,6,0,B|336:192,1,90
272,48,38834,2,0,B|272:160,1,90
416,176,39107,2,0,B|336:112,1,90
128,96,39380,2,0,B|192:160,1,90
320,256,39652,2,0,B|240:336,1,90
288,64,39925,2,0,B|176:32,1,90
48,176,40198,2,0,B|128:256,1,90
208,320,40470,1,0
400,96,40743,6,0,B|368:160,1,45
176,160,41016,2,0,B|240:160,1,45
352,304,41289,2,0,B|320:256,1,45
80,240,41561,2,0,B|112:288,1,45
160,80,41834,2,0,B|208:64,1,45
448,160,42107,2,0,B|400:128,1,45
144,272,42380,2,0,B|192:256,1,45
416,320,42652,2,0,B|368:272,1,45
272,112,42925,6,0,B|288:160,1,45
96,192,43198,2,0,B|32:208,1,45
224,320,43470,2,0,B|288:304,1,45
400,128,43743,2,0,B|416:176,1,45
208,96,44016,2,0,B|192:48,1,45
128,288,44289,2,0,B|144:336,1,45
48,160,44561,2,0,B|0:144,1,45
304,288,44834,2,0,B|352:256|432:272,1,90
464,176,45107,6,0,B|400:112|256:128,1,180
224,256,45516,2,0,B|240:160|192:80,1,180
96,32,45925,2,0,B|48:64|32:112,1,90
16,192,46198,2,0,B|64:192|112:224,1,90
192,288,46470,2,0,B|144:288|96:336,1,90
432,192,46880,5,0
352,256,47016,2,0,B|320:304|320:368,1,90
272,192,47289,2,0,B|224:112|128:80,1,180
304,96,47698,2,0,B|416:96|496:16,1,180
368,176,48107,2,0,B|416:192|448:256,1,90
400,336,48380,6,0,B|512:320,2,90,4|0|0
295,289,48789,2,0,B|183:305,2,90,4|0|0
352,208,49198,1,4
304,128,49334,1,4
368,48,49470,6,0,B|320:16|256:16,1,90,4|0
144,48,49743,2,0,B|176:96|224:112,1,90
112,160,50016,2,0,B|96:256|0:320,1,180
384,320,50561,2,0,B|352:272|352:224,1,90
464,160,50834,2,0,B|464:208|432:272,1,90
272,288,51107,2,0,B|240:192|128:144,1,180
16,352,51652,6,0,B|112:352|192:288,1,180
272,352,52061,2,0,B|368:384|480:336,1,180
512,272,52470,1,0
272,64,52743,2,0,B|160:48|80:112,1,180
160,176,53152,1,0
112,272,53289,2,0,B|224:272|304:320,1,180
336,112,53834,6,0,B|400:96,1,45,4|0
288,256,54107,2,0,B|208:272,1,45
112,112,54380,2,0,B|160:128,1,45
48,288,54652,2,0,B|32:224,1,45
240,192,54925,2,0,B|272:144,1,45
416,96,55198,2,0,B|464:144,1,45
304,304,55470,2,0,B|352:272,1,45
240,80,55743,2,0,B|208:128,1,45
64,224,56016,2,0,B|128:240,1,45
384,64,56289,2,0,B|336:112,1,45
352,304,56561,2,0,B|320:272,1,45
96,304,56834,2,0,B|128:336,1,45
128,160,57107,6,0,B|144:32,1,90,4|0
224,32,57380,2,0,B|240:128,1,90,4|0
336,176,57652,2,0,B|328:67,1,90,4|0
448,16,57925,2,0,B|432:112,1,90,4|0
448,208,58198,5,4
256,192,63652,12,0,65561
352,336,65834,37,4
352,336,65970,1,4
112,256,66243,1,4
112,256,66380,1,4
384,160,66652,1,4
384,160,66789,1,4
384,160,66925,6,0,B|368:48|256:0,1,180,4|0
112,32,67334,2,0,B|48:144|112:240,1,180
208,288,67743,1,0
464,96,68016,2,0,B|384:160|272:144,1,180
192,128,68425,1,0
128,224,68561,2,0,B|192:224|240:192,1,90
368,288,68834,2,0,B|320:288|272:256,1,90
208,304,69107,5,0
416,208,69380,1,0
496,256,69516,2,0,B|512:160|464:80,1,180
368,112,69925,2,0,B|256:80,1,90
176,64,70198,1,0
336,240,70470,1,0
64,304,70743,1,0
128,80,71016,1,0
208,256,71289,6,0,B|224:304,1,45,4|0
400,208,71561,2,0,B|416:256,1,45,4|0
272,80,71834,2,0,B|256:128,1,45,4|0
96,160,72107,2,0,B|48:144,1,45,4|0
288,304,72380,2,0,B|352:272,1,45,4|0
96,320,72652,2,0,B|128:400,1,45,4|0
336,160,72925,2,0,B|320:224,1,45,4|0
128,48,73198,2,0,B|160:112,1,45,4|0
320,96,73470,6,0,B|368:80,1,45,4|0
496,208,73743,2,0,B|448:224,1,45,4|0
256,224,74016,2,0,B|272:272,1,45,4|0
96,320,74289,2,0,B|48:304,1,45,4|0
112,112,74561,2,0,B|96:160,1,45,4|0
288,96,74834,2,0,B|272:48,1,45,4|0
496,192,75107,2,0,B|416:144|311:181,1,180,4|0
240,240,75652,6,0,B|352:256|432:192,1,180
480,144,76061,1,0
256,48,76334,1,0
176,112,76470,1,0
240,192,76607,1,0
320,128,76743,2,0,B|304:224|352:320,1,180
192,176,77152,2,0,B|208:272|176:368,1,180
96,320,77561,1,0
48,240,77698,1,0
112,160,77834,6,0,B|224:128,1,90
272,256,78107,2,0,B|160:224,1,90
288,176,78380,2,0,B|400:160,1,90
464,112,78652,2,0,B|368:64,1,90
288,80,78925,1,0
64,208,79198,1,0
128,272,79334,2,0,B|240:256|336:304,1,180
384,320,79743,1,0
464,272,79880,1,0
416,192,80016,5,0
272,48,80289,1,0
176,80,80425,1,0
32,272,80698,1,0
96,336,80834,1,0
192,352,80970,1,0
288,336,81107,2,0,B|256:288|240:240,1,90
304,96,81380,2,0,B|304:144|272:208,1,90
160,224,81652,2,0,B|176:176|224:144,1,90
416,288,81925,2,0,B|368:256|304:240,1,90
400,176,82198,6,0,B|448:144,2,45
320,112,82470,2,0,B|320:48,2,45
208,96,82743,2,0,B|176:48,2,45
96,128,83016,2,0,B|48:128,2,45
48,240,83289,5,4
48,240,83425,1,4
320,304,83698,1,4
320,304,83834,1,4
160,352,84107,1,4
160,352,84243,1,4
160,352,84380,6,0,B|160:288|144:240,1,90,4|0
144,80,84652,2,0,B|128:128|128:192,1,90
304,160,85061,1,0
480,240,85334,1,0
480,240,85470,1,0
320,320,85743,1,0
320,320,85880,1,0
160,208,86152,1,0
48,80,86425,1,0
48,80,86561,6,0,B|112:64,2,45
224,80,86834,2,0,B|160:96,2,45
320,80,87107,2,0,B|384:64,2,45
496,80,87380,2,0,B|432:96,2,45
432,176,87652,2,0,B|464:272|400:368,1,180
336,288,88061,1,0
288,208,88198,2,0,B|208:160|96:160,1,180
416,48,88743,6,0,B|384:96,1,45,4|0
432,256,89016,2,0,B|464:208,1,45
288,336,89289,2,0,B|224:336,1,45
80,224,89561,2,0,B|160:224,1,45
320,112,89834,2,0,B|304:64,1,45,4|0
96,80,90107,2,0,B|144:48,1,45
272,240,90380,2,0,B|224:288,1,45
64,288,90652,2,0,B|96:336,1,45
400,240,90925,6,0,B|384:304,1,45,4|0
480,96,91198,2,0,B|496:160,1,45
272,80,91470,2,0,B|352:64,1,45
240,224,91743,2,0,B|192:192,1,45
48,112,92016,2,0,B|64:160,1,45
96,288,92289,2,0,B|64:336,1,45
56,350,92425,6,0,B|232:318,1,180
368,176,92834,2,0,B|272:192,1,90,0|4
80,128,93380,1,0
240,279,93652,1,0
320,272,93789,1,0
400,256,93925,1,0
480,240,94061,2,0,B|512:160|512:160|512:64,1,180
240,96,94470,2,0,B|336:96|336:96|448:144,1,180
368,192,94880,5,0
320,256,95016,1,0
272,320,95152,2,0,B|208:352|208:352|160:320|160:320|80:304,1,180
48,224,95561,2,0,B|128:224|128:224|224:160,1,180
272,112,95970,1,0
352,80,96107,1,0
336,160,96243,2,0,B|400:208|400:208|512:192,1,180
384,288,96652,2,0,B|288:272|288:272|192:336,1,180
144,368,97061,5,0
160,272,97198,1,0
176,176,97334,2,0,B|272:176|272:176|352:128,1,180
256,64,97743,2,0,B|224:144|224:144|240:272,1,180
256,320,98152,1,0
336,288,98289,1,0
416,256,98425,2,0,B|416:160|416:160|336:80,1,180
240,64,98834,2,0,B|240:176|240:176|304:240,1,180
208,288,99243,5,0
128,336,99380,1,0
48,272,99516,2,0,B|96:192|96:192|96:64,1,180
192,48,99925,2,0,B|256:112|256:112|384:80,1,180
432,64,100334,1,0
496,144,100470,1,0
400,192,100607,2,0,B|224:240,1,180
384,304,101016,2,0,B|208:352,1,180
256,128,101425,2,0,B|80:176,1,180,0|4
48,112,110561,5,0
160,80,110970,1,0
272,112,111380,1,0
384,80,111789,1,0
496,112,112198,1,0
496,192,112470,1,0
496,272,112743,5,0
384,304,113152,1,0
272,272,113561,1,0
160,304,113970,1,0
48,272,114380,1,0
48,240,114516,1,0
48,208,114652,1,0
48,176,114789,1,4
160,64,115198,5,0
192,80,115334,1,0
224,96,115470,1,0
352,80,115743,1,0
352,112,115880,1,0
464,112,116152,1,0
464,144,116289,1,0
384,240,116561,1,0
112,224,116834,1,0
240,352,117107,5,4
224,208,117380,1,0
240,176,117516,1,0
256,144,117652,1,0
176,64,117925,1,0
144,80,118061,1,0
336,48,118334,1,0
368,64,118470,1,0
448,144,118743,1,0
288,288,119016,1,0
112,224,119289,5,4
48,128,119561,1,0
32,96,119698,1,0
16,64,119834,1,0
160,112,120107,1,0
176,80,120243,1,0
272,160,120516,1,0
304,144,120652,1,0
304,272,120925,1,0
480,336,121198,1,0
432,192,121470,5,4
368,96,121743,1,0
336,80,121880,1,0
304,96,122016,1,0
272,80,122152,1,0
176,192,122425,1,0
144,176,122562,6,0,B|48:128,1,90
192,160,122835,2,0,B|240:64,1,90
208,208,123107,2,0,B|304:256,1,90
160,224,123380,2,0,B|112:320,1,90
200,352,123652,5,4
264,288,124061,1,0
320,224,124470,1,0
376,160,124880,1,0
432,96,125289,1,0
432,96,125561,1,0
432,96,125834,5,4
336,80,126243,1,0
240,64,126652,1,0
144,48,127061,1,0
48,32,127470,1,0
48,32,127743,1,0
64,144,128016,6,0,B|32:256,1,90,4|0
160,320,128425,2,0,B|144:208,1,90
208,144,128834,2,0,B|256:224,1,90
336,304,129243,2,0,B|352:176,1,90
448,144,129652,2,0,B|448:240,1,90
496,192,129925,2,0,B|512:320,1,90
486,337,130198,6,0,B|390:321,1,90,4|0
224,304,130607,2,0,B|352:288,1,90
144,256,131016,2,0,B|16:240,1,90
144,160,131425,2,0,B|256:144,1,90
400,176,131834,2,0,B|304:192,1,90
304,240,132107,2,0,B|416:224,1,90
448,208,132380,6,0,B|480:224,32,33.7499989941716,4|0|0|0|0|0|0|0|0|0|0|0|0|0|0|0|0|0|0|0|0|0|0|0|0|0|0|0|0|0|0|0|4
256,192,134970,1,4
256,192,135652,12,4,136743
