osu file format v9

[General]
AudioFilename: rog-unlimitation.mp3
AudioLeadIn: 1996
PreviewTime: 71235
Countdown: 0
SampleSet: Normal
StackLeniency: 0.6
Mode: 0
LetterboxInBreaks: 0

[Editor]
Bookmarks: 22152,75594,91962,110507,123598,136689
DistanceSpacing: 0.6
BeatDivisor: 4
GridSize: 16

[Metadata]
Title:rog-unlimitation
Artist:07th Expansion
Creator:AngelHoney
Version:Hard
Source:Umineko no Naku Koro ni
Tags:xaki

[Difficulty]
HPDrainRate:4
CircleSize:4
OverallDifficulty:5
ApproachRate:7
SliderMultiplier:1.6
SliderTickRate:1

[Events]
//Background and Video events
0,0,"10088009.jpg"
//Break Periods
2,58398,64934
2,101898,109661
//Storyboard Layer 0 (Background)
//Storyboard Layer 1 (Fail)
//Storyboard Layer 2 (Pass)
//Storyboard Layer 3 (Foreground)
//Storyboard Sound Samples
//Background Colour Transformations
3,100,0,0,0

[TimingPoints]
380,272.727272727273,4,1,0,70,1,0
17698,-133.333333333333,4,1,0,70,0,0
18925,-133.333333333333,4,1,0,70,0,0
21925,-100,4,1,0,5,0,0
22061,-100,4,1,0,70,0,0
23289,-100,4,1,0,70,0,1
23323,-100,4,1,0,70,0,0
40402,-100,4,1,0,80,0,0
40743,-100,4,1,0,70,0,1
40777,-100,4,1,0,70,0,0
58198,-100,4,1,0,70,0,1
59289,-100,4,1,0,70,0,0
101698,-100,4,1,0,70,0,1
102925,-100,4,1,0,70,0,0
132301,-133.333333333333,4,1,0,70,0,0
134289,-133.333333333333,4,1,0,5,0,0
134425,-133.333333333333,4,1,0,70,0,0
135652,-133.333333333333,4,1,0,40,0,0
135925,-133.333333333333,4,1,0,30,0,0
136198,-133.333333333333,4,1,0,20,0,0
136470,-133.333333333333,4,1,0,10,0,0
136743,-133.333333333333,4,1,0,30,0,1
136880,-133.333333333333,4,1,0,30,0,0

[HitObjects]
48,64,380,6,0,B|128:32|224:64,1,160
272,80,789,2,0,B|352:112|448:80,1,160
480,144,1198,2,0,B|384:159|336:209,1,160
368,272,1607,2,0,B|304:320|208:287,1,160
192,224,2016,2,0,B|112:192|32:224,1,160
208,48,2561,6,0,B|144:128|192:224,1,160
240,240,2970,2,0,B|256:144|352:112,1,160
400,96,3380,2,0,B|448:176|400:272,1,160
368,304,3789,2,0,B|288:272|192:336,1,160
144,336,4198,2,0,B|176:256|160:176,1,160
0,176,4743,6,0,B|96:176|176:96,1,160,4|0
208,80,5152,2,0,B|288:48|368:80,1,160
416,128,5561,2,0,B|352:176|240:160,1,160
192,160,5970,2,0,B|176:256|227:315,1,160
288,352,6380,2,0,B|368:320|480:352,1,160
496,224,6925,6,0,B|320:224,1,160
304,288,7334,2,0,B|128:288,1,160
168,216,7743,2,0,B|-24:216,1,160,4|0
16,144,8152,2,0,B|176:144,1,160,4|0
208,80,8561,2,0,B|400:80,1,160,4|0
480,208,9107,6,0,B|368:144|240:208,1,240,4|0
176,240,9652,2,0,B|224:128|144:64,1,160
32,160,10198,2,0,B|112:160,2,80
80,320,10743,2,0,B|240:320,1,160
448,304,11289,6,0,B|336:240|352:96,1,240
384,32,11834,2,0,B|336:96|208:112,1,160
112,112,12380,2,0,B|112:0,2,80
0,176,12925,2,0,B|0:352,1,160
160,320,13470,6,0,B|256:256|368:304,1,200
368,240,13880,2,0,B|304:192|208:192,1,160
176,128,14289,2,0,B|256:96|352:112,1,160
400,64,14698,2,0,B|336:16|224:0,1,160
192,48,15107,2,0,B|112:80|0:48,1,160
64,192,15652,6,0,B|48:320|112:384,1,200
160,336,16061,2,0,B|240:288|352:320,1,160
336,240,16470,2,0,B|416:288|512:256,1,160
512,192,16880,2,0,B|416:160|368:64,1,160
320,64,17289,2,0,B|256:112|128:96,1,160
48,192,17834,6,0,B|128:384|368:336,1,359.999989271164,4|0
384,112,19198,2,0,B|448:128|512:112,2,119.999996423721
256,64,20016,2,0,B|176:32|64:48,1,179.999994635582,4|4
256,192,20561,12,0,21925
160,112,22198,38,0,B|208:192|176:304,1,160,4|4
304,176,22743,2,0,B|275:261|304:352,1,160,4|4
448,344,23289,6,0,B|480:296|480:296|480:184,1,160,4|0
408,216,23698,2,0,B|376:168|376:168|376:56,1,160
432,16,24107,1,0
256,112,24380,2,0,B|176:80|96:112,1,160
96,272,24925,2,0,B|176:304|256:272,1,160
32,208,25470,6,0,B|80:192|80:192|192:192,1,160
264,192,25880,2,0,B|312:208|312:208|440:208,1,160
496,208,26289,1,0
448,64,26561,2,0,B|368:32|288:64,1,160
64,80,27107,2,0,B|144:112|240:80,1,160
368,128,27652,5,0
496,224,27925,1,0
432,272,28061,2,0,B|352:304|240:272,1,160
199,264,28470,1,0
16,304,28743,1,0
64,224,29016,1,0
112,144,29289,1,0
64,64,29561,1,0
159,16,29834,5,0
320,48,30107,1,0
384,112,30243,2,0,B|416:192|384:288,1,160
352,352,30652,1,0
352,352,30925,6,0,B|448:352,1,80,4|4
400,256,31334,2,0,B|480:256,1,80,4|4
448,160,31743,1,4
384,80,32016,6,0,B|320:144|224:128,1,160,4|0
160,112,32425,2,0,B|64:96|-16:144,1,160
16,208,32834,1,0
160,336,33107,1,0
256,304,33380,1,0
352,272,33652,1,0
448,240,33925,1,0
448,144,34198,6,0,B|352:128|272:192,1,160
240,224,34607,2,0,B|160:272|64:256,1,160
16,224,35016,1,0
96,80,35289,1,0
208,64,35561,1,0
336,48,35834,1,0
464,64,36107,1,0
464,176,36380,6,0,B|464:272,2,80,4|0|0
352,208,36925,2,0,B|352:112,2,80
240,208,37470,2,0,B|240:304,2,80
128,224,38016,2,0,B|128:144,2,80
16,208,38561,6,0,B|0:304,2,80
112,96,39107,2,0,B|96:0,2,80
256,144,39652,2,0,B|352:112,2,80
192,256,40198,2,0,B|224:352,2,80,0|0|0
80,80,40743,6,0,B|32:160|64:256,1,160
272,272,41289,2,0,B|320:176|272:96,1,160
128,128,41834,2,0,B|144:80,2,40
240,128,42107,2,0,B|208:80,2,40
336,128,42380,2,0,B|368:80,2,40
448,192,42652,2,0,B|432:144,2,40
368,256,42925,6,0,B|336:352|240:352,1,160
80,272,43470,2,0,B|16:208|64:96,1,160
224,64,44016,2,0,B|208:16,2,40
304,96,44289,2,0,B|320:32,2,40
368,144,44561,2,0,B|416:96,2,40
432,208,44834,2,0,B|496:192,2,40
400,304,45107,6,0,B|320:256|224:272,1,160
160,288,45516,2,0,B|48:288|0:224,1,160
0,160,45925,1,0
160,48,46198,2,0,B|224:112|352:96,1,160
480,208,46743,2,0,B|400:256|320:256,1,160
32,304,47289,6,0,B|176:288|256:208,1,240
192,160,47834,2,0,B|256:224|343:219,1,160
336,48,48380,2,0,B|368:144,1,80,4|4
480,32,48789,2,0,B|480:128,1,80,4|4
432,224,49198,1,4
480,352,49470,6,0,B|400:320|304:336,1,160,4|0
64,352,50016,2,0,B|144:304|240:320,1,160
480,224,50561,2,0,B|384:192|304:208,1,160
64,224,51107,2,0,B|128:192|224:192,1,160
480,96,51652,2,0,B|400:64|288:64,1,160
48,80,52198,2,0,B|128:48|224:48,1,160
256,176,52743,5,0
160,272,53016,1,0
256,368,53289,1,0
352,272,53561,1,0
352,128,53834,6,0,B|288:80,3,80
416,176,54380,2,0,B|496:112,3,80
352,224,54925,2,0,B|272:160,3,80
416,272,55470,2,0,B|496:208,3,80
336,304,56016,6,0,B|256:240,3,80
224,320,56561,2,0,B|144:256,3,80
208,208,57107,2,0,B|128:144,3,80,4|4|4|4
96,224,57652,2,0,B|16:160,3,80,4|4|4|4
80,112,58198,5,4
128,96,65834,6,0,B|80:112|48:176,1,80,4|0
304,128,66243,2,0,B|352:144|384:192,1,80,0|0
192,224,66652,1,4
416,336,66925,6,0,B|336:288|240:304,1,160,4|0
176,320,67334,2,0,B|80:336|0:272,1,160
0,208,67743,1,0
144,80,68016,2,0,B|224:112|320:80,1,160
368,144,68425,1,0
320,224,68561,2,0,B|256:176|144:192,1,160
496,128,69107,6,0,B|448:208|480:320,1,160
384,224,69516,2,0,B|405:302|368:384,1,160
288,368,69925,1,0
160,224,70198,2,0,B|0:224,1,160
320,112,70743,2,0,B|496:112,1,160
416,240,71289,6,0,B|416:336,1,80,4|0
336,272,71561,2,0,B|336:384,1,80
256,240,71834,2,0,B|256:336,1,80
176,272,72107,2,0,B|176:368,1,80
96,304,72380,6,0,B|96:224,1,80,4|0
16,256,72652,2,0,B|16:176,1,80
96,144,72925,2,0,B|96:48,1,80
16,96,73198,2,0,B|16:0,1,80
176,48,73470,6,0,B|272:48,1,80,4|0
208,160,73743,2,0,B|288:112,1,80
288,240,74016,2,0,B|352:128,1,80
400,272,74289,2,0,B|400:176,1,80
416,96,74561,6,0,B|460:94|512:112,1,80,4|0
320,64,74834,2,0,B|274:66|224:80,1,80
160,112,75107,1,0
16,272,75652,6,0,B|96:240|176:256,1,160
256,272,76061,2,0,B|336:304|448:256,1,160
480,224,76470,2,0,B|480:128,1,80
416,96,76743,2,0,B|368:176|256:176,1,160
208,144,77152,2,0,B|128:192|32:176,1,160
16,112,77561,2,0,B|16:0,1,80
96,48,77834,5,0
208,64,78107,1,0
320,80,78380,1,0
432,96,78652,1,0
480,224,78925,6,0,B|400:208|320:224,1,160
352,304,79334,2,0,B|272:320|192:304,1,160
144,240,79743,2,0,B|144:144,1,80
80,96,80016,2,0,B|64:192|0:240,1,160
80,272,80425,2,0,B|112:368|224:368,1,160
283,358,80834,1,0
432,320,81107,5,0
416,208,81380,1,0
432,96,81652,1,0
320,144,81925,1,0
208,80,82198,6,0,B|112:80,3,80
80,160,82743,2,0,B|160:160,3,80
112,240,83289,2,0,B|-16:240,1,80,4|4
272,352,83698,2,0,B|176:352,1,80,4|4
416,240,84107,2,0,B|336:240,1,80,4|0
304,176,84380,6,0,B|224:176,1,80
192,112,84652,2,0,B|96:112,1,80
32,256,85061,1,0
176,336,85334,1,0
256,368,85470,2,0,B|288:272|224:192,1,160
288,144,85880,2,0,B|336:224|448:240,1,160
464,80,86425,1,0
464,80,86561,6,0,B|352:48|256:64,1,160
32,144,87107,2,0,B|128:160|208:112,1,160
448,256,87652,2,0,B|384:208|288:192,1,160
48,320,88198,2,0,B|160:304|224:224,1,160
59,66,88743,6,0,B|27:114|27:146,3,80
107,146,89289,2,0,B|123:98|187:66,3,80
203,146,89834,2,0,B|171:194|171:242,3,80
267,194,90380,2,0,B|299:146|331:130,3,80
363,210,90925,2,0,B|331:242|331:306,3,80
411,290,91470,2,0,B|400:336|416:384,3,80
480,336,92016,2,0,B|496:304|496:240,3,80
368,80,92834,5,0
368,80,92970,2,0,B|304:32|208:48,1,160
256,128,93380,2,0,B|176:160|80:128,1,160
32,256,93925,1,0
32,256,94061,2,0,B|80:336|192:352,1,160
160,256,94470,2,0,B|240:208|352:224,1,160
480,320,95016,5,0
480,320,95152,2,0,B|496:240|496:160,1,160
400,96,95561,2,0,B|400:192|416:272,1,160
224,272,96107,1,0
224,272,96243,2,0,B|192:192|192:80,1,160
114,70,96652,2,0,B|114:182|66:262,1,160
32,336,97198,5,0
112,368,97334,2,0,B|192:400|272:368,1,160
240,288,97743,2,0,B|337:287|416:208,1,160
432,80,98289,1,0
352,32,98425,2,0,B|272:16|160:32,1,160
224,112,98834,2,0,B|128:112|64:128,1,160
256,192,99243,12,4,101698
288,112,110561,6,0,B|352:240|544:208,4,240
256,240,112470,1,0
192,160,112743,2,0,B|144:288|0:304,4,240
64,144,114652,2,0,B|64:64,1,80
176,112,115470,5,0
256,96,116152,2,0,B|496:64,1,240
432,192,117107,5,0
352,224,117652,1,0
272,256,118334,2,0,B|32:224,1,240
96,336,119289,5,0
176,352,119834,1,0
256,368,120516,2,0,B|496:336,1,240
160,224,121470,5,0
192,144,122016,1,0
224,64,122561,1,0
256,80,122698,1,0
288,96,122834,1,0
320,112,122970,1,0
352,128,123107,1,0
384,144,123243,1,0
416,160,123380,1,0
448,176,123516,1,0
480,192,123652,6,0,B|192:176,4,240,4|0|0|0|0
352,304,125561,1,0
224,336,125834,6,0,B|96:96,4,240
272,176,127743,1,0
240,32,128016,6,0,B|64:240,4,240
352,112,129925,1,0
256,224,130198,6,0,B|512:224,4,240
96,192,132107,1,0
256,192,132380,12,0,134289
160,128,134561,6,0,B|256:144|352:128,1,179.999994635582,4|4
256,192,135652,12,0,136743
