osu file format v9

[General]
AudioFilename: rog-unlimitation.mp3
AudioLeadIn: 1996
PreviewTime: 71235
Countdown: 0
SampleSet: Normal
StackLeniency: 0.6
Mode: 0
LetterboxInBreaks: 0

[Editor]
Bookmarks: 22152,75594,91962,110507,123598,136689
DistanceSpacing: 0.6
BeatDivisor: 2
GridSize: 16

[Metadata]
Title:rog-unlimitation
Artist:07th Expansion
Creator:AngelHoney
Version:Easy
Source:Umineko no Naku Koro ni
Tags:xaki

[Difficulty]
HPDrainRate:1
CircleSize:3
OverallDifficulty:1
ApproachRate:2
SliderMultiplier:0.9
SliderTickRate:1

[Events]
//Background and Video events
0,0,"10088009.jpg"
//Break Periods
2,58398,64470
2,101898,109198
2,114988,122289
//Storyboard Layer 0 (Background)
//Storyboard Layer 1 (Fail)
//Storyboard Layer 2 (Pass)
//Storyboard Layer 3 (Foreground)
//Storyboard Sound Samples
//Background Colour Transformations
3,100,0,0,0

[TimingPoints]
380,272.727272727273,4,1,0,70,1,0
23289,-100,4,1,0,70,0,1
23323,-100,4,1,0,70,0,0
40402,-100,4,1,0,80,0,0
40743,-100,4,1,0,70,0,1
40777,-100,4,1,0,70,0,0
58198,-100,4,1,0,70,0,1
59289,-100,4,1,0,70,0,0
101698,-100,4,1,0,70,0,1
102925,-100,4,1,0,70,0,0
132301,-133.333333333333,4,1,0,70,0,0
135652,-133.333333333333,4,1,0,40,0,0
135925,-133.333333333333,4,1,0,30,0,0
136198,-133.333333333333,4,1,0,20,0,0
136470,-133.333333333333,4,1,0,10,0,0
136743,-133.333333333333,4,1,0,30,0,1
136880,-133.333333333333,4,1,0,5,0,0

[HitObjects]
176,112,380,6,0,B|128:176|32:192,4,135
320,80,2561,2,0,B|368:144|464:160,4,135
240,208,4743,6,0,B|192:272|96:288,4,135,0|0|0|0|0
368,288,6925,2,0,B|416:352|512:368,4,135,0|0|0|0|0
480,176,9107,6,0,B|416:80|288:96,1,180,4|0
192,192,10198,2,0,B|144:96|32:96,1,180
32,288,11289,2,0,B|112:336|224:288,1,180
384,336,12380,2,0,B|464:288|480:160,1,180
352,80,13470,6,0,B|272:128|176:80,1,180
32,224,14561,2,0,B|128:288|208:224,1,180
480,288,15652,2,0,B|400:224|304:288,1,180
208,112,16743,2,0,B|256:208|192:304,1,180
48,240,17834,6,0,B|256:304|400:176,2,360,4|0|4
256,192,20425,12,4,22198
64,96,23289,6,0,B|256:80,1,180,4|0
304,208,24380,2,0,B|112:192,1,180
80,320,25470,2,0,B|272:304,1,180
352,352,26561,2,0,B|400:160,1,180
464,80,27652,6,0,B|272:32,1,180
304,144,28743,2,0,B|96:112,1,180
192,224,29834,2,0,B|-12:244,1,180
112,352,30925,6,0,B|320:416|448:256,1,360,4|0
480,128,32561,1,0
368,48,33107,2,0,B|160:-16|0:128,1,360
112,208,34743,1,0
32,336,35289,2,0,B|208:240|400:336,1,360,0|4
496,240,36925,6,0,B|288:208,1,180
416,128,38016,2,0,B|208:112,1,180
320,16,39107,2,0,B|112:32,1,180
16,112,40198,2,0,B|96:176,1,90
256,192,40743,12,0,45107
144,320,45652,5,0
48,240,46198,2,0,B|0:160|48:48,1,180
176,32,47289,2,0,B|208:128|176:224,1,180
112,320,48380,6,0,B|224:240|384:368|448:256,1,360,4|0
464,64,50561,2,0,B|304:128|192:16|112:96,1,360
32,256,52743,2,0,B|144:224|227:353|403:257,1,360
256,192,54107,12,4,58198
64,128,65834,6,0,B|112:240|352:48|416:144,1,360,4|0
480,224,67470,1,0
400,320,68016,2,0,B|320:368|208:336,1,180
96,352,69107,2,0,B|0:272|32:80|176:48,1,360
288,48,70743,1,0
400,96,71289,6,0,B|448:288|160:192|224:352,2,360
256,192,73743,12,4,75652
240,64,76743,5,0
208,176,77289,1,0
112,96,77834,2,0,B|32:160|48:272,1,180
144,336,78925,2,0,B|224:272|352:304,1,180
432,336,80016,6,0,B|480:176,2,135
352,288,81107,2,0,B|400:128,2,135
272,256,82198,6,0,B|64:272|208:16|32:16,1,360,0|4
0,112,83834,1,0
64,208,84380,6,0,B|224:80|432:144,1,360
496,224,86016,1,0
416,320,86561,2,0,B|336:272|208:304,1,180
176,192,87652,2,0,B|288:144|384:192,1,180
480,176,88743,6,0,B|384:0|160:48,1,360
80,128,90380,1,0
128,240,90925,2,0,B|352:288|448:112,1,360
208,64,92970,5,4
160,160,93380,2,0,B|-16:160,1,135
256,176,94470,2,0,B|416:176,1,135
176,256,95561,6,0,B|16:256,1,135
272,272,96652,2,0,B|432:272,1,135
192,352,97743,2,0,B|48:352,1,135
256,192,98561,12,4,101698
192,112,110561,6,0,B|144:176|160:256,4,135
304,208,112743,6,0,B|320:272|272:352,5,135,0|0|0|0|0|4
160,32,123652,6,0,B|256:32|320:64,4,135
192,144,125834,2,0,B|272:144|368:160,4,135
240,256,128016,6,0,B|304:240|400:240,4,135
176,352,130198,2,0,B|256:352|336:368,4,135
256,192,132380,12,0,136743
