osu file format v9

[General]
AudioFilename: rog-unlimitation.mp3
AudioLeadIn: 1996
PreviewTime: 71235
Countdown: 0
SampleSet: Normal
StackLeniency: 0.6
Mode: 0
LetterboxInBreaks: 0

[Editor]
Bookmarks: 22152,75594,91962,110507,123598,136689
DistanceSpacing: 0.6
BeatDivisor: 4
GridSize: 16

[Metadata]
Title:rog-unlimitation
Artist:07th Expansion
Creator:AngelHoney
Version:AngelHoney
Source:Umineko no Naku Koro ni
Tags:xaki

[Difficulty]
HPDrainRate:7
CircleSize:3
OverallDifficulty:7
ApproachRate:10
SliderMultiplier:2.1
SliderTickRate:1

[Events]
//Background and Video events
0,0,"10088009.jpg"
//Break Periods
2,58398,65384
2,101898,110111
//Storyboard Layer 0 (Background)
//Storyboard Layer 1 (Fail)
//Storyboard Layer 2 (Pass)
//Storyboard Layer 3 (Foreground)
//Storyboard Sound Samples
//Background Colour Transformations
3,100,0,0,0

[TimingPoints]
380,272.727272727273,4,1,0,70,1,0
21925,-100,4,1,0,5,0,0
22061,-100,4,1,0,70,0,0
23289,-100,4,1,0,70,0,1
23323,-100,4,1,0,70,0,0
40402,-100,4,1,0,80,0,0
40607,-100,4,1,0,5,0,0
40675,-100,4,1,0,70,0,0
40743,-100,4,1,0,70,0,1
40777,-100,4,1,0,70,0,0
58198,-100,4,1,0,70,0,1
59289,-100,4,1,0,70,0,0
75380,-100,4,2,0,40,0,0
75516,-100,4,1,0,70,0,0
101698,-100,4,1,0,70,0,1
102925,-100,4,1,0,70,0,0
132301,-133.333333333333,4,1,0,40,0,0
132652,-133.333333333333,4,1,0,45,0,0
132925,-133.333333333333,4,1,0,50,0,0
133198,-133.333333333333,4,1,0,55,0,0
133470,-133.333333333333,4,1,0,60,0,0
133743,-133.333333333333,4,1,0,65,0,0
134016,-133.333333333333,4,1,0,70,0,0
134289,-133.333333333333,4,1,0,75,0,0
134561,-133.333333333333,4,1,0,80,0,0
135652,-133.333333333333,4,1,0,40,0,0
135925,-133.333333333333,4,1,0,30,0,0
136198,-133.333333333333,4,1,0,20,0,0
136470,-133.333333333333,4,1,0,10,0,0
136743,-133.333333333333,4,1,0,30,0,1
136880,-133.333333333333,4,1,0,5,0,0

[HitObjects]
80,64,107,1,0
128,192,380,5,0
160,192,516,1,0
176,320,789,1,0
208,320,925,1,0
232,192,1198,1,0
264,192,1334,1,0
288,320,1607,1,0
320,320,1743,1,0
336,192,2016,1,0
360,192,2152,1,0
384,192,2289,1,0
384,48,2561,5,0
352,80,2698,1,0
240,48,2970,1,0
208,80,3107,1,0
48,48,3380,1,0
80,80,3516,1,0
48,224,3789,1,0
80,192,3925,1,0
256,240,4198,1,0
224,208,4334,1,0
192,176,4470,1,0
320,320,4743,5,0
368,304,4880,1,0
448,192,5152,1,0
400,176,5289,1,0
272,64,5561,1,0
320,48,5698,1,0
144,144,5970,1,0
96,128,6107,1,0
48,320,6380,1,0
96,304,6516,1,0
144,288,6652,1,0
336,336,6925,5,0
304,288,7061,1,0
240,64,7334,1,0
224,112,7470,1,0
96,256,7743,1,4
152,242,7880,1,0
464,80,8152,1,4
424,64,8289,1,0
384,72,8425,1,0
344,64,8561,1,4
304,72,8698,1,0
272,56,8834,1,0
232,72,8970,1,0
184,64,9107,6,0,B|216:200|376:200,1,210,4|0
120,88,9516,2,0,B|224:160|344:96,1,210
56,80,9925,2,0,B|160:0|280:88,1,210
0,112,10334,2,0,B|56:216|208:176,1,210
320,48,10743,2,0,B|272:168,1,105
336,304,11016,2,0,B|384:176,1,105
112,352,11289,6,0,B|0:280|16:136,1,210
200,296,11698,2,0,B|128:200|184:72,1,210
304,272,12107,2,0,B|264:144|368:32,1,210
408,280,12516,2,0,B|424:168|512:96,1,210
400,32,12925,2,0,B|344:32|280:0,1,105
96,128,13198,2,0,B|160:128|208:104,1,105
312,352,13470,6,0,B|272:240|136:208,1,210
392,256,13880,2,0,B|272:272|160:160,1,210
400,144,14289,2,0,B|296:112|176:160,1,210
32,48,14698,2,0,B|152:32|224:144,1,210
128,336,15107,2,0,B|184:208,1,105
384,248,15380,2,0,B|280:216,1,105
112,32,15652,6,0,B|32:144|88:280,1,210
224,16,16061,2,0,B|272:128|208:232,1,210
336,64,16470,2,0,B|272:160|320:296,1,210
432,128,16880,2,0,B|480:240|416:352,1,210
304,336,17289,2,0,B|256:304|192:304,1,105
64,224,17561,2,0,B|112:192|176:192,1,105
304,208,17834,6,0,B|272:64,1,105,4|0
448,240,18107,2,0,B|416:112,1,105
208,320,18380,2,0,B|168:208,1,105
320,80,18652,1,0
64,32,19198,6,0,B|48:160,1,105
208,64,19470,2,0,B|160:192,1,105
352,144,19743,2,0,B|264:232,1,105
432,256,20016,2,0,B|368:352|224:336,1,210,4|0
320,192,20425,2,0,B|208:128|96:168,1,210,4|0
256,192,20834,12,0,21925
152,112,22198,5,4
152,112,22470,1,4
304,112,22743,1,4
416,192,22880,1,4
320,304,23016,1,4
208,224,23152,1,4
320,128,23289,6,0,B|448:128|512:16,1,210
304,240,23698,1,0
208,160,23834,2,0,B|160:128|80:128,1,105
400,320,24107,2,0,B|464:320|528:288,1,105
80,160,24380,2,0,B|48:288|160:352,1,210
176,176,24789,2,0,B|256:112|392:144,1,210
464,272,25198,2,0,B|416:256|352:256,1,105
224,160,25470,6,0,B|184:208|192:272,1,105
264,352,25743,1,0
376,288,25880,2,0,B|440:184|344:72,1,210
240,48,26289,2,0,B|208:96|216:168,1,105
85,218,26561,1,0
160,336,26698,2,0,B|208:312|280:320,1,105
416,336,26970,1,0
480,200,27107,2,0,B|454:141|406:109,1,105
252,158,27380,2,0,B|277:216|335:252,1,105
376,64,27652,6,0,B|264:48|184:152,1,210
144,272,28061,1,0
16,112,28198,2,0,B|66:82|144:88,1,105
336,208,28470,2,0,B|352:272|304:344,1,105
80,336,28743,1,0
96,176,28880,2,0,B|160:184|208:160,1,105
304,240,29152,2,0,B|272:128|368:48,1,210
448,144,29561,2,0,B|440:208|472:288,1,105
320,336,29834,6,0,B|224:256|96:320,1,210
32,112,30243,2,0,B|152:152|256:56,1,210
384,32,30652,2,0,B|352:96|368:160,1,105
368,272,30925,1,4
368,272,31061,2,0,B|272:224|128:256,1,210,4|4
464,128,31470,2,0,B|376:184|240:144,1,210,4|4
144,144,31880,1,4
160,336,32016,6,0,B|256:272|256:144,1,210
240,48,32425,1,0
48,176,32561,2,0,B|112:176|176:128,1,105,0|0
448,224,32834,2,0,B|384:224|336:192,1,105,0|0
224,336,33107,2,0,B|144:224|216:96,1,210
320,48,33516,2,0,B|384:64|416:128,1,105
448,224,33789,1,0
368,336,33925,1,0
224,352,34061,1,0
96,304,34198,6,0,B|48:256|48:176,1,105
64,96,34470,1,0
176,192,34607,1,0
304,264,34743,2,0,B|399:171|360:48,1,210
224,48,35152,1,0
128,144,35289,2,0,B|80:128|8:136,1,105
288,224,35561,2,0,B|336:256|432:256,1,105
112,272,35834,2,0,B|64:304|-32:320,1,105
352,96,36107,2,0,B|400:64|480:64,1,105
464,224,36380,6,0,B|464:288,2,52.5,4|0|0
384,256,36652,2,0,B|376:336,2,52.5
288,272,36925,2,0,B|272:352,2,52.5
192,288,37198,2,0,B|144:352,2,52.5
96,272,37470,2,0,B|16:320,2,52.5,0|0|0
64,192,37743,2,0,B|0:176,2,52.5
96,96,38016,2,0,B|64:0,2,52.5
192,48,38289,2,0,B|240:-32,2,52.5
320,48,38561,2,0,B|400:0,2,52.5
416,128,38834,2,0,B|480:144,2,52.5
416,256,39107,2,0,B|464:336,2,52.5
304,320,39380,2,0,B|320:400,2,52.5
144,320,39652,2,0,B|80:384,2,52.5
64,192,39925,2,0,B|-32:192,2,52.5
192,64,40198,2,0,B|168:-16,2,52.5
384,80,40470,6,0,B|496:104,1,105
240,64,40743,5,0
212,69,40811,1,0
186,77,40880,1,0
162,89,40948,1,0
140,102,41016,1,0
121,119,41084,1,0
105,137,41152,1,0
92,157,41220,1,0
82,178,41289,1,0
76,200,41357,1,0
72,223,41425,1,0
72,244,41493,1,0
75,266,41561,1,0
81,287,41630,1,0
91,306,41698,1,0
103,323,41766,1,0
118,339,41834,5,0
135,353,41902,1,0
155,364,41970,1,0
176,372,42039,1,0
198,377,42107,1,0
222,379,42175,1,0
246,377,42243,1,0
270,372,42311,1,0
294,364,42380,1,0
318,352,42448,1,0
341,337,42516,1,0
361,319,42584,1,0
380,297,42652,1,0
398,272,42720,1,0
412,245,42789,1,0
423,216,42857,1,0
426,178,42925,6,0,B|416:112,2,52.5
288,112,43198,2,0,B|267:32,2,52.5
176,208,43470,2,0,B|152:128,2,52.5
32,160,43743,2,0,B|0:96,2,52.5
48,288,44016,5,0
77,315,44084,1,0
110,337,44152,1,0
145,353,44220,1,0
181,363,44289,1,0
218,366,44357,1,0
254,363,44425,1,0
288,355,44493,1,0
320,339,44561,1,0
350,319,44630,1,0
377,293,44698,1,0
399,264,44766,1,0
416,229,44834,1,0
428,191,44902,1,0
434,150,44970,1,0
434,108,45039,1,0
427,70,45107,6,0,B|383:43|315:54,1,105
192,96,45380,1,0
48,208,45516,2,0,B|96:240|176:224,1,105
288,192,45789,1,0
384,64,45925,1,0
208,48,46061,1,0
64,160,46198,2,0,B|16:208|16:288,1,105
272,352,46470,2,0,B|304:304|288:232,1,105
240,128,46743,1,0
144,272,46880,1,0
432,256,47016,2,0,B|432:192|384:144,1,105
128,48,47289,6,0,B|32:128|64:256,1,210
336,320,47698,2,0,B|368:200|224:120,1,210
88,264,48107,2,0,B|104:328|168:344,1,105
368,176,48380,1,4
400,72,48516,1,4
96,64,48789,1,4
40,152,48925,1,4
72,174,48993,1,0
108,191,49061,1,0
147,201,49130,1,0
184,206,49198,1,4
225,205,49266,1,0
264,197,49334,1,4
303,183,49402,1,0
336,160,49470,6,0,B|384:120|400:48,1,105
184,40,49743,2,0,B|136:80|120:152,1,105
328,312,50016,2,0,B|392:296|432:240,1,105
272,112,50289,2,0,B|216:80|144:88,1,105
48,288,50561,2,0,B|128:192|264:224,1,210
352,256,50970,1,0
256,352,51107,2,0,B|136:304|136:160,1,210
152,88,51516,1,0
48,192,51652,2,0,B|160:232|272:176,1,210
488,272,52061,2,0,B|352:304|256:200,1,210
152,88,52470,2,0,B|104:136|96:200,1,105
240,192,52743,2,0,B|336:128|472:192,1,210
120,280,53152,2,0,B|72:176|160:72,1,210
312,56,53561,2,0,B|320:120|280:176,1,105
232,264,53834,6,0,B|288:288,2,52.5
440,208,54107,2,0,B|376:224,2,52.5
136,144,54380,2,0,B|80:112,2,52.5
80,280,54652,2,0,B|144:320,2,52.5
288,136,54925,2,0,B|352:112,2,52.5
424,272,55198,2,0,B|360:240,2,52.5
176,256,55470,2,0,B|232:288,2,52.5
448,128,55743,2,0,B|512:96,2,52.5
192,80,56016,2,0,B|136:48,2,52.5
336,336,56289,2,0,B|384:368,2,52.5
32,216,56561,2,0,B|104:176,2,52.5
360,80,56834,2,0,B|296:120,2,52.5
440,288,57107,6,0,B|376:288|328:256,1,105,4|0
64,312,57380,2,0,B|120:312|184:288,1,105,4|0
480,104,57652,2,0,B|432:128|360:120,1,105,4|0
24,72,57925,2,0,B|72:112|160:120,1,105,4|0
240,184,58198,5,4
64,128,65834,5,4
64,128,65970,1,4
208,304,66243,1,4
208,304,66380,1,4
320,80,66652,1,4
320,80,66789,1,4
320,80,66925,6,0,B|424:72|520:176,1,210
320,224,67334,2,0,B|208:176|72:232,1,210
192,336,67743,1,0
32,96,67880,1,0
32,272,68016,2,0,B|152:208|200:80,1,210
256,16,68425,1,0
320,144,68561,2,0,B|320:208|360:264,1,105
480,144,68834,2,0,B|480:80|432:16,1,105
272,96,69107,6,0,B|192:144|48:96,1,210
16,256,69516,2,0,B|80:240|128:208,1,105
304,208,69789,2,0,B|192:256|144:368,1,210
336,352,70198,1,0
464,256,70334,2,0,B|448:208|400:160,1,105
288,96,70607,1,0
144,64,70743,2,0,B|112:128|48:160,1,105
192,320,71016,2,0,B|160:272|176:208,1,105
48,272,71289,6,0,B|112:256,2,52.5,4|0|0
112,192,71561,2,0,B|176:176,2,52.5
208,112,71834,2,0,B|272:96,2,52.5
336,48,72107,2,0,B|400:32,2,52.5
400,144,72380,2,0,B|464:136,2,52.5
416,272,72652,2,0,B|493:281,2,52.5
304,352,72925,2,0,B|368:384,2,52.5
224,240,73198,2,0,B|304:216,2,52.5
80,352,73470,2,0,B|160:328,2,52.5
96,128,73743,2,0,B|160:80,2,52.5
384,160,74016,2,0,B|328:128,2,52.5
176,304,74289,2,0,B|208:368,2,52.5
448,288,74561,2,0,B|424:216,2,52.5
224,128,74834,2,0,B|208:176,2,52.5
64,96,75107,2,0,B|200:144|280:88,1,210,4|4
368,32,75652,6,0,B|336:80|333:136,1,105
384,240,75925,1,0
480,160,76061,2,0,B|512:208|512:272,1,105
423,356,76334,1,0
288,368,76470,1,0
144,320,76607,1,0
48,224,76743,2,0,B|32:176|40:112,1,105
160,48,77016,1,0
240,160,77152,2,0,B|288:128|368:128,1,105
432,288,77425,2,0,B|384:320|320:320,1,105
176,304,77698,1,0
6,323,77834,5,0
11,278,77902,1,0
22,235,77970,1,0
40,196,78039,1,0
64,160,78107,1,0
92,128,78175,1,0
124,103,78243,1,0
159,83,78311,1,0
197,69,78380,1,0
237,62,78448,1,0
279,62,78516,1,0
321,67,78584,1,0
362,79,78652,1,0
401,99,78720,1,0
438,124,78789,1,0
469,153,78857,1,0
494,185,78925,6,0,B|416:192|368:240,1,105,0|0
256,240,79198,1,0
112,288,79334,2,0,B|64:288|0:240,1,105
144,64,79607,2,0,B|160:128|208:176,1,105
336,160,79880,1,0
224,336,80016,6,0,B|256:288|240:224,1,105
160,144,80289,1,0
64,304,80425,2,0,B|0:208|64:80,1,210
144,32,80834,1,0
240,96,80970,1,0
368,64,81107,2,0,B|480:48,1,105
272,208,81380,2,0,B|144:240,1,105
400,320,81652,2,0,B|544:288,1,105
128,112,81925,2,0,B|16:144,1,105
16,304,82198,5,0
48,320,82266,1,0
80,304,82334,1,0
112,320,82402,1,0
144,304,82470,1,0
176,320,82539,1,0
208,304,82607,1,0
240,320,82675,1,0
272,304,82743,1,0
304,320,82811,1,0
336,304,82880,1,0
352,320,82948,1,0
384,304,83016,1,0
416,320,83084,1,0
448,304,83152,1,0
480,320,83220,1,0
512,304,83289,5,4
480,192,83425,1,4
256,32,83698,1,4
208,128,83834,1,4
48,304,84107,1,4
160,288,84243,1,4
272,272,84380,6,0,B|416:240,1,105
480,144,84652,2,0,B|352:112,1,105
160,48,85061,1,0
32,224,85334,1,0
144,256,85470,2,0,B|176:384,1,105
272,288,85743,2,0,B|400:272,1,105
384,64,86152,1,0
176,160,86425,1,0
128,320,86561,5,0
128,320,86630,1,0
128,320,86698,1,0
128,320,86766,1,0
128,320,86834,1,0
128,320,86902,1,0
128,320,86970,1,0
128,320,87039,1,0
128,320,87107,1,0
128,320,87175,1,0
128,320,87243,1,0
128,320,87311,1,0
128,320,87380,1,0
128,320,87448,1,0
128,320,87516,1,0
128,320,87584,1,0
128,320,87652,6,0,B|232:288|328:352,1,210
464,112,88198,2,0,B|352:136|256:48,1,210
18,250,88743,5,0
39,227,88811,1,0
63,207,88879,1,0
91,194,88947,1,0
120,183,89015,1,0
151,179,89084,1,0
182,181,89152,1,0
212,188,89220,1,0
241,199,89288,1,0
269,211,89356,1,0
298,223,89425,1,0
326,235,89493,1,0
357,239,89561,1,0
388,238,89629,1,0
418,232,89697,1,0
446,217,89765,1,0
471,198,89834,5,0
487,171,89902,1,0
487,139,89970,1,0
475,109,90038,1,0
455,84,90106,1,0
429,65,90175,1,0
399,54,90243,1,0
368,47,90311,1,0
336,46,90379,1,0
305,55,90447,1,0
280,75,90516,1,0
259,99,90584,1,0
239,123,90652,1,0
220,148,90720,1,0
197,169,90788,1,0
171,186,90856,1,0
141,197,90925,5,0
109,198,90993,1,0
77,195,91061,1,0
49,179,91129,1,0
24,159,91197,1,0
11,129,91266,1,0
14,97,91334,1,0
29,69,91402,1,0
52,48,91470,1,0
82,39,91538,1,0
113,43,91607,1,0
141,56,91675,1,0
166,74,91743,1,0
189,94,91811,1,0
211,116,91879,1,0
235,135,91947,1,0
261,152,92016,5,0
288,166,92084,1,0
318,171,92152,1,0
349,173,92220,1,0
380,169,92289,1,0
410,160,92357,1,0
440,152,92425,2,0,B|422:258|310:320,1,210
200,336,92834,1,0
80,288,92970,5,4
56,72,93243,1,0
168,40,93380,1,0
464,80,93652,1,0
440,184,93789,1,0
240,184,94061,1,0
56,304,94334,1,0
16,200,94470,1,0
352,288,94743,1,0
392,184,94880,1,0
200,48,95152,5,0
128,272,95425,1,0
264,248,95561,1,0
480,72,95834,1,0
352,40,95970,1,0
192,168,96243,1,0
24,328,96516,1,0
192,344,96652,1,0
480,192,96925,1,0
392,304,97061,1,0
248,192,97334,5,0
24,32,97607,1,0
48,184,97743,1,0
352,40,98016,1,0
200,64,98152,1,0
448,240,98425,1,0
447,241,98561,5,0
415,246,98630,1,0
383,245,98698,1,0
351,246,98766,1,0
321,256,98834,1,0
289,259,98902,1,0
259,268,98970,1,0
227,264,99039,1,0
198,251,99107,1,0
170,236,99175,1,0
139,230,99243,1,0
109,218,99311,1,0
86,195,99380,1,0
93,164,99448,1,0
107,135,99516,1,0
90,108,99584,1,0
85,76,99652,5,0
103,50,99720,1,0
132,38,99789,1,0
158,55,99857,1,0
189,55,99925,1,0
219,47,99993,1,0
249,52,100061,1,0
279,43,100130,1,0
309,50,100198,1,0
340,47,100266,1,0
362,68,100334,1,0
375,96,100402,1,0
406,96,100470,1,0
431,114,100539,1,0
457,131,100607,1,0
469,159,100675,1,0
492,179,100743,5,0
495,210,100811,1,0
476,235,100880,1,0
444,235,100948,1,0
414,246,101016,1,0
388,263,101084,1,0
366,285,101152,1,0
335,292,101220,1,0
303,290,101289,1,0
274,302,101357,1,0
243,294,101425,1,0
212,303,101493,1,0
181,310,101561,1,0
149,310,101630,1,0
121,294,101698,1,4
64,192,110561,5,4
432,208,110970,1,0
32,272,111380,1,0
448,128,111789,1,0
48,112,112198,1,0
256,144,112470,1,0
432,64,112743,5,0
336,320,113152,1,0
336,32,113561,1,0
448,352,113970,1,0
240,48,114380,1,0
192,128,114516,1,0
144,208,114652,1,0
112,288,114789,6,0,B|224:336|336:288,1,210,4|0
448,128,115334,1,0
357,83,115470,1,0
80,128,116152,1,0
192,256,116561,1,0
464,160,117107,1,0
160,96,117652,1,0
64,224,118334,1,0
224,288,118743,1,0
336,256,119016,1,0
416,176,119289,5,0
128,64,119834,1,0
176,288,120516,1,0
352,208,120925,1,0
320,80,121198,1,0
176,48,121470,1,0
32,240,122016,1,0
272,336,122561,1,0
448,320,122834,1,0
432,208,122970,1,0
272,48,123243,1,0
240,144,123380,1,0
208,240,123516,1,0
176,336,123652,6,0,B|96:256|-16:240,1,210,4|0
288,288,124061,2,0,B|352:176|480:144,1,210
176,192,124470,2,0,B|128:80|0:32,1,210
240,96,124880,2,0,B|352:96|448:16,1,210
464,144,125289,2,0,B|512:192|512:272,1,105
368,336,125561,2,0,B|320:288|320:208,1,105
224,336,125834,6,0,B|144:240|0:256,1,210
224,192,126243,2,0,B|352:240|496:144,1,210
304,96,126652,2,0,B|224:32|80:32,1,210
320,256,127061,2,0,B|432:224|496:112,1,210
256,144,127470,2,0,B|208:112|128:112,1,105
32,208,127743,2,0,B|80:240|160:256,1,105
400,128,128016,6,0,B|416:240|352:336,1,210
224,64,128425,2,0,B|176:160|208:304,1,210
480,48,128834,2,0,B|496:160|448:304,1,210
80,48,129243,2,0,B|48:160|96:288,1,210
224,304,129652,2,0,B|192:256|192:176,1,105
368,48,129925,2,0,B|400:96|400:176,1,105
368,288,130198,6,0,B|272:320|160:272,1,210
80,64,130607,2,0,B|176:16|320:48,1,210
480,304,131016,2,0,B|384:336|256:288,1,210
16,144,131425,2,0,B|112:96|224:128,1,210
336,64,131834,2,0,B|368:112|368:192,1,105
256,352,132107,2,0,B|224:304|208:240,1,105
256,256,132380,5,0
256,256,132448,1,0
256,256,132516,1,0
256,256,132584,1,0
256,256,132652,1,0
256,256,132720,1,0
256,256,132789,1,0
256,256,132857,1,0
256,256,132925,1,0
256,256,132993,1,0
256,256,133061,1,0
256,256,133130,1,0
256,256,133198,1,0
256,256,133266,1,0
256,256,133334,1,0
256,256,133402,1,0
256,256,133470,5,0
256,256,133539,1,0
256,256,133607,1,0
256,256,133675,1,0
256,256,133743,1,0
256,256,133811,1,0
256,256,133880,1,0
256,256,133948,1,0
256,256,134016,1,0
256,256,134084,1,0
256,256,134152,1,0
256,256,134220,1,0
256,256,134289,1,0
256,256,134357,1,0
256,256,134425,1,0
256,256,134493,1,0
256,256,134561,6,0,B|384:288|496:256,1,236.249992959202,4|4
256,192,135652,12,4,136743
