osu file format v9

[General]
AudioFilename: resurrectedreplayer.mp3
AudioLeadIn: 0
PreviewTime: 68825
Countdown: 0
SampleSet: Soft
StackLeniency: 0.4
Mode: 1
LetterboxInBreaks: 1

[Editor]
DistanceSpacing: 0.7
BeatDivisor: 4
GridSize: 8

[Metadata]
Title:resurrectedreplayer
Artist:07th Expansion
Creator:Aakiha
Version:Pangko
Source:umineko chiru
Tags:erika ep6 zts Alace

[Difficulty]
HPDrainRate:6
CircleSize:7
OverallDifficulty:6
ApproachRate:10
SliderMultiplier:1.4
SliderTickRate:2

[Events]
//Background and Video events
0,0,"erika1.jpg"
//Break Periods
//Storyboard Layer 0 (Background)
//Storyboard Layer 1 (Fail)
//Storyboard Layer 2 (Pass)
//Storyboard Layer 3 (Foreground)
//Storyboard Sound Samples
//Background Colour Transformations
3,100,163,162,255

[TimingPoints]
254,428.571428571429,4,2,0,80,1,0
27682,-100,4,1,0,70,0,0
96254,-100,4,1,0,70,0,1
123682,-100,4,2,0,90,0,0
164825,-100,4,1,0,70,0,0
192254,-100,4,1,0,70,0,1
247111,-100,4,1,0,70,0,0

[Colours]
Combo1 : 213,213,0
Combo2 : 255,0,0
Combo3 : 5,5,240

[HitObjects]
160,32,13968,1,0
200,96,14396,1,0
200,96,14611,1,2
200,96,14718,1,0
200,96,14932,1,2
200,96,15146,1,0
200,96,15254,1,2
112,168,15468,1,0
216,208,15896,1,0
224,160,16111,1,2
296,144,16325,1,0
296,144,16432,1,2
296,144,16646,1,0
296,144,16754,1,2
296,144,16968,1,2
160,32,17396,1,0
200,96,17824,1,0
200,96,18039,1,2
200,96,18146,1,0
200,96,18360,1,2
200,96,18574,1,0
200,96,18682,1,2
112,168,18896,1,0
216,208,19324,1,0
224,160,19539,1,2
296,144,19753,1,0
296,144,19860,1,2
296,144,20074,1,0
296,144,20182,1,2
296,144,20396,1,2
208,64,20825,1,0
208,64,21039,1,2
208,64,21254,1,0
184,24,21468,1,2
184,24,21575,1,0
184,24,21682,1,0
184,24,21789,1,2
184,24,21896,1,0
184,24,22111,1,2
184,24,22325,1,0
184,24,22432,1,2
184,24,22539,1,0
184,24,22754,1,2
184,24,22968,1,0
184,24,23182,1,2
184,24,23289,1,0
184,24,23504,1,2
184,24,23611,1,0
184,24,23825,1,2
208,64,24254,1,0
208,64,24468,1,2
208,64,24683,1,0
184,24,24897,1,2
184,24,25004,1,0
184,24,25111,1,0
184,24,25218,1,2
184,24,25325,1,0
184,24,25540,1,2
184,24,25754,1,0
184,24,25861,1,2
184,24,25968,1,0
184,24,26183,1,2
184,24,26397,1,0
184,24,26611,1,2
184,24,26718,1,0
184,24,26933,1,2
184,24,27040,1,0
200,152,27254,1,0
200,152,27325,1,0
200,152,27396,1,0
200,152,27468,1,0
200,152,27539,1,0
200,152,27611,1,0
200,152,27682,5,0
176,96,28111,1,0
176,96,28539,1,0
176,96,28968,1,0
136,120,29182,1,0
136,120,29289,1,0
136,120,29396,1,0
168,32,29825,1,0
256,112,30254,1,0
352,264,30361,1,0
352,264,30468,1,0
352,264,30682,1,0
200,144,31111,1,0
200,144,31539,1,0
200,144,31968,1,0
200,144,32396,1,0
200,144,32611,1,0
200,144,32718,1,0
200,144,32825,1,0
264,184,33039,1,2
264,184,33254,1,0
264,184,33468,1,2
264,184,33682,1,0
400,288,33896,1,2
400,288,34004,1,2
400,288,34111,1,2
144,112,34539,5,0
248,80,34754,1,0
248,80,34968,1,2
248,80,35182,1,2
248,80,35396,1,0
248,80,35504,1,0
248,80,35611,1,2
248,80,35825,1,2
248,80,36039,1,0
248,80,36146,1,0
248,80,36254,1,0
176,32,36468,1,0
224,160,36682,1,2
224,160,36789,1,0
224,160,36896,1,0
224,160,37004,1,2
224,160,37111,1,0
224,160,37325,1,2
224,160,37539,1,2
144,112,37968,1,0
248,80,38183,1,0
248,80,38397,1,2
248,80,38611,1,2
248,80,38825,1,0
248,80,38933,1,0
248,80,39040,1,2
248,80,39254,1,2
248,80,39468,1,0
248,80,39575,1,0
248,80,39683,1,0
176,32,39897,1,2
320,208,40004,1,0
216,208,40111,1,2
144,88,40218,1,0
144,88,40432,1,0
144,88,40539,1,2
216,136,40754,1,2
216,48,40968,1,0
320,48,41039,1,0
320,48,41111,1,0
320,48,41182,1,0
320,48,41254,1,0
320,48,41325,1,0
320,48,41396,5,0
144,176,41825,1,0
176,216,42254,1,0
176,80,42682,1,0
168,112,43111,1,0
168,112,43539,1,0
168,112,43968,1,0
168,112,44396,1,4
296,176,44611,1,0
296,176,44718,1,0
296,176,44825,1,0
192,56,45254,1,4
272,88,45468,1,0
272,88,45575,1,0
272,88,45682,1,0
192,56,46111,1,4
264,192,46325,1,0
264,192,46432,1,0
264,192,46539,1,0
176,200,46754,1,4
128,120,46968,1,4
256,152,47182,1,0
256,152,47289,1,0
256,152,47396,1,0
208,176,47611,1,4
208,176,47825,1,0
208,80,47932,1,0
208,176,48039,1,0
208,176,48146,1,0
208,176,48254,5,0
136,120,48682,1,0
152,56,49111,1,0
224,112,49325,1,0
296,144,49539,1,0
296,144,49754,1,0
296,144,49861,1,0
296,144,49968,1,0
200,168,50396,1,0
208,80,50825,1,0
224,112,51039,1,0
208,80,51254,1,0
208,80,51468,1,0
208,80,51575,1,0
208,80,51682,1,0
160,112,52111,1,4
160,112,52325,1,0
160,112,52432,1,0
160,112,52539,1,0
160,152,52968,1,4
160,152,53182,1,0
160,152,53289,1,0
160,152,53396,1,0
408,104,53611,1,4
408,104,53825,1,4
408,104,54039,1,0
408,104,54146,1,0
408,104,54254,1,0
296,152,54468,1,4
296,152,54682,1,0
296,152,54789,1,0
296,152,54896,1,0
296,152,55004,1,0
296,152,55111,5,0
176,72,55325,1,2
184,112,55539,1,0
112,160,55754,1,2
208,216,55968,1,0
208,216,56182,1,2
208,216,56396,1,0
208,64,56504,1,0
208,216,56611,1,2
208,216,56718,1,2
208,104,56825,1,0
168,56,57039,1,2
168,56,57254,1,0
168,56,57468,1,2
168,56,57575,1,2
168,56,57682,1,0
168,56,57896,1,2
168,56,58111,1,0
320,144,58218,1,0
168,56,58325,1,2
168,56,58432,1,2
168,56,58539,1,0
320,144,58754,1,2
320,144,58861,1,2
320,144,58968,1,0
192,192,59182,1,2
208,144,59396,1,0
184,160,59611,1,2
184,160,59718,1,2
184,160,59825,1,0
184,160,60039,1,0
184,160,60146,1,2
184,160,60254,1,0
112,184,60468,1,2
112,184,60682,1,0
320,160,60896,1,2
320,160,61004,1,2
320,160,61111,1,0
320,160,61325,1,2
400,312,61539,1,0
400,312,61646,1,0
400,312,61754,1,2
400,312,61861,1,2
296,152,61968,5,0
176,72,62182,1,0
296,152,62289,1,2
184,112,62396,1,0
112,160,62611,1,2
296,152,62718,1,0
208,216,62825,1,0
208,216,63039,1,2
208,216,63253,1,0
208,64,63361,1,2
208,216,63468,1,0
208,216,63575,1,2
208,104,63682,1,0
168,56,63896,1,2
168,56,64111,1,0
168,56,64325,1,2
168,56,64432,1,2
168,56,64539,1,0
168,56,64753,1,2
168,56,64968,1,0
320,144,65075,1,2
168,56,65182,1,0
168,56,65289,1,2
168,56,65396,1,0
320,144,65611,1,2
320,144,65718,1,2
320,144,65825,1,0
280,208,66039,1,0
280,208,66146,1,2
208,144,66253,1,0
184,160,66468,1,2
184,160,66575,1,2
160,104,66682,1,0
160,104,66789,1,0
160,104,66896,1,2
160,104,67004,1,2
160,104,67111,1,0
152,184,67325,1,2
216,256,67539,1,0
216,256,67754,1,2
176,64,67861,1,2
216,256,67968,1,0
216,256,68075,1,0
176,64,68182,1,2
112,64,68396,1,0
320,88,68468,1,0
288,144,68539,1,0
288,144,68611,1,0
288,144,68682,1,0
288,144,68754,1,0
288,144,68825,5,0
168,160,69254,1,2
200,56,69468,1,0
160,96,69575,1,0
160,96,69682,1,2
288,144,69896,1,0
160,96,70111,1,2
176,96,70325,1,0
176,96,70432,1,2
224,208,70539,1,0
128,128,70968,1,2
128,176,71182,1,0
128,176,71289,1,0
128,176,71396,1,2
336,224,71611,1,0
336,224,71825,1,2
336,224,71932,1,0
336,224,72039,1,0
336,224,72146,1,2
336,224,72254,1,0
224,56,72468,1,0
224,56,72682,1,2
336,224,72896,1,0
336,224,73111,1,2
160,176,73325,1,0
160,176,73432,1,0
160,176,73539,1,2
304,200,73754,1,0
304,200,73861,1,2
304,200,73968,1,0
216,80,74182,1,2
216,80,74396,1,2
216,80,74611,1,0
216,80,74718,1,0
200,96,74825,1,2
200,96,75039,1,2
200,96,75254,1,0
200,96,75361,1,2
200,96,75468,1,0
200,96,75575,1,2
200,96,75682,5,0
176,128,75896,1,0
176,128,76004,1,0
200,216,76111,1,2
200,216,76325,1,0
200,216,76432,1,2
200,216,76539,1,2
360,264,76754,1,0
360,264,76861,1,0
360,264,76968,1,2
360,264,77075,1,0
360,264,77182,1,2
360,264,77289,1,2
360,264,77396,1,0
176,64,77611,1,2
280,200,77825,1,2
280,200,78039,1,0
280,200,78146,1,0
280,200,78254,1,2
280,200,78468,1,0
280,200,78682,1,2
280,200,78789,1,0
280,200,78896,1,2
280,200,79004,1,0
280,200,79111,1,0
160,200,79325,1,0
160,200,79432,1,0
160,200,79539,1,2
160,200,79754,1,0
160,200,79861,1,2
160,200,79968,1,2
224,112,80182,1,0
224,112,80289,1,0
224,112,80396,1,2
224,112,80504,1,0
224,112,80611,1,2
224,112,80718,1,2
224,112,80825,1,0
176,88,81039,1,0
176,88,81146,1,2
288,248,81254,1,0
176,88,81361,1,2
176,88,81468,1,2
176,88,81682,1,0
176,88,81896,1,2
304,224,82111,1,0
176,144,82325,1,2
176,144,82432,1,2
232,176,82539,5,0
216,104,82861,1,2
168,160,82968,1,0
160,96,83289,1,2
160,96,83396,1,0
288,144,83610,1,2
160,96,83825,1,0
176,96,84039,1,2
176,96,84146,1,2
224,208,84253,1,0
264,112,84575,1,2
128,128,84682,1,0
128,176,85003,1,2
128,176,85110,1,0
336,224,85325,1,2
336,224,85539,1,0
336,224,85646,1,2
336,224,85753,1,0
336,224,85860,1,2
336,224,85968,1,0
224,120,86289,1,2
336,224,86396,1,0
192,144,86718,1,2
336,224,86825,1,0
160,176,87039,1,2
160,176,87146,1,0
160,176,87253,1,2
192,176,87361,1,0
304,200,87468,1,2
304,200,87682,1,0
216,80,87896,1,0
216,80,88110,1,2
216,80,88325,1,2
216,80,88432,1,2
200,96,88539,1,0
200,96,88753,1,0
200,96,88968,1,2
200,96,89182,1,2
200,96,89289,1,0
200,96,89396,5,2
176,128,89610,1,0
176,128,89718,1,0
200,216,89825,1,2
200,216,90039,1,0
200,216,90146,1,0
200,216,90253,1,2
360,264,90468,1,0
360,264,90575,1,0
360,264,90682,1,2
360,264,90789,1,2
360,264,90896,1,0
360,264,91003,1,0
360,264,91110,1,2
176,64,91432,1,2
280,200,91539,1,0
280,200,91860,1,2
280,200,91968,1,0
280,200,92182,1,2
280,200,92396,1,0
280,200,92503,1,2
280,200,92610,1,2
280,200,92718,1,0
280,200,92825,1,2
160,200,93146,1,0
160,200,93253,1,2
160,200,93575,1,0
160,200,93682,1,2
224,112,93896,1,0
224,112,94003,1,0
224,112,94110,1,2
224,112,94218,1,0
224,112,94325,1,0
224,112,94432,1,2
224,112,94539,1,2
176,88,94753,1,0
288,248,94968,1,2
176,88,95075,1,2
176,88,95182,1,0
176,88,95396,1,2
176,88,95610,1,0
216,168,95718,1,0
304,224,95825,1,2
288,248,95932,1,2
152,40,96039,1,0
176,144,96146,1,2
160,192,96254,5,0
224,240,96682,1,0
112,128,96896,1,0
112,128,97004,1,0
112,128,97111,1,2
272,136,97325,1,0
136,72,97539,1,2
136,72,97754,1,0
136,72,97861,1,0
136,72,97968,1,2
240,80,98182,1,2
160,160,98396,1,0
192,96,98611,1,2
192,96,98718,1,0
192,96,98825,1,2
240,80,99039,1,0
240,80,99254,1,2
240,80,99468,1,0
240,80,99575,1,0
240,80,99682,1,2
160,136,99896,1,2
160,136,100111,1,0
184,216,100325,1,0
184,216,100432,1,2
184,216,100539,1,0
184,88,100754,1,2
184,88,100861,1,0
184,88,100968,1,2
312,216,101182,1,0
312,216,101396,1,2
312,216,101611,1,2
312,216,101825,1,0
312,216,102039,1,2
312,216,102146,1,0
312,216,102254,1,2
312,216,102468,1,0
312,216,102575,1,2
312,216,102682,1,0
312,216,102896,1,0
312,216,103004,1,0
312,216,103111,5,2
184,56,103325,1,2
184,56,103539,1,0
184,56,103754,1,2
184,56,103861,1,0
184,56,103968,1,2
192,168,104182,1,0
192,168,104396,1,2
208,112,104611,1,0
208,112,104718,1,0
208,112,104825,1,2
192,168,105039,1,2
128,96,105254,1,0
104,168,105468,1,2
104,168,105575,1,0
104,168,105682,1,2
104,168,105896,1,0
104,168,106004,1,2
104,168,106111,1,0
128,96,106325,1,0
128,96,106539,1,2
224,136,106754,1,0
224,136,106968,1,0
224,136,107182,1,0
224,136,107289,1,2
224,136,107396,1,0
224,136,107611,1,2
224,136,107825,1,2
224,136,108039,1,0
224,136,108146,1,0
224,136,108254,1,2
128,64,108468,1,2
128,64,108682,1,6
128,64,109111,1,6
128,64,109539,1,6
224,136,109968,5,0
296,192,110182,1,2
296,192,110396,1,0
296,192,110504,1,2
296,192,110611,1,0
296,192,110825,1,2
296,192,111039,1,2
296,192,111254,1,0
296,192,111361,1,2
200,112,111468,1,0
200,112,111575,1,2
224,136,111682,1,0
296,192,111896,1,2
296,192,112110,1,0
160,160,112218,1,2
160,160,112325,1,0
296,192,112539,1,2
160,160,112646,1,0
160,160,112754,1,2
296,192,112968,1,0
296,192,113075,1,2
160,56,113289,1,2
160,56,113396,1,0
176,80,113611,1,2
176,112,113718,1,0
176,112,113825,1,2
176,112,114039,1,0
176,112,114146,1,2
176,112,114254,1,0
256,112,114468,1,2
176,112,114682,1,0
176,112,114896,1,2
272,112,115111,1,0
192,88,115218,1,2
192,88,115325,1,0
272,112,115539,1,2
192,88,115646,1,0
192,88,115754,1,2
272,112,115968,1,0
200,48,116075,1,2
200,48,116182,1,0
272,112,116396,1,2
200,48,116504,1,0
200,48,116718,1,0
200,48,116825,5,2
248,240,117039,1,0
248,240,117254,1,2
216,104,117361,1,0
248,240,117468,1,0
216,104,117575,1,2
248,240,117682,1,2
216,104,117896,1,0
176,128,118111,1,2
176,128,118218,1,0
176,128,118432,1,0
176,128,118539,1,2
216,104,118754,1,0
176,128,118968,1,2
216,104,119075,1,0
216,104,119182,1,2
216,104,119396,1,0
216,104,119504,1,2
216,104,119611,1,0
192,48,119825,1,2
192,48,119932,1,0
192,48,120039,1,0
192,48,120146,1,2
192,48,120254,1,2
192,48,120468,1,0
192,48,120575,1,0
192,48,120682,1,2
144,112,120896,1,0
144,112,121004,1,0
144,112,121111,1,2
144,112,121325,1,0
144,112,121432,1,0
144,112,121539,1,2
144,112,121754,1,0
256,192,121968,12,0,123468
168,136,123682,5,0
208,224,124325,1,0
272,112,124968,1,0
208,96,125396,1,0
176,128,126468,1,0
176,128,126682,1,0
176,128,126896,1,0
176,128,127111,1,0
208,176,127754,1,0
208,176,128396,1,0
208,176,128825,1,0
208,176,129896,1,0
208,176,130111,1,0
208,176,130325,1,0
208,176,130539,1,0
224,64,131182,1,0
224,64,131825,1,0
224,64,132254,1,0
160,176,133325,1,0
160,176,133539,1,0
160,176,133754,1,0
160,176,133968,1,0
256,136,134182,1,0
256,136,134396,1,0
192,64,135682,1,0
192,64,136111,1,0
192,64,136539,1,0
192,64,136968,1,0
264,208,137396,5,0
272,160,138039,1,0
272,160,138682,1,0
240,152,139111,1,0
240,152,139325,1,2
240,152,139754,1,2
240,152,140182,1,2
264,80,140396,1,0
264,80,140611,1,2
200,88,140825,1,0
200,88,141254,1,0
200,88,141468,1,2
200,88,141896,1,2
200,88,142111,1,0
200,88,142325,1,2
200,88,142539,1,0
200,128,142754,1,2
144,184,143182,1,2
216,168,143611,1,2
216,168,143825,1,0
216,168,144039,1,2
200,64,144254,1,0
200,64,144682,1,0
216,144,144896,1,2
208,104,145004,1,0
208,104,145218,1,2
208,104,145325,1,0
208,104,145539,1,2
176,120,145754,1,0
144,160,145968,1,2
144,160,146182,1,0
144,224,146611,1,0
144,224,146718,1,2
144,224,146932,1,0
144,224,147039,1,2
144,224,147254,1,2
168,64,147468,1,0
232,144,147575,1,2
192,32,147682,1,0
192,32,147896,1,2
192,32,148111,1,2
192,32,148325,1,0
192,32,148432,1,2
192,32,148646,1,0
192,32,148754,1,2
192,168,148968,1,2
192,168,149182,1,0
192,168,149289,1,2
192,168,149396,1,0
192,88,149611,1,2
192,88,150039,1,2
192,88,150146,1,0
192,88,150361,1,2
192,88,150468,1,0
192,88,150682,1,2
192,88,150896,1,0
136,152,151111,1,2
280,208,151325,1,0
280,208,151539,1,0
208,192,151754,1,2
208,192,151861,1,0
208,192,151968,1,0
208,192,152075,1,2
208,192,152182,1,0
192,88,152396,1,2
192,88,152611,1,0
144,40,152825,1,2
136,120,153039,1,0
136,120,153146,1,2
136,120,153254,1,0
344,136,153468,1,2
344,136,153575,1,0
344,136,153789,1,2
344,136,153896,1,0
344,136,154111,1,2
344,136,154325,1,2
344,136,154539,1,0
200,72,154754,1,0
200,72,154968,1,2
200,72,155182,1,0
200,72,155289,1,2
200,72,155396,1,0
200,72,155504,1,0
200,72,155611,1,2
200,72,155825,1,2
200,72,156039,1,0
200,72,156146,1,2
200,72,156254,1,0
136,136,156468,1,2
168,168,156896,1,2
304,208,157004,1,2
168,168,157111,1,2
280,88,157325,1,2
280,88,157539,1,2
280,88,157968,1,2
280,88,158182,1,2
272,112,158825,1,2
272,112,159039,1,2
272,112,159682,1,2
272,112,159896,1,2
272,112,160539,1,2
272,112,160754,1,2
176,80,161396,1,2
184,32,161611,1,2
192,56,162254,1,2
160,136,162468,1,2
264,192,163111,1,2
264,192,163325,1,2
256,192,163539,12,0,164611
136,72,164825,5,0
192,120,165039,1,0
192,120,165682,1,0
192,120,165896,1,0
192,120,166539,1,0
192,120,166754,1,0
248,168,167396,1,0
248,168,167611,1,0
168,112,167825,1,0
344,232,168039,1,0
232,112,168254,1,4
232,112,168468,1,4
152,120,169111,1,0
152,120,169325,1,0
152,120,169539,1,0
344,232,169754,1,0
152,120,169968,1,4
152,120,170182,1,4
200,64,170825,1,0
200,64,171039,1,0
200,64,171254,1,0
200,64,171468,1,0
200,64,171682,1,4
200,64,171896,1,4
312,312,172325,1,0
312,312,172432,1,0
224,184,172539,1,0
224,184,172754,1,0
224,184,172968,1,0
224,184,173182,1,0
224,184,173396,1,4
224,184,173611,1,4
312,312,174039,1,0
312,312,174146,1,0
224,184,174254,1,0
224,184,174468,1,0
224,184,174682,1,0
224,184,174896,1,0
224,184,175111,1,4
224,184,175325,1,4
248,88,175754,1,0
248,88,175861,1,0
248,88,175968,1,0
232,144,176182,1,0
232,144,176396,1,0
232,144,176611,1,0
232,144,176825,1,4
232,144,177039,1,4
192,40,177468,1,0
192,40,177575,1,0
192,40,177682,1,0
192,40,177896,1,0
192,40,178111,1,0
192,40,178325,1,0
192,40,178539,1,4
192,40,178754,1,4
152,192,178968,1,6
224,112,179182,1,0
224,112,179289,1,0
224,112,179396,1,0
248,48,179611,1,0
248,48,179825,1,6
248,48,180039,1,0
248,48,180146,1,0
248,48,180254,1,0
168,72,180468,1,0
176,160,180682,1,6
176,160,180896,1,0
176,160,181004,1,0
176,160,181111,1,0
176,160,181325,1,0
176,160,181539,1,6
288,176,181754,1,0
288,176,181861,1,0
248,48,181968,1,0
168,72,182182,1,0
176,160,182396,1,6
176,160,182611,1,0
176,160,182718,1,0
176,160,182825,1,0
176,160,183039,1,4
176,160,183253,1,6
288,176,183468,1,0
288,176,183575,1,0
248,48,183682,1,0
168,72,183896,1,0
176,160,184110,1,6
176,160,184325,1,0
176,160,184432,1,0
176,160,184539,1,0
176,160,184753,1,4
176,160,184967,1,6
288,176,185182,1,0
320,96,185289,1,0
248,48,185396,1,0
168,72,185610,1,0
176,160,185824,1,2
176,160,185931,1,0
176,160,186038,1,2
176,160,186146,1,0
176,160,186253,1,0
176,160,186467,1,4
176,160,186681,1,6
288,176,186896,1,0
288,176,187003,1,0
248,48,187111,1,0
168,72,187325,1,0
176,160,187539,1,2
176,160,187646,1,0
176,160,187753,1,2
176,160,187861,1,0
176,160,187968,1,0
176,160,188182,1,4
176,160,188396,1,6
288,176,188611,1,0
288,176,188718,1,0
248,48,188825,1,0
168,72,189039,1,0
176,160,189253,1,2
176,160,189360,1,0
176,160,189467,1,2
176,160,189575,1,0
176,160,189682,1,0
176,160,189896,1,4
176,160,190110,1,6
288,176,190325,1,0
288,176,190432,1,0
288,176,190539,1,0
208,64,190754,1,0
208,64,190968,1,2
208,64,191075,1,0
208,64,191182,1,2
208,64,191289,1,0
208,64,191396,1,2
208,64,191504,1,0
208,64,191611,1,2
208,64,191718,1,2
208,64,191825,1,2
160,88,192039,1,0
160,88,192111,1,0
192,160,192182,1,0
192,160,192254,5,0
216,200,192468,1,2
272,216,192682,1,0
264,64,192789,1,0
272,216,193004,1,2
272,216,193111,1,0
208,24,193325,1,2
240,248,193432,1,0
208,24,193539,1,0
208,24,193646,1,2
208,24,193754,1,2
192,160,193968,1,0
216,200,194182,1,2
272,216,194396,1,0
264,64,194503,1,0
272,216,194718,1,2
272,216,194825,1,0
208,24,195039,1,2
240,248,195146,1,0
208,24,195253,1,0
208,24,195360,1,2
208,24,195468,1,2
192,160,195682,1,0
216,200,195896,1,2
272,216,196110,1,0
264,64,196217,1,0
272,216,196432,1,2
272,216,196539,1,0
208,24,196753,1,2
240,248,196860,1,0
208,24,196967,1,0
208,24,197074,1,2
208,24,197182,1,2
120,144,197396,1,0
160,240,197611,1,2
160,240,197718,1,2
160,240,197825,1,0
160,240,197932,1,0
160,240,198146,1,2
160,240,198254,1,0
248,208,198468,1,2
248,208,198682,1,0
248,208,198789,1,2
248,208,198896,1,0
248,208,199004,1,2
248,208,199111,5,0
248,96,199325,1,2
208,112,199539,1,0
208,112,199646,1,2
208,112,199754,1,0
208,112,199861,1,2
208,112,199968,1,0
192,168,200182,1,2
192,168,200396,1,0
192,168,200504,1,2
192,168,200611,1,0
192,168,200718,1,2
192,168,200825,1,0
256,152,201039,1,2
256,152,201254,1,0
256,152,201361,1,2
256,152,201468,1,0
256,152,201575,1,2
256,152,201682,1,0
256,152,201896,1,2
256,152,202111,1,0
256,152,202218,1,2
256,152,202325,1,0
256,152,202432,1,2
256,152,202539,1,0
224,88,202754,1,2
224,88,202861,1,0
224,88,202968,1,0
224,88,203075,1,2
224,88,203182,1,0
224,88,203289,1,2
224,88,203396,1,0
224,88,203611,1,0
152,144,203825,1,0
152,144,203896,1,0
152,144,203968,1,0
152,144,204039,1,0
152,144,204111,1,0
152,144,204182,1,0
152,144,204254,1,0
256,192,204468,12,0,205325
128,128,205539,5,0
128,128,205611,1,0
128,128,205682,1,0
128,128,205754,1,0
128,128,205825,1,0
128,128,205896,1,0
128,128,205968,1,0
224,184,206182,1,6
208,112,206396,1,6
208,64,206718,1,0
208,64,206825,1,0
208,64,207039,1,6
208,64,207254,1,6
184,88,207468,1,0
184,88,207575,1,0
208,64,207682,1,0
168,136,207896,1,6
184,88,208111,1,6
224,80,208432,1,0
224,80,208539,1,0
224,80,208754,1,6
224,80,208968,1,6
224,80,209182,1,0
208,56,209289,1,0
208,56,209396,1,0
208,56,209611,1,6
208,56,209825,1,6
208,56,210146,1,0
208,56,210254,1,0
208,56,210468,1,6
208,56,210682,1,6
208,56,210896,1,0
208,56,211004,1,0
208,56,211111,1,0
208,56,211325,1,2
208,56,211539,1,0
208,56,211646,1,2
208,56,211861,1,0
208,56,211968,1,2
208,56,212182,1,0
208,56,212396,1,2
208,56,212611,1,2
144,136,212825,5,0
248,216,213039,1,0
248,216,213146,1,0
248,216,213254,1,2
248,216,213575,1,2
248,216,213682,1,0
328,208,213896,1,2
272,96,214111,1,0
272,96,214325,1,2
272,96,214539,1,0
272,96,214754,1,0
272,96,214861,1,0
272,96,214968,1,2
272,96,215289,1,2
272,96,215396,1,0
272,96,215611,1,2
272,96,215825,1,0
272,96,216039,1,2
216,96,216254,1,0
216,96,216468,1,0
216,96,216575,1,0
216,96,216682,1,2
216,96,217004,1,2
216,96,217111,1,0
216,96,217325,1,2
216,96,217539,1,0
216,96,217754,1,2
176,144,217861,1,2
176,144,217968,1,0
176,216,218182,1,2
176,216,218289,1,0
176,216,218396,1,2
256,176,218611,1,0
256,176,218718,1,2
256,176,218825,1,0
304,240,219039,1,2
160,120,219254,1,0
160,120,219468,1,2
184,32,219682,5,0
184,32,219896,1,2
184,32,220004,1,0
184,32,220111,1,0
216,88,220325,1,2
264,80,220432,1,0
264,80,220539,1,2
216,168,220754,1,0
216,168,220968,1,2
216,168,221075,1,0
216,168,221182,1,0
152,48,221396,1,0
184,160,221611,1,2
184,160,221718,1,0
184,160,221825,1,2
184,160,221932,1,2
184,160,222039,1,0
184,160,222254,1,6
256,72,222682,1,6
216,80,222896,1,4
216,80,223111,1,4
280,160,223325,1,0
280,160,223432,1,2
280,160,223539,1,0
160,56,223646,1,0
160,56,223754,1,2
184,200,223968,1,2
176,80,224182,1,0
256,136,224289,1,0
176,80,224396,1,2
200,24,224611,1,2
200,24,224718,1,0
200,24,224825,1,0
112,152,225039,1,2
112,152,225146,1,0
112,152,225254,1,2
272,160,225468,1,0
208,64,225575,1,2
208,64,225682,1,0
272,160,225896,1,2
272,160,226111,1,0
360,264,226325,1,2
272,160,226539,1,6
272,160,226968,1,6
152,48,227182,1,0
152,48,227289,1,2
152,48,227396,1,0
192,112,227611,1,2
192,112,227718,1,0
192,112,227825,1,2
184,136,228039,1,0
184,32,228254,5,2
184,32,228361,1,2
184,32,228468,1,0
184,32,228683,1,0
216,88,228897,1,2
264,80,229004,1,2
264,80,229111,1,0
216,168,229326,1,2
216,168,229540,1,2
216,168,229647,1,0
216,168,229754,1,2
152,48,229968,1,0
184,160,230183,1,2
184,160,230290,1,0
184,160,230397,1,2
184,160,230504,1,2
184,160,230611,1,0
184,160,230826,1,6
256,72,231254,1,6
216,80,231468,1,6
96,96,231682,1,4
176,32,231896,1,4
184,56,232111,1,2
184,56,232218,1,0
184,56,232325,1,2
184,56,232539,1,0
184,56,232646,1,2
184,56,232754,1,0
176,104,232968,1,2
176,104,233075,1,0
176,104,233182,1,2
184,32,233396,5,2
184,32,233504,1,2
184,32,233611,1,0
184,32,233825,1,0
216,88,234039,1,2
264,80,234146,1,2
264,80,234253,1,0
216,168,234468,1,0
216,168,234682,1,2
216,168,234789,1,2
216,168,234896,1,0
152,48,235110,1,0
184,160,235325,1,2
184,160,235432,1,0
184,160,235539,1,2
184,160,235646,1,2
184,160,235753,1,0
184,160,235968,1,6
256,72,236396,1,6
216,80,236610,1,6
216,80,236825,1,4
280,160,237039,1,0
280,160,237146,1,0
280,160,237253,1,2
160,56,237360,1,2
160,56,237468,1,0
184,200,237682,1,2
176,80,237789,1,2
256,136,237896,1,0
176,80,238110,1,0
200,24,238325,1,2
200,24,238432,1,2
200,24,238539,1,0
112,152,238646,1,2
112,152,238754,1,0
112,152,238968,1,2
272,160,239075,1,2
208,64,239182,1,0
208,64,239396,1,0
272,160,239610,1,2
392,208,239718,1,0
272,160,239825,1,0
392,208,239932,1,2
176,112,240039,1,0
272,160,240253,1,4
176,112,240468,1,4
272,160,240682,1,2
208,64,240789,1,2
152,48,240896,1,0
152,48,241003,1,2
152,48,241110,1,0
192,112,241325,1,2
192,112,241432,1,2
192,112,241539,1,0
184,136,241753,1,0
184,32,241968,5,2
184,32,242075,1,2
184,32,242182,1,0
184,32,242397,1,0
216,88,242611,1,2
264,80,242718,1,2
264,80,242825,1,0
216,168,243040,1,0
216,168,243254,1,2
216,168,243361,1,2
216,168,243468,1,0
152,48,243682,1,4
184,160,243897,1,2
184,160,244004,1,2
184,160,244111,1,0
184,160,244325,1,0
184,160,244540,1,2
272,96,244646,1,2
208,96,244754,1,0
272,96,244968,1,4
272,96,245182,1,4
264,240,245396,5,2
264,240,245504,1,2
264,240,245611,1,0
264,240,245825,1,2
264,240,245932,1,2
264,240,246039,1,0
264,240,246254,1,4
224,80,246468,1,4
224,80,246682,1,4
224,80,246896,1,4
168,32,247111,5,4
