osu file format v12

[General]
AudioFilename: resurrectedreplayer.mp3
AudioLeadIn: 0
PreviewTime: 68825
Countdown: 0
SampleSet: Soft
StackLeniency: 0.4
Mode: 0
LetterboxInBreaks: 1
WidescreenStoryboard: 0

[Editor]
Bookmarks: 76841
DistanceSpacing: 1.5
BeatDivisor: 4
GridSize: 8

[Metadata]
Title:resurrectedreplayer
TitleUnicode:
Artist:07th Expansion
ArtistUnicode:
Creator:Aakiha
Version:Insane
Source:umineko chiru
Tags:erika ep6 zts Alace
BeatmapID:107093
BeatmapSetID:32791

[Difficulty]
HPDrainRate:6
CircleSize:4
OverallDifficulty:7
ApproachRate:8
SliderMultiplier:1.7
SliderTickRate:1

[Events]
//Background and Video events
0,0,"erika1.jpg",0,0
//Break Periods
2,158168,164075
2,165025,169968
2,206167,211861
//Storyboard Layer 0 (Background)
//Storyboard Layer 1 (Fail)
//Storyboard Layer 2 (Pass)
//Storyboard Layer 3 (Foreground)
//Storyboard Sound Samples
//Background Colour Transformations
3,100,163,162,255

[TimingPoints]
254,428.571428571429,4,2,1,5,1,0
361,-100,4,1,1,42,0,0
10539,-100,4,2,1,5,0,0
13861,-100,4,2,1,65,0,0
52111,-100,4,2,1,5,0,0
54452,-133.333333333333,4,2,1,5,0,0
55004,-100,4,2,1,65,0,0
120146,-80,4,2,1,65,0,0
123682,-133.333333333333,4,2,1,79,0,0
146504,-133.333333333333,4,2,1,66,0,0
150575,-133.333333333333,4,2,1,55,0,0
155718,-133.333333333333,4,2,1,45,0,0
156361,-133.333333333333,4,2,1,35,0,0
164718,-100,4,1,1,50,0,0
178111,-100,4,1,1,60,0,0
190861,-80,4,1,1,50,0,0
191718,-100,4,1,1,65,0,0
204682,-80,4,1,1,65,0,0
205754,-100,4,1,1,50,0,0
212396,-100,4,1,1,55,0,0
219361,-100,4,1,1,65,0,0
232325,-100,4,1,1,71,0,0
232754,-100,4,1,1,80,0,0
233611,-80,4,1,1,75,0,0
243789,-133.333333333333,4,1,1,50,0,0
245396,-100,4,1,1,50,0,0
245825,-100,4,2,1,70,0,0
246254,-80,4,1,1,80,0,0
247218,-100,4,2,1,5,0,0

[Colours]
Combo1 : 213,213,0
Combo2 : 255,0,0
Combo3 : 5,5,240

[HitObjects]
256,192,7111,5,0,0:0:0:0:
256,192,7218,12,0,10539,0:0:0:0:
440,80,13968,5,8,0:0:0:0:
440,80,14182,2,0,B|432:131|448:168,1,85,0|2,0:0|0:0,0:0:0:0:
464,272,14611,1,0,0:0:0:0:
448,280,14718,1,0,0:0:0:0:
432,288,14825,1,0,0:0:0:0:
416,296,14932,1,0,0:0:0:0:
400,304,15039,1,0,0:0:0:0:
288,320,15253,1,2,0:0:0:0:
184,272,15468,6,0,B|152:328,1,42.5
136,312,15682,2,0,B|80:320|40:296,2,85,0|0|2,0:0|0:0|0:0,0:0:0:0:
96,208,16325,1,0,0:0:0:0:
96,208,16432,1,0,0:0:0:0:
64,104,16646,1,0,0:0:0:0:
64,104,16753,2,0,B|104:96|152:32,1,85,0|2,0:0|0:0,0:0:0:0:
384,112,20825,5,8,0:0:0:0:
384,112,21039,2,0,B|280:112,1,85,0|2,0:0|0:0,0:0:0:0:
216,40,21468,1,0,0:0:0:0:
200,56,21575,1,0,0:0:0:0:
184,72,21682,1,0,0:0:0:0:
168,88,21789,1,0,0:0:0:0:
152,104,21896,2,0,B|112:144|64:144,1,85,0|2,0:0|0:0,0:0:0:0:
32,248,22325,5,0,0:0:0:0:
40,264,22432,1,0,0:0:0:0:
48,280,22539,2,0,B|88:344|80:376,2,85,0|0|2,0:0|0:0|0:0,0:0:0:0:
160,280,23182,1,0,0:0:0:0:
160,280,23289,2,0,B|216:320|272:304,1,85
238,308,23611,1,0,0:0:0:0:
352,312,23825,1,2,0:0:0:0:
440,192,27254,6,0,B|424:216,8,21.25,0|0|0|0|0|0|0|0|8,0:0|0:0|0:0|0:0|0:0|0:0|0:0|0:0|0:0,0:0:0:0:
368,344,28111,1,8,0:0:0:0:
240,344,28432,1,2,0:0:0:0:
200,344,28539,2,0,B|160:368,2,42.5,8|0|0,0:0|0:0|0:0,0:0:0:0:
136,280,28968,2,0,B|104:224|40:184,1,127.5,8|2,0:0|0:0,0:0:0:0:
8,216,29396,2,0,B|56:176|72:128,1,85,8|2,0:0|0:0,0:0:0:0:
80,48,29825,1,8,0:0:0:0:
80,48,29932,2,0,B|168:64,1,85,0|2,0:0|0:0,0:0:0:0:
200,72,30254,2,0,B|256:80,2,42.5,8|0|0,0:0|0:0|0:0,0:0:0:0:
272,144,30682,1,8,0:0:0:0:
416,88,31004,5,2,0:0:0:0:
416,88,31111,2,8,B|344:128|368:216|464:224,1,170
496,352,31861,1,2,0:0:0:0:
456,328,31968,2,0,B|480:288,2,42.5,8|0|0,0:0|0:0|0:0,0:0:0:0:
352,344,32396,1,8,0:0:0:0:
256,304,32611,1,2,0:0:0:0:
256,304,32718,1,2,0:0:0:0:
256,304,32825,2,0,B|152:336,1,85,8|0,0:0|0:0,0:0:0:0:
72,352,33254,1,8,0:0:0:0:
72,352,33361,2,0,B|80:312|64:264,1,85,2|0,0:0|0:0,0:0:0:0:
32,232,33682,2,0,B|0:200,2,42.5,8|0|0,0:0|0:0|0:0,0:0:0:0:
80,144,34111,1,8,0:0:0:0:
56,48,34325,5,2,0:0:0:0:
56,48,34432,1,2,0:0:0:0:
56,48,34539,2,8,B|120:48|120:48|136:72|136:72|224:72,1,170
360,40,35289,1,2,0:0:0:0:
352,56,35396,1,8,0:0:0:0:
344,72,35504,1,0,0:0:0:0:
336,88,35611,1,0,0:0:0:0:
296,184,35825,2,0,B|280:224|280:224|280:272,1,85,8|0,0:0|0:0,0:0:0:0:
280,265,36146,1,2,0:0:0:0:
280,265,36254,1,8,0:0:0:0:
392,272,36468,1,0,0:0:0:0:
392,272,36682,2,0,B|352:216,1,42.5,8|2,0:0|0:0,0:0:0:0:
200,176,37004,1,2,0:0:0:0:
200,176,37111,2,0,B|168:136,2,42.5,8|0|0,0:0|0:0|0:0,0:0:0:0:
200,280,37539,2,0,B|176:320|128:336|72:312,1,127.5,8|2,0:0|0:0,0:0:0:0:
104,376,37968,6,8,B|47:201,1,170
200,176,38718,1,2,0:0:0:0:
216,160,38825,1,8,0:0:0:0:
232,144,38932,1,0,0:0:0:0:
248,128,39039,1,0,0:0:0:0:
344,104,39254,2,0,B|344:64|344:64|288:32,1,85,8|0,0:0|0:0,0:0:0:0:
312,176,39682,5,8,0:0:0:0:
328,184,39789,1,8,0:0:0:0:
344,192,39896,1,8,0:0:0:0:
360,200,40004,1,8,0:0:0:0:
376,208,40111,1,8,0:0:0:0:
392,216,40218,1,8,0:0:0:0:
408,224,40325,1,8,0:0:0:0:
424,232,40432,1,8,0:0:0:0:
440,240,40539,1,8,0:0:0:0:
456,248,40646,1,8,0:0:0:0:
472,256,40754,1,8,0:0:0:0:
488,264,40861,1,8,0:0:0:0:
504,272,40968,2,8,B|504:296,8,21.25
464,384,41611,5,2,0:0:0:0:
328,328,41825,1,8,0:0:0:0:
328,328,41932,2,0,B|424:328,1,85,2|2,0:0|0:0,0:0:0:0:
400,272,42254,2,0,B|360:224|384:168,1,85,8|2,0:0|0:0,0:0:0:0:
400,56,42682,1,8,0:0:0:0:
400,56,42789,2,0,B|376:96|320:112,1,85,2|2,0:0|0:0,0:0:0:0:
296,144,43111,6,0,B|192:144,1,85,8|2,0:0|0:0,0:0:0:0:
80,160,43539,1,8,0:0:0:0:
80,160,43646,2,0,B|136:184|128:240,1,85,2|2,0:0|0:0,0:0:0:0:
176,256,43968,2,0,B|176:352,2,85,8|2|8,0:0|0:0|0:0,0:0:0:0:
176,256,44503,1,2,0:0:0:0:
72,288,44718,5,2,0:0:0:0:
72,288,44825,2,0,B|72:384,1,85,8|2,0:0|0:0,0:0:0:0:
176,344,45253,1,8,0:0:0:0:
176,344,45361,2,0,B|272:344,1,85,2|2,0:0|0:0,0:0:0:0:
304,312,45682,2,0,B|352:312|376:352,2,85,8|2|8,0:0|0:0|0:0,0:0:0:0:
256,288,46218,2,0,B|216:184,1,85,2|2,0:0|0:0,0:0:0:0:
208,152,46539,5,8,0:0:0:0:
81,37,46753,2,0,B|104:120,1,85,2|8,0:0|0:0,0:0:0:0:
104,120,47075,1,2,0:0:0:0:
200,64,47289,1,2,0:0:0:0:
200,64,47396,2,0,B|285:64,1,85,8|2,0:0|0:0,0:0:0:0:
352,144,47825,1,8,0:0:0:0:
360,160,47932,1,0,0:0:0:0:
368,176,48039,5,2,0:0:0:0:
384,288,48253,1,8,0:0:0:0:
496,280,48468,1,2,0:0:0:0:
424,360,48682,1,8,0:0:0:0:
424,360,48789,2,2,B|376:384|376:384|312:384,1,85,0|2,0:0|0:0,0:0:0:0:
296,360,49111,6,0,B|256:328|256:328|184:328,1,85,8|2,0:0|0:0,0:0:0:0:
120,360,49539,1,8,0:0:0:0:
104,344,49646,1,0,0:0:0:0:
96,328,49754,1,2,0:0:0:0:
96,304,49861,1,2,0:0:0:0:
96,280,49968,2,0,B|96:232|96:232|56:192|56:192,1,85,8|2,0:0|0:0,0:0:0:0:
48,88,50396,1,8,0:0:0:0:
48,88,50503,2,0,B|120:144,1,85,2|2,0:0|0:0,0:0:0:0:
168,136,50825,6,0,B|200:96|272:120,1,85,8|2,0:0|0:0,0:0:0:0:
352,136,51254,2,0,B|376:88,3,42.5,8|2|0|2,0:0|0:0|0:0|0:0,0:0:0:0:
296,144,51682,6,8,B|224:224|304:320,1,170,12|0,0:0|0:0,0:0:0:0:
440,48,54682,6,0,B|418:74|418:74|429:90|429:90|432:128,1,63.749998100102
448,168,55111,6,0,B|352:224,1,85,8|2,0:0|0:0,0:0:0:0:
216,360,55539,2,0,B|232:248,1,85,8|2,0:0|0:0,0:0:0:0:
104,72,55968,2,0,B|192:136,1,85,8|2,0:0|0:0,0:0:0:0:
488,176,56396,1,8,0:0:0:0:
488,176,56503,2,0,B|400:240,1,85,10|2,0:0|0:0,0:0:0:0:
376,288,56825,6,0,B|304:192,1,85,8|2,0:0|0:0,0:0:0:0:
56,208,57253,2,0,B|152:200,1,85,8|2,0:0|0:0,0:0:0:0:
424,24,57682,2,0,B|344:88,1,85,8|0,0:0|0:0,0:0:0:0:
192,336,58111,1,8,0:0:0:0:
192,336,58218,2,8,B|240:232,1,85,10|2,0:0|0:0,0:0:0:0:
256,192,58539,5,12,0:0:0:0:
320,32,58754,2,2,B|336:-8,2,42.5,10|10|10,0:0|0:0|0:0,0:0:0:0:
248,24,59075,2,2,B|208:112,1,85
176,168,59396,1,8,0:0:0:0:
192,352,59611,2,2,B|170:400,2,42.5,10|10|10,0:0|0:0|0:0,0:0:0:0:
264,360,59932,2,0,B|304:272,1,85,2|2,0:0|0:0,0:0:0:0:
336,216,60253,5,8,0:0:0:0:
447,40,60468,1,10,0:0:0:0:
447,40,60682,1,10,0:0:0:0:
447,40,60789,2,2,B|352:104,1,85
312,128,61111,1,8,0:0:0:0:
144,136,61325,1,10,0:0:0:0:
144,136,61432,1,10,0:0:0:0:
144,136,61539,1,10,0:0:0:0:
144,136,61646,2,2,B|232:208,1,85
272,232,61968,6,0,B|304:256|304:256|344:232,1,85,8|2,0:0|0:0,0:0:0:0:
304,88,62396,1,8,0:0:0:0:
304,88,62504,1,2,0:0:0:0:
168,152,62718,1,0,0:0:0:0:
168,152,62825,1,8,0:0:0:0:
272,264,63039,2,2,B|232:232,3,42.5,2|2|10|2,0:0|0:0|0:0|0:0,0:0:0:0:
304,296,63468,6,2,B|376:352|376:352|472:352,1,170
280,368,64111,2,10,B|224:328|224:328|112:328,1,170,2|0,0:0|0:0,0:0:0:0:
122,328,64754,1,2,0:0:0:0:
64,32,65182,1,0,0:0:0:0:
64,32,65396,2,0,B|96:96|96:96|224:96,1,170,8|0,0:0|0:0,0:0:0:0:
256,192,65932,12,6,67111,0:0:0:0:
264,80,68396,6,0,B|288:120,1,42.5
264,176,68611,2,0,B|256:216,1,42.5
192,232,68825,2,0,B|128:288|48:256,1,127.5,12|2,0:0|0:0,0:0:0:0:
64,200,69253,2,0,B|40:120,1,85,8|0,0:0|0:0,0:0:0:0:
152,56,69682,2,8,B|240:96|344:40,1,170
464,48,70325,5,8,0:0:0:0:
448,64,70432,1,2,0:0:0:0:
432,80,70539,2,0,B|360:168,1,85,8|0,0:0|0:0,0:0:0:0:
488,208,70968,2,0,B|448:264|472:336,1,127.5,8|2,0:0|0:0,0:0:0:0:
469,329,71396,1,8,0:0:0:0:
360,264,71611,1,10,0:0:0:0:
328,256,71718,1,10,0:0:0:0:
304,248,71825,2,0,B|192:296,1,85,8|2,0:0|0:0,0:0:0:0:
120,216,72253,6,8,B|176:144|144:24,2,170
40,120,73325,1,2,0:0:0:0:
48,136,73432,1,2,0:0:0:0:
56,152,73539,1,8,0:0:0:0:
72,280,73753,1,2,0:0:0:0:
208,256,73968,2,0,B|256:232|296:256,1,85,8|8,0:0|0:0,0:0:0:0:
312,288,74289,1,2,0:0:0:0:
312,288,74396,2,0,B|376:200,1,85,8|8,0:0|0:0,0:0:0:0:
384,184,74718,1,8,0:0:0:0:
384,184,74825,5,8,0:0:0:0:
263,69,75039,1,2,0:0:0:0:
384,184,75254,1,8,0:0:0:0:
415,37,75468,1,8,0:0:0:0:
415,37,75575,1,10,0:0:0:0:
415,37,75682,6,0,B|319:29|271:101,1,127.5,8|2,0:0|0:0,0:0:0:0:
304,136,76111,2,0,B|248:80|161:115,1,127.5,8|2,0:0|0:0,0:0:0:0:
120,120,76539,1,8,0:0:0:0:
32,232,76861,5,2,0:0:0:0:
56,288,76968,2,0,B|16:312,3,42.5,8|8|8|0,0:0|0:0|0:0|0:0,0:0:0:0:
80,336,77396,2,0,B|120:384|208:336,1,127.5,8|2,0:0|0:0,0:0:0:0:
197,341,77825,1,8,0:0:0:0:
200,216,78039,1,2,0:0:0:0:
200,216,78146,1,2,0:0:0:0:
200,216,78253,2,0,B|248:112,1,85,8|0,0:0|0:0,0:0:0:0:
288,112,78575,1,2,0:0:0:0:
288,176,78682,2,0,B|264:232,3,42.5,8|8|0|0,0:0|0:0|0:0|0:0,0:0:0:0:
288,176,79111,6,0,B|240:120|288:48,1,127.5,8|2,0:0|0:0,0:0:0:0:
224,40,79539,2,0,B|304:-24|376:16,1,127.5,8|2,0:0|0:0,0:0:0:0:
280,56,79968,2,0,B|216:88|136:24,1,127.5,8|2,0:0|0:0,0:0:0:0:
96,48,80396,5,8,0:0:0:0:
80,64,80503,1,8,0:0:0:0:
64,80,80611,1,8,0:0:0:0:
48,96,80718,1,2,0:0:0:0:
32,112,80825,1,8,0:0:0:0:
48,240,81039,2,2,B|88:288,1,42.5
24,312,81253,2,8,B|24:360,4,42.5
176,312,81896,2,2,B|192:336,3,28.3333333333333,2|0|2|8,0:0|0:0|0:0|0:0,0:0:0:0:
272,240,82325,5,2,0:0:0:0:
288,248,82432,1,2,0:0:0:0:
304,256,82539,2,0,B|360:288|432:272,1,127.5,8|2,0:0|0:0,0:0:0:0:
440,336,82968,2,0,B|416:256|456:184,1,127.5,8|2,0:0|0:0,0:0:0:0:
384,208,83396,2,0,B|416:152|400:80,1,127.5,8|2,0:0|0:0,0:0:0:0:
464,96,83825,2,0,B|448:40|472:0,2,85,8|8|8,0:0|0:0|0:0,0:0:0:0:
288,16,84575,1,2,0:0:0:0:
288,16,84682,2,0,B|152:16,1,127.5,8|2,0:0|0:0,0:0:0:0:
160,16,85111,1,8,0:0:0:0:
240,120,85325,1,8,0:0:0:0:
240,120,85432,1,8,0:0:0:0:
240,120,85539,2,0,B|160:184,2,85,8|0|8,0:0|0:0|0:0,0:0:0:0:
48,152,86289,5,2,0:0:0:0:
48,152,86396,1,8,0:0:0:0:
224,232,86718,1,2,0:0:0:0:
224,248,86825,1,8,0:0:0:0:
32,280,87146,1,2,0:0:0:0:
32,280,87253,2,8,B|56:328|24:392,2,85
160,296,87896,1,10,0:0:0:0:
160,272,88003,1,10,0:0:0:0:
152,248,88111,2,0,B|139:204|155:164,1,85,8|0,0:0|0:0,0:0:0:0:
288,264,88539,5,8,0:0:0:0:
352,104,88753,1,8,0:0:0:0:
400,264,88968,1,8,0:0:0:0:
264,160,89182,2,2,B|216:160,1,42.5,0|2,0:0|0:0,0:0:0:0:
288,160,89396,6,0,B|440:160,1,127.5,8|2,0:0|0:0,0:0:0:0:
408,96,89825,2,2,B|348:74|312:8,1,127.5,8|2,0:0|0:0,0:0:0:0:
314,12,90254,1,8,0:0:0:0:
416,192,90575,1,2,0:0:0:0:
416,192,90682,2,8,B|448:256,3,42.5
368,240,91111,2,0,B|208:240,1,127.5,8|2,0:0|0:0,0:0:0:0:
240,304,91539,2,8,B|232:216|128:192,1,170
152,320,92182,6,8,B|184:360,2,42.5
32,360,92611,1,2,0:0:0:0:
32,360,92825,2,0,B|56:280|-8:240,1,127.5,8|2,0:0|0:0,0:0:0:0:
40,192,93253,2,0,B|112:80,1,127.5,8|2,0:0|0:0,0:0:0:0:
108,84,93682,1,8,0:0:0:0:
288,24,94003,1,2,0:0:0:0:
288,24,94111,2,0,B|264:72|304:120,1,85,8|8,0:0|0:0,0:0:0:0:
360,216,94539,1,8,0:0:0:0:
272,312,94753,1,8,0:0:0:0:
248,312,94861,1,8,0:0:0:0:
224,312,94968,2,8,B|176:312|144:264,1,85
184,104,95396,5,8,0:0:0:0:
376,16,95611,2,2,B|336:48,2,42.5,2|2|10,0:0|0:0|0:0,0:0:0:0:
368,208,96039,1,10,0:0:0:0:
488,352,96254,6,0,B|528:280|512:208|440:176,1,170,12|8,0:0|0:0,0:0:0:0:
336,64,97003,1,2,0:0:0:0:
344,128,97111,2,0,B|392:120|400:64,1,85,10|2,0:0|0:0,0:0:0:0:
272,56,97539,2,2,B|208:64|216:120,1,85,10|2,0:0|0:0,0:0:0:0:
256,224,97968,6,8,B|216:328|96:312,1,170
112,120,98718,1,2,0:0:0:0:
112,120,98825,2,0,B|134:83|62:59,1,85,8|2,0:0|0:0,0:0:0:0:
136,256,99253,2,0,B|184:256|200:200,1,85,10|0,0:0|0:0,0:0:0:0:
272,104,99682,6,8,B|464:104,1,170
312,328,100539,2,8,B|144:328,1,170
40,80,101289,1,2,0:0:0:0:
40,80,101396,2,8,B|144:256,1,170,8|8,0:0|0:0,0:0:0:0:
192,304,102039,6,8,B|168:360,2,42.5
336,120,102468,1,8,0:0:0:0:
192,120,102682,1,8,0:0:0:0:
344,312,102896,1,8,0:0:0:0:
432,248,103111,6,8,B|512:168|416:64,1,170
312,224,103753,1,0,0:0:0:0:
312,224,103861,1,0,0:0:0:0:
312,224,103968,2,0,B|256:240|258:300,1,85,8|2,0:0|0:0,0:0:0:0:
176,136,104396,2,0,B|112:64,1,85,8|2,0:0|0:0,0:0:0:0:
119,72,104825,1,8,0:0:0:0:
160,272,105253,2,0,B|264:272,1,85,8|2,0:0|0:0,0:0:0:0:
416,168,105682,2,8,B|240:168,1,170
352,96,106325,5,2,0:0:0:0:
368,80,106432,1,2,0:0:0:0:
384,64,106539,2,0,B|416:24|400:-16,1,85,8|2,0:0|0:0,0:0:0:0:
336,256,106968,2,0,B|336:304|400:328,1,85,8|2,0:0|0:0,0:0:0:0:
176,64,107396,2,0,B|136:16|72:24,1,85,8|2,0:0|0:0,0:0:0:0:
160,256,107825,2,0,B|112:280|112:328,1,85,8|2,0:0|0:0,0:0:0:0:
256,176,108253,1,8,0:0:0:0:
256,176,108682,6,8,B|376:55,2,170
384,200,109753,1,10,0:0:0:0:
384,200,109861,1,10,0:0:0:0:
384,200,109968,2,8,B|504:200,1,85,8|2,0:0|0:0,0:0:0:0:
312,288,110396,2,0,B|200:288,1,85,8|2,0:0|0:0,0:0:0:0:
128,240,110825,2,8,B|56:168|144:80,1,170
232,168,111468,5,2,0:0:0:0:
208,168,111575,1,2,0:0:0:0:
184,168,111682,2,8,B|112:96|200:8,1,170
392,168,112539,2,8,B|472:240|384:344,1,170
280,280,113182,5,2,0:0:0:0:
160,248,113396,2,8,B|80:240|56:328,1,127.5,8|2,0:0|0:0,0:0:0:0:
128,312,113825,2,8,B|208:304|200:208,1,127.5,8|2,0:0|0:0,0:0:0:0:
152,184,114253,2,8,B|269:86,1,127.5,8|2,0:0|0:0,0:0:0:0:
250,102,114682,1,8,0:0:0:0:
440,96,115003,1,2,0:0:0:0:
384,64,115111,2,8,B|376:128|456:168,1,127.5,8|2,0:0|0:0,0:0:0:0:
440,96,115539,2,8,B|328:168,1,127.5,8|2,0:0|0:0,0:0:0:0:
376,216,115968,2,8,B|376:144|296:112,1,127.5,8|2,0:0|0:0,0:0:0:0:
307,117,116396,1,8,0:0:0:0:
56,72,116825,6,8,B|40:168|80:256|144:320|240:352|256:288,2,340
312,96,118968,1,8,0:0:0:0:
384,344,119396,1,8,0:0:0:0:
216,152,119825,1,8,0:0:0:0:
472,272,120146,5,8,0:0:0:0:
472,272,120254,1,8,0:0:0:0:
160,232,120575,1,8,0:0:0:0:
160,232,120682,1,8,0:0:0:0:
352,136,120896,1,8,0:0:0:0:
352,136,121003,1,8,0:0:0:0:
352,136,121111,2,8,B|504:56,1,159.374997625127
376,32,121539,2,8,B|264:80|160:8,1,212.499996833503
128,8,122075,5,8,0:0:0:0:
88,32,122182,1,8,0:0:0:0:
56,56,122289,1,8,0:0:0:0:
32,96,122396,1,8,0:0:0:0:
24,136,122503,1,8,0:0:0:0:
32,176,122611,1,8,0:0:0:0:
128,224,122825,1,8,0:0:0:0:
168,224,122932,1,8,0:0:0:0:
264,240,123146,2,8,B|296:288,3,53.1249992083758
264,240,123682,5,2,0:0:0:0:
336,104,124325,1,0,0:0:0:0:
480,56,124968,1,2,0:0:0:0:
480,56,125396,2,0,B|528:128|488:232|432:336|344:312,1,318.74999050051,0|2,0:0|0:0,0:0:0:0:
328,296,126682,5,2,0:0:0:0:
280,296,126896,1,0,0:0:0:0:
240,328,127111,1,2,0:0:0:0:
88,296,127753,1,0,0:0:0:0:
240,328,128396,1,2,0:0:0:0:
184,240,128825,2,0,B|168:120|64:256|-64:128|32:16,1,318.74999050051
64,24,130111,5,2,0:0:0:0:
112,32,130325,1,0,0:0:0:0:
160,56,130539,2,0,B|248:128|352:48,1,191.249994300306,2|0,0:0|0:0,0:0:0:0:
488,64,131825,1,2,0:0:0:0:
464,160,132253,1,2,0:0:0:0:
152,160,133218,5,2,0:0:0:0:
152,160,133325,1,0,0:0:0:0:
130,95,133539,1,2,0:0:0:0:
202,103,133753,1,0,0:0:0:0:
226,167,133968,1,0,0:0:0:0:
178,223,134182,1,0,0:0:0:0:
106,215,134396,1,0,0:0:0:0:
80,152,134611,5,2,0:0:0:0:
264,248,135253,1,2,0:0:0:0:
448,352,135896,1,2,0:0:0:0:
424,288,136111,5,0,0:0:0:0:
392,192,136539,1,0,0:0:0:0:
432,96,136968,1,0,0:0:0:0:
360,24,137396,1,2,0:0:0:0:
312,48,137611,1,0,0:0:0:0:
224,96,138039,1,0,0:0:0:0:
72,88,138682,1,0,0:0:0:0:
32,184,139111,1,2,0:0:0:0:
48,232,139325,1,0,0:0:0:0:
168,232,139753,2,0,B|296:232,1,127.499996200204,2|0,0:0|0:0,0:0:0:0:
368,232,140396,5,0,0:0:0:0:
432,264,140611,1,0,0:0:0:0:
432,192,140825,2,0,B|480:184|512:224|520:264|496:288,1,127.499996200204,2|0,0:0|0:0,0:0:0:0:
472,336,141468,1,2,0:0:0:0:
336,344,141896,1,0,0:0:0:0:
272,312,142111,2,0,B|200:288|136:304,1,127.499996200204
77,312,142753,1,2,0:0:0:0:
80,176,143182,6,0,B|104:40,1,127.499996200204
176,48,143825,1,0,0:0:0:0:
168,120,144039,1,0,0:0:0:0:
152,192,144253,1,2,0:0:0:0:
152,192,144682,1,0,0:0:0:0:
144,264,144896,2,0,B|216:368|328:304,1,191.249994300306,0|2,0:0|0:0,0:0:0:0:
400,208,145968,1,0,0:0:0:0:
336,184,146182,2,0,B|256:176|224:112,1,127.499996200204,0|2,0:0|0:0,0:0:0:0:
229,122,147039,5,0,0:0:0:0:
176,72,147254,2,0,B|136:72|96:112,1,63.749998100102
176,72,147682,1,0,0:0:0:0:
240,56,147896,1,0,0:0:0:0:
296,16,148111,1,0,0:0:0:0:
360,48,148325,5,2,0:0:0:0:
456,232,148968,1,0,0:0:0:0:
296,368,149611,1,0,0:0:0:0:
248,248,150039,2,0,B|192:200|120:216,1,127.499996200204
88,272,150682,5,0,0:0:0:0:
56,208,150896,1,0,0:0:0:0:
96,152,151111,1,2,0:0:0:0:
304,168,151754,2,0,B|360:192|432:168,1,127.499996200204
480,120,152396,1,0,0:0:0:0:
416,248,152825,1,0,0:0:0:0:
240,128,153468,1,0,0:0:0:0:
120,64,153896,5,0,0:0:0:0:
88,128,154111,1,0,0:0:0:0:
120,192,154325,1,0,0:0:0:0:
192,192,154539,1,0,0:0:0:0:
224,128,154754,1,0,0:0:0:0:
192,64,154968,1,0,0:0:0:0:
160,128,155182,5,2,0:0:0:0:
248,320,155825,1,2,0:0:0:0:
384,160,156468,1,2,0:0:0:0:
176,192,157111,5,0,0:0:0:0:
296,272,157539,1,0,0:0:0:0:
320,136,157968,1,4,0:0:0:0:
256,192,164825,5,0,0:0:0:0:
256,184,170718,5,0,0:0:0:0:
256,184,170825,2,0,B|368:184,1,85
432,272,171254,2,0,B|328:272,1,85
232,328,171682,1,0,0:0:0:0:
232,328,171896,1,0,0:0:0:0:
232,328,172432,5,0,0:0:0:0:
232,328,172539,2,0,B|128:328,1,85
64,232,172968,2,0,B|168:232,1,85
200,112,173396,1,0,0:0:0:0:
200,112,173611,1,0,0:0:0:0:
200,112,174146,5,0,0:0:0:0:
200,112,174254,1,0,0:0:0:0:
320,80,174468,2,0,B|336:32|408:32,2,85
304,208,175111,1,0,0:0:0:0:
408,280,175325,1,0,0:0:0:0:
408,280,175861,5,0,0:0:0:0:
408,280,175968,1,0,0:0:0:0:
280,304,176182,2,0,B|240:336|248:384,2,85
328,184,176825,1,0,0:0:0:0:
224,112,177039,1,0,0:0:0:0:
224,112,177575,5,0,0:0:0:0:
224,112,177682,1,0,0:0:0:0:
112,48,177896,1,0,0:0:0:0:
96,64,178004,1,0,0:0:0:0:
80,80,178111,2,0,B|40:128|40:128|40:176,1,85
40,168,178432,1,0,0:0:0:0:
40,184,178539,1,0,0:0:0:0:
128,272,178754,1,0,0:0:0:0:
208,368,178968,2,0,B|256:344|240:272,1,85,2|0,0:0|0:0,0:0:0:0:
243,296,179289,5,0,0:0:0:0:
243,296,179396,1,0,0:0:0:0:
184,184,179611,2,0,B|144:176,2,42.5,0|0|8,0:0|0:0|0:0,0:0:0:0:
232,64,180039,1,0,0:0:0:0:
248,72,180146,1,0,0:0:0:0:
264,80,180254,2,0,B|352:136,1,85
400,240,180682,1,2,0:0:0:0:
360,360,180896,5,0,0:0:0:0:
344,344,181004,1,0,0:0:0:0:
328,328,181111,1,0,0:0:0:0:
240,232,181325,2,0,B|208:288,2,42.5,0|0|8,0:0|0:0|0:0,0:0:0:0:
136,160,181754,1,0,0:0:0:0:
152,144,181861,1,0,0:0:0:0:
168,128,181968,2,0,B|208:96|176:40,1,85
56,56,182396,1,2,0:0:0:0:
40,184,182611,5,0,0:0:0:0:
48,200,182718,1,0,0:0:0:0:
56,216,182825,1,0,0:0:0:0:
120,328,183039,1,0,0:0:0:0:
128,312,183146,1,0,0:0:0:0:
136,296,183254,2,0,B|176:208,1,85,8|0,0:0|0:0,0:0:0:0:
171,218,183575,1,0,0:0:0:0:
171,218,183682,1,0,0:0:0:0:
232,104,183896,1,0,0:0:0:0:
328,16,184111,6,0,B|384:40|368:112,1,85,2|0,0:0|0:0,0:0:0:0:
360,104,184432,1,0,0:0:0:0:
352,120,184539,1,0,0:0:0:0:
304,240,184754,1,0,0:0:0:0:
312,256,184861,1,0,0:0:0:0:
320,272,184968,2,0,B|344:320|400:312,1,85,8|0,0:0|0:0,0:0:0:0:
408,296,185289,1,0,0:0:0:0:
424,280,185396,2,0,B|480:208,1,85
424,96,185825,1,2,0:0:0:0:
304,64,186039,6,0,B|288:24,2,42.5
232,168,186468,2,0,B|208:216,2,42.5,0|0|8,0:0|0:0|0:0,0:0:0:0:
120,112,186896,1,0,0:0:0:0:
104,96,187004,1,0,0:0:0:0:
88,80,187111,2,0,B|32:16,2,85,0|0|2,0:0|0:0|0:0,0:0:0:0:
88,208,187754,5,0,0:0:0:0:
104,224,187861,1,0,0:0:0:0:
120,240,187968,1,0,0:0:0:0:
144,368,188182,1,0,0:0:0:0:
160,352,188289,1,0,0:0:0:0:
176,336,188396,1,8,0:0:0:0:
280,264,188611,2,0,B|320:304,2,42.5
248,136,189039,1,0,0:0:0:0:
352,64,189254,1,2,0:0:0:0:
448,144,189468,6,0,B|488:112,2,42.5
416,264,189896,1,0,0:0:0:0:
400,280,190004,1,0,0:0:0:0:
384,296,190111,2,0,B|352:336|288:312,1,85,8|0,0:0|0:0,0:0:0:0:
307,317,190432,1,0,0:0:0:0:
307,317,190539,1,0,0:0:0:0:
264,200,190754,1,0,0:0:0:0:
32,104,190968,6,2,B|104:32|224:16|376:104,1,318.749995250255,2|2,0:0|0:0,0:0:0:0:
352,184,191825,5,0,0:0:0:0:
352,184,191932,1,0,0:0:0:0:
352,184,192039,1,0,0:0:0:0:
352,184,192146,1,0,0:0:0:0:
352,184,192254,2,2,B|304:264,1,85
200,320,192682,1,8,0:0:0:0:
160,200,192896,1,0,0:0:0:0:
144,184,193004,1,0,0:0:0:0:
128,168,193111,2,2,B|40:168,2,85,2|2|8,0:0|0:0|0:0,0:0:0:0:
224,80,193754,1,0,0:0:0:0:
240,64,193861,1,0,0:0:0:0:
256,48,193968,2,2,B|352:48,1,85
440,144,194396,1,8,0:0:0:0:
384,304,194611,5,0,0:0:0:0:
360,304,194718,1,0,0:0:0:0:
336,304,194825,2,2,B|251:304,1,85
176,176,195254,1,0,0:0:0:0:
192,152,195361,1,0,0:0:0:0:
208,128,195468,1,0,0:0:0:0:
224,104,195575,1,0,0:0:0:0:
240,80,195682,2,2,B|240:184,1,85
360,128,196111,1,8,0:0:0:0:
120,120,196325,5,0,0:0:0:0:
120,120,196432,1,2,0:0:0:0:
120,120,196539,1,2,0:0:0:0:
56,232,196754,1,2,0:0:0:0:
144,320,196968,1,8,0:0:0:0:
160,336,197075,1,0,0:0:0:0:
176,352,197182,1,0,0:0:0:0:
192,368,197289,1,0,0:0:0:0:
208,384,197396,2,2,B|312:384,1,85
320,256,197825,1,8,0:0:0:0:
360,40,198039,5,0,0:0:0:0:
376,56,198146,1,0,0:0:0:0:
392,72,198254,1,2,0:0:0:0:
400,200,198468,2,0,B|424:224,6,21.25
384,184,198896,1,0,0:0:0:0:
368,168,199004,1,0,0:0:0:0:
352,152,199111,1,2,0:0:0:0:
232,120,199325,1,2,0:0:0:0:
232,120,199539,1,8,0:0:0:0:
56,192,199754,5,0,0:0:0:0:
72,208,199861,1,0,0:0:0:0:
88,224,199968,2,2,B|120:256|120:256|160:256,1,85
272,152,200396,1,8,0:0:0:0:
408,88,200611,1,0,0:0:0:0:
400,104,200718,1,0,0:0:0:0:
392,120,200825,2,2,B|368:160|368:160|368:208,1,85
472,312,201254,1,8,0:0:0:0:
320,336,201468,5,0,0:0:0:0:
304,320,201575,1,0,0:0:0:0:
288,304,201682,2,2,B|248:264|288:208,1,85
368,104,202111,1,8,0:0:0:0:
352,88,202218,1,0,0:0:0:0:
336,104,202325,1,0,0:0:0:0:
320,88,202432,1,0,0:0:0:0:
304,104,202539,2,2,B|208:104,2,85,2|2|8,0:0|0:0|0:0,0:0:0:0:
136,144,203182,5,0,0:0:0:0:
128,160,203289,1,0,0:0:0:0:
120,176,203396,1,0,0:0:0:0:
112,192,203504,1,0,0:0:0:0:
120,208,203611,1,0,0:0:0:0:
128,224,203718,1,0,0:0:0:0:
136,240,203825,2,0,B|112:240,8,21.25,0|0|0|0|0|0|0|0|0,0:0|0:0|0:0|0:0|0:0|0:0|0:0|0:0|0:0,0:0:0:0:
144,256,204361,2,0,B|192:256,2,42.5,0|0|0,0:0|0:0|0:0,0:0:0:0:
160,296,204682,6,0,B|216:336|280:320|304:224,1,159.374997625127,0|0,0:0|0:0,0:0:0:0:
256,120,205111,2,0,B|184:136|168:216|232:256,1,159.374997625127,0|0,0:0|0:0,0:0:0:0:
264,192,205539,2,2,B|296:192,8,26.5624996041879,2|0|0|0|0|0|0|0|4,0:0|0:0|0:0|0:0|0:0|0:0|0:0|0:0|0:0,0:0:0:0:
96,80,212611,5,0,0:0:0:0:
96,80,212825,1,0,0:0:0:0:
96,80,213039,1,0,0:0:0:0:
80,232,213254,2,0,B|152:216|152:120,1,127.5
168,64,213682,2,0,B|256:16,1,85
416,304,214325,5,0,0:0:0:0:
416,304,214539,1,0,0:0:0:0:
416,304,214753,1,0,0:0:0:0:
432,152,214968,2,0,B|360:168|360:264,1,127.5
344,320,215396,2,0,B|256:368,1,85
104,288,216039,6,0,B|96:344|48:352,2,85,0|0|0,0:0|0:0|0:0,0:0:0:0:
33,158,216682,2,0,B|-8:216|32:280,1,127.5
88,216,217111,2,0,B|152:160,1,85
408,96,217754,6,0,B|416:40|464:32,2,85,0|0|0,0:0|0:0|0:0,0:0:0:0:
478,225,218397,2,0,B|520:168|480:104,1,127.5
424,168,218826,2,0,B|360:224,1,85
232,312,219254,5,0,0:0:0:0:
136,192,219468,2,0,B|136:216,4,21.25
360,208,220111,5,4,0:0:0:0:
272,208,220325,2,0,B|280:256|344:328|432:296,1,170
256,96,220968,2,0,B|216:16|104:32,1,170,4|0,0:0|0:0,0:0:0:0:
111,30,221611,1,4,0:0:0:0:
224,232,222039,1,0,0:0:0:0:
224,232,222254,2,0,B|96:384,2,170,4|4|0,0:0|0:0|0:0,0:0:0:0:
336,192,223325,6,0,B|312:248|336:304,1,85,0|4,0:0|0:0,0:0:0:0:
368,48,223754,1,0,0:0:0:0:
368,48,223861,1,0,0:0:0:0:
368,48,223968,2,0,B|272:64|184:32,1,170,0|4,0:0|0:0,0:0:0:0:
232,160,224611,2,0,B|144:144|48:160,1,170,0|0,0:0|0:0,0:0:0:0:
104,40,225254,1,4,0:0:0:0:
464,272,225682,1,0,0:0:0:0:
376,328,225896,2,8,B|344:240|386:163,1,170,4|0,0:0|0:0,0:0:0:0:
272,24,226539,2,4,B|303:111|261:188,1,170
136,192,227182,5,0,0:0:0:0:
136,192,227289,1,0,0:0:0:0:
136,192,227396,2,0,B|136:304,1,85,0|4,0:0|0:0,0:0:0:0:
384,216,228039,2,0,B|384:312,1,85,0|4,0:0|0:0,0:0:0:0:
256,104,228682,1,0,0:0:0:0:
256,104,228896,2,0,B|256:304,1,170,4|0,0:0|0:0,0:0:0:0:
256,274,229539,1,4,0:0:0:0:
64,104,229968,1,0,0:0:0:0:
64,104,230182,2,0,B|104:192|48:296,1,170,4|0,0:0|0:0,0:0:0:0:
192,144,230825,2,4,B|192:314,1,170
320,104,231468,5,0,0:0:0:0:
320,104,231575,1,0,0:0:0:0:
320,104,231682,2,0,B|280:192|336:296,1,170,0|0,0:0|0:0,0:0:0:0:
72,352,232432,1,0,0:0:0:0:
72,352,232539,1,4,0:0:0:0:
480,40,232861,1,0,0:0:0:0:
480,40,232968,1,4,0:0:0:0:
320,104,233182,6,0,B|304:136,4,21.25
160,304,233825,5,0,0:0:0:0:
288,208,234039,2,8,B|392:168|512:232,1,212.499996833503,4|0,0:0|0:0,0:0:0:0:
328,320,234682,2,8,B|224:360|104:296,1,212.499996833503,4|0,0:0|0:0,0:0:0:0:
248,136,235325,2,0,B|208:32,1,106.249998416752,4|0,0:0|0:0,0:0:0:0:
360,160,235754,1,0,0:0:0:0:
360,160,235861,1,0,0:0:0:0:
360,160,235968,2,4,B|280:264|128:208,2,212.499996833503,4|4|0,0:0|0:0|0:0,0:0:0:0:
192,72,237039,6,0,B|280:0,1,106.249998416752,0|0,0:0|0:0,0:0:0:0:
48,184,237468,1,0,0:0:0:0:
48,184,237575,1,0,0:0:0:0:
48,184,237682,2,8,B|72:296|208:344,1,212.499996833503,4|0,0:0|0:0,0:0:0:0:
246,0,238325,2,0,B|144:64|160:176,1,212.499996833503,4|0,0:0|0:0,0:0:0:0:
496,169,238968,2,0,B|408:88|303:97,1,212.499996833503,4|0,0:0|0:0,0:0:0:0:
288,256,239611,2,0,B|240:296|240:368,1,106.249998416752
400,224,240039,2,0,B|432:240,4,26.5624996041879
112,80,240682,1,4,0:0:0:0:
24,208,240896,5,0,0:0:0:0:
24,208,241004,1,0,0:0:0:0:
24,208,241111,1,0,0:0:0:0:
24,208,241325,2,0,B|128:264|256:208,1,212.499996833503,4|0,0:0|0:0,0:0:0:0:
160,360,241968,2,0,B|288:304|392:360,1,212.499996833503,4|0,0:0|0:0,0:0:0:0:
200,112,242611,2,0,B|312:136|424:32,1,212.499996833503,4|0,0:0|0:0,0:0:0:0:
472,192,243254,1,4,0:0:0:0:
312,192,243468,2,0,B|280:192,4,26.5624996041879
392,240,243896,6,0,B|408:312|376:368,1,127.499996200204
280,360,244539,1,0,0:0:0:0:
184,336,244754,2,0,B|168:368,5,31.874999050051
168,328,245396,5,0,0:0:0:0:
152,312,245504,1,0,0:0:0:0:
136,296,245611,1,0,0:0:0:0:
120,280,245718,1,0,0:0:0:0:
144,248,245825,5,8,0:0:0:0:
176,216,245932,1,8,0:0:0:0:
208,184,246039,1,8,0:0:0:0:
240,152,246146,1,8,0:0:0:0:
272,88,246254,6,0,B|231:15|163:16|119:96,1,159.374997625127
200,120,246682,2,0,B|270:265,1,159.374997625127
312,360,247111,5,0,0:0:0:0:
256,192,247218,12,0,250539,0:0:0:0:
