osu file format v9

[General]
AudioFilename: Mirage Coordinator.mp3
AudioLeadIn: 0
PreviewTime: -1
Countdown: 0
SampleSet: Normal
StackLeniency: 0.7
Mode: 0
LetterboxInBreaks: 1

[Editor]
DistanceSpacing: 0.9
BeatDivisor: 4
GridSize: 4

[Metadata]
Title:miragecoordinator
Artist:07th Expansion
Creator:Leimy
Version:Insane
Source:Umineko no Naku Koro ni
Tags:07th expansion umineko

[Difficulty]
HPDrainRate:7
CircleSize:4
OverallDifficulty:7
ApproachRate:7
SliderMultiplier:1.4
SliderTickRate:1

[Events]
//Background and Video events
0,0,"BG.jpg"
//Break Periods
2,13099,14399
2,134699,139999
//Storyboard Layer 0 (Background)
//Storyboard Layer 1 (Fail)
//Storyboard Layer 2 (Pass)
//Storyboard Layer 3 (Foreground)
//Storyboard Sound Samples
//Background Colour Transformations
3,100,163,162,255

[TimingPoints]
3299.94630872483,400,4,1,1,50,1,0
3499,-100,4,2,1,10,0,0
6499,-200,4,1,1,25,0,0
7299,-200,4,2,1,10,0,0
8099,-200,4,1,1,25,0,0
8899,-200,4,2,1,10,0,0
9699,-200,4,1,1,30,0,0
10099,-100,4,1,1,30,0,0
15299,-100,4,1,1,30,0,0
28899,-66.6666666666667,4,1,1,70,0,0
35299,-100,4,1,1,70,0,0
54499,-66.6666666666667,4,1,1,100,0,1
60919,-66.6666666666667,4,1,1,100,0,0
67499,-100,4,1,1,100,0,0
82499,-100,4,1,1,30,0,0
83699,-100,4,2,1,25,0,0
86499,-100,4,1,1,25,0,0
88099,-100,4,2,1,25,0,0
92899,-100,4,1,1,60,0,0
94099,-100,4,1,1,20,0,0
95299,-100,4,1,1,60,0,0
96299,-100,4,1,1,20,0,0
96899,-100,4,1,1,60,0,0
97299,-100,4,1,1,20,0,0
98499,-100,4,1,1,60,0,0
98699,-100,4,1,1,20,0,0
98899,-100,4,1,1,60,0,0
98999,-100,4,1,1,20,0,0
100099,-100,4,1,1,60,0,0
100499,-100,4,1,1,20,0,0
101699,-100,4,1,1,60,0,0
102699,-100,4,1,1,20,0,0
103299,-100,4,1,1,60,0,0
103499,-100,4,1,1,20,0,0
104899,-100,4,1,1,60,0,0
105099,-100,4,1,1,20,0,0
105299,-100,4,1,1,60,0,0
105399,-100,4,1,1,20,0,0
106099,-100,4,1,1,60,0,0
108119,-200,4,1,1,100,0,0
109299,-100,4,1,1,100,0,0
110319,-200,4,1,1,100,0,0
112499,-66.6666666666667,4,1,1,100,0,0
114499,-200,4,1,1,100,0,0
117099,-66.6666666666667,4,1,1,100,0,0
121699,-66.6666666666667,4,1,1,100,0,0
123299,-133.333333333333,4,1,1,100,0,0
124899,-100,4,1,1,100,0,0
140899,-66.6666666666667,4,1,1,100,0,0
160099,-66.6666666666667,4,1,1,100,0,1
161299,-133.333333333333,4,1,1,100,0,0
161899,-66.6666666666667,4,1,1,100,0,0
162319,-133.333333333333,4,1,1,100,0,0
163299,-66.6666666666667,4,1,1,100,0,0
164519,-133.333333333333,4,1,1,100,0,0
165719,-66.6666666666667,4,1,1,100,0,0
169699,-133.333333333333,4,1,1,100,0,0
171499,-100,4,1,1,100,0,0
171899,-66.6666666666667,4,1,1,100,0,0
173299,-133.333333333333,4,1,1,5,0,0

[Colours]
Combo1 : 255,128,192
Combo2 : 141,96,18
Combo3 : 252,221,3
Combo4 : 201,12,145

[HitObjects]
256,196,3301,1,4
176,192,3499,2,0,B|96:128,1,70
121,148,3899,1,0
160,80,4099,1,0
160,80,4299,2,0,B|192:48|224:80,1,70
292,84,4699,1,0
356,108,4899,2,0,B|421:108|452:172,2,105
288,80,5699,5,0
288,128,5899,2,0,B|288:224,1,70
288,240,6299,1,0
216,240,6499,2,0,B|136:240|136:240|88:192,1,140
80,128,7699,1,0
120,72,8099,2,0,B|200:112|200:112|260:96,1,140
356,72,9299,2,0,B|395:85|416:124,1,70,0|8
400,192,9899,5,0
336,160,10099,2,0,B|304:128|272:160,1,70
84,244,10499,1,8
144,208,10699,2,0,B|176:176|224:224,2,70
224,288,11299,2,0,B|256:320|288:288,1,70,8|0
285,290,11699,1,0
224,288,11899,1,0
160,272,12099,2,0,B|96:224,3,70
256,192,12899,5,4
184,192,15299,6,8,B|112:192,4,70
90,66,16499,2,0,B|90:162,1,70
92,208,16899,1,8
179,288,17299,2,0,B|199:310|243:320,1,70
288,272,17699,1,8
373,184,18099,5,0
328,139,18299,1,0
372,183,18499,1,8
327,138,18699,1,0
268,115,18899,2,0,B|232:136|236:179,1,70
235,173,19299,1,8
145,262,19699,5,0
100,217,19899,1,0
144,172,20099,1,8
54,82,20499,1,0
100,40,20699,1,0
142,81,20899,1,8
268,81,21299,2,0,B|304:72|324:41,2,70,0|0|8
268,81,21899,1,0
268,81,21999,1,0
268,81,22099,1,0
270,81,22299,2,0,B|288:120|254:153,1,70,0|12
256,224,22899,6,0,B|197:237|173:188,1,70
145,166,23299,1,8
145,166,23499,1,0
256,224,23699,2,0,B|228:170|269:135,1,70
296,112,24099,1,8
296,112,24299,1,0
256,224,24499,2,0,B|300:183|344:213,1,70
364,246,24899,1,8
364,246,25099,1,0
256,224,25299,2,0,B|306:256|288:307,1,70
245,325,25699,5,8
245,325,25899,1,0
256,224,26099,2,0,B|237:281|184:277,1,70,8|0
160,224,26499,1,8
176,164,26699,2,0,B|192:128|220:104,2,70
256,192,27299,12,0,28499
215,252,28899,5,4
148,318,29099,2,0,B|89:307|73:251,1,104.999996870756
148,176,29499,1,0
73,118,29699,1,0
139,51,29899,2,0,B|212:59|209:127,1,104.999996870756
276,181,30299,1,0
342,114,30499,1,0
275,47,30699,2,0,B|228:80|162:26,1,104.999996870756
110,105,31099,1,0
176,171,31299,1,0
242,237,31499,2,0,B|192:288|111:249,1,104.999996870756
78,194,31899,5,0
144,127,32099,2,8,B|160:80|235:67,2,104.999996870756,8|0|8
76,194,32699,2,8,B|61:241|114:296,2,104.999996870756,0|8|0
143,126,33299,1,0
209,192,33499,1,0
275,125,33699,2,8,B|328:128|379:93,2,104.999996870756,8|0|8
208,191,34299,2,8,B|152:183|104:222,2,104.999996870756,0|8|0
275,258,34899,1,0
275,258,35099,1,0
276,258,35299,6,0,B|316:218|300:178,2,70,8|0|0
304,197,35899,1,0
192,128,36099,2,0,B|160:144|139:195,2,70,8|0|0
144,176,36699,1,0
292,120,36899,1,8
292,120,37099,2,0,B|334:122|356:56,2,70
212,176,37699,1,8
212,176,37899,2,0,B|171:178|153:111,2,70,0|0|0
256,64,38499,5,0
256,272,38899,1,0
144,160,39299,1,0
368,160,39699,1,0
256,64,40099,5,0
160,288,40499,1,0
384,160,40899,1,0
128,160,41299,1,0
352,288,41699,1,4
192,160,42099,6,0,B|39:161,1,140,8|0
320,160,42899,2,0,B|462:160,1,140,8|0
256,216,43699,2,0,B|256:356,1,140,8|0
160,288,44499,2,0,B|96:256|160:160,1,140,8|0
352,288,45299,2,0,B|416:256|352:160,1,140,8|0
288,128,46099,2,0,B|209:128,2,70,8|0|4
384,128,46899,5,8
128,128,47299,1,0
224,192,47699,2,0,B|256:224|288:192,2,70,8|0|4
176,244,48299,6,0,B|128:268,2,35,0|0|8
220,300,48699,2,0,B|252:344|252:344|296:348,1,70
320,300,49099,1,0
352,280,49199,1,0
372,252,49299,1,8
404,188,49499,2,0,B|384:156|404:120,1,70
336,104,49899,2,0,B|292:52|224:64,1,105
216,84,50299,2,0,B|192:112|152:124,1,70
124,184,50699,1,0
156,244,50899,1,8
216,212,51099,1,0
256,192,51299,12,4,54099
100,184,54499,6,0,B|68:128|116:88,1,104.999996870756,8|0
220,60,54899,2,0,B|260:92|260:92|220:132|220:132,1,104.999996870756,8|0
184,228,55299,2,0,B|224:276|224:276|264:244,1,104.999996870756,8|0
364,260,55699,2,0,B|472:244|472:244|476:192,1,157.499995306134,8|0
452,176,56099,2,0,B|468:108|468:108|412:84,1,104.999996870756,8|0
332,100,56499,2,0,B|316:44|316:44|220:52,1,104.999996870756,8|0
168,76,56899,1,8
236,156,57099,1,0
136,184,57299,2,0,B|160:296|160:296|204:296,1,157.499995306134,8|0
244,284,57699,5,8
312,204,57899,1,0
336,100,58099,2,0,B|392:100|392:100|424:148|424:148,1,104.999996870756,8|0
444,244,58499,1,8
368,316,58699,1,0
264,316,58899,2,0,B|208:324|208:324|168:268,1,104.999996870756,8|0
92,224,59299,1,8
64,124,59499,1,0
168,104,59699,2,0,B|128:44|128:44|176:52,2,104.999996870756,8|0|8
272,92,60299,1,0
272,92,60399,1,0
272,92,60499,1,12
112,228,60899,6,0,B|92:128|164:88,1,157.499995306134,8|0
192,76,61299,2,0,B|248:128|248:128|216:184|216:184,1,104.999996870756,8|0
192,248,61699,2,0,B|232:296|232:296|272:264,1,104.999996870756,8|0
292,168,62099,2,0,B|300:104|300:104|348:120,1,104.999996870756,8|0
356,220,62499,2,0,B|432:176|432:176|444:212,1,104.999996870756,8|0
392,320,62899,2,0,B|324:336|324:336|280:320,1,104.999996870756
192,284,63299,1,8
252,196,63499,1,0
208,100,63699,2,0,B|128:176|128:176|120:232,1,157.499995306134,8|0
120,280,64099,5,8
220,248,64299,1,0
276,160,64499,2,0,B|332:160|332:160|364:208|364:208,1,104.999996870756,8|0
428,280,64899,1,8
328,312,65099,1,0
224,312,65299,2,0,B|168:320|168:320|128:264,1,104.999996870756,8|0
168,180,65699,1,8
64,184,65899,1,0
72,80,66099,2,0,B|120:40|120:40|168:48,2,104.999996870756,8|0|8
176,88,66699,5,0
176,88,66799,1,0
176,88,66899,1,8
280,96,67099,2,0,B|312:144|172:84|292:192|192:180,1,104.999996870756
116,256,67699,6,0,B|186:318|247:246,1,140,8|0
308,264,68299,2,0,B|349:280|366:238,1,70,0|8
408,188,68699,1,0
404,120,68899,2,0,B|316:80|316:80|264:104,1,140,0|8
204,100,69699,1,0
192,96,69799,1,0
180,100,69899,1,0
168,96,69999,1,0
156,100,70099,2,0,B|92:164,1,70,8|0
80,208,70499,1,8
64,288,70899,5,8
160,160,71299,1,0
256,96,71699,1,8
352,160,72099,1,0
448,288,72499,1,8
256,288,72899,2,0,B|256:204,1,70
256,192,73199,2,0,B|257:154,1,35,0|8
160,64,73699,6,0,B|100:104,1,70
128,192,74099,2,0,B|188:150,1,70,8|0
258,212,74499,2,0,B|195:255,1,70
158,317,74899,2,0,B|126:317|94:285,1,70,8|0
95,207,75299,2,0,B|81:168|108:129,1,70
141,79,75699,2,0,B|172:46|204:77,1,70,8|0
272,80,76099,1,0
320,144,76299,1,8
272,208,76499,1,8
224,144,76699,1,0
160,96,76899,6,8,B|91:115|69:155,2,104.999996870756
208,47,77699,2,8,B|279:47|312:79,2,104.999996870756
176,192,78499,2,8,B|107:212|85:252,2,104.999996870756
288,128,79299,2,8,B|358:144|382:182,2,104.999996870756
256,192,80099,1,4
96,176,82499,6,0,B|160:80|160:80|256:64,1,210
272,64,83299,1,4
432,80,83699,2,0,B|464:128|432:176,1,70
384,176,84099,2,0,B|336:224|304:192,1,70,8|0
272,160,84499,2,0,B|224:144|192:192,1,70
256,224,84899,2,0,B|208:256|224:304,1,70,8|0
288,288,85299,2,0,B|320:336|352:336,1,70
368,272,85699,2,0,B|416:240|416:192,1,70,8|0
432,160,86099,1,4
320,80,86499,6,0,B|160:80|160:80|96:112,1,210
115,102,87299,1,4
256,192,88099,1,8
320,224,88299,2,0,B|320:272|384:272,1,70
416,224,88699,2,0,B|448:192|416:144,1,70,0|8
256,192,89699,12,0,92099
32,288,92899,6,0,B|32:224|64:192|128:320|160:192|154:80,1,280,4|0
256,64,94099,1,0
357,83,94499,2,0,B|352:192|384:320|448:192|480:224|480:288,1,280,0|0
336,320,95699,1,4
285,322,96099,6,0,B|256:352|224:320,1,70
256,256,96499,1,0
192,128,96899,2,0,B|256:64|325:138,1,140,8|0
384,160,97699,6,0,B|416:192|384:224,1,70
320,192,98099,1,0
224,192,98299,1,0
160,224,98499,2,0,B|128:192|160:160,1,70,8|0
200,95,98899,2,0,B|257:32|321:96,1,140,4|0
160,192,99699,5,0
256,288,100099,1,8
352,192,100499,1,0
256,96,100899,2,0,B|256:142,4,35
256,192,101699,1,8
133,218,102499,6,0,B|91:217|69:250,1,70,4|0
87,313,102899,2,0,B|93:357|156:327,3,70,0|0|8|0
211,321,103699,2,0,B|271:278,1,70
227,229,104099,2,0,B|192:217|177:181,1,70
138,159,104499,2,0,B|106:186,2,35
96,128,104899,2,0,B|64:96|96:64,1,70,8|0
160,64,105299,2,0,B|192:32|231:67,3,70,4|0|8|0
284,83,106099,5,0
274,153,106299,2,0,B|246:171|246:171|219:139,1,70,0|8
160,128,106688,2,0,B|116:133|116:89,2,70
160,192,107299,1,8
160,192,107399,1,0
160,192,107499,1,0
91,222,107699,2,0,B|91:254|144:272,1,70,8|0
207,269,108099,2,0,B|251:271|248:222,2,70,0|0|4
224,128,108899,5,0
160,64,109299,2,0,B|111:58|110:102,2,70
128,160,110099,1,0
160,224,110499,2,0,B|231:225,1,70
352,224,111299,1,8
352,160,111699,2,0,B|394:145|343:111,1,70,0|4
308,62,112499,6,0,B|254:28|187:52,1,104.999996870756
160,96,112899,2,0,B|219:116|219:116|195:170,1,104.999996870756,8|0
96,128,113299,2,0,B|45:160|45:160|99:197,1,104.999996870756
132,222,113699,2,0,B|170:230|170:230|145:255|145:255|199:260|199:260,1,104.999996870756,8|0
245,266,114099,2,0,B|306:258,2,52.4999984353781
339,206,114499,2,0,B|399:240,2,70,8|0|4
224,160,115499,6,0,B|206:147,4,17.5
256,128,116099,1,0
288,160,116299,2,0,B|304:146,4,17.5
256,192,116899,1,0
192,160,117099,6,0,B|146:126,4,52.4999984353781
256,192,117699,1,0
320,160,117899,2,0,B|374:131,4,52.4999984353781
256,192,118499,12,0,121299
64,240,121699,6,0,B|96:128,1,104.999996870756,8|0
160,96,122099,2,0,B|192:64|224:64|264:83,1,104.999996870756,8|0
224,144,122499,1,0
288,160,122699,1,0
304,144,122799,1,0
320,128,122899,2,0,B|358:79|358:79|400:64,1,104.999996870756,8|0
464,112,123299,2,0,B|480:144|464:176,1,52.4999984353781,8|0
400,160,123699,2,0,B|384:192|400:224,1,52.4999984353781,8|0
464,224,124099,2,0,B|480:256|464:288,1,52.4999984353781,8|0
400,288,124499,2,0,B|384:320|352:304,2,52.4999984353781,0|0|4
336,192,125099,5,0
304,176,125199,1,0
272,176,125299,2,0,B|208:144|208:144|128:176,1,140,8|0
336,256,125899,1,0
304,272,125999,1,0
272,288,126099,2,0,B|192:304|192:304|144:256,1,140,8|0
256,160,126699,1,0
64,160,127099,1,8
448,160,127499,1,0
256,160,127899,1,12
320,160,128099,5,0
291,217,128299,2,0,B|259:249,2,35,0|0|8
208,288,128699,2,0,B|160:304|144:240,1,70
128,192,129099,1,0
128,176,129199,1,0
128,160,129299,1,8
128,144,129399,1,0
128,128,129499,2,0,B|160:96|160:96,2,35
256,64,129899,5,0
352,128,130299,1,0
352,256,130699,1,0
256,192,131099,2,0,B|256:113,1,70,0|4
128,112,131499,5,0
112,128,131599,1,0
96,144,131699,2,0,B|56:178|104:213,1,70,8|0
140,268,132099,1,0
224,272,132299,5,0
240,272,132399,1,0
256,272,132499,2,0,B|295:306|322:253,1,70,8|0
320,192,132899,1,0
257,143,133099,2,0,B|256:177,2,35
288,83,133499,2,0,B|258:53|218:88,1,70
191,159,133899,2,0,B|142:160,2,35
320,160,134299,2,0,B|369:160,2,35,0|0|4
352,231,140899,6,0,B|399:217|399:217|386:150,1,104.999996870756
352,96,141299,2,0,B|320:64|320:64|256:64,1,104.999996870756,8|0
179,66,141699,2,0,B|115:61|115:61|92:116,1,104.999996870756
71,160,142099,2,0,B|71:218|71:218|113:250,2,104.999996870756,8|0|0
148,159,142699,2,0,B|189:131|189:131|232:174,1,104.999996870756,0|8
269,233,143099,2,0,B|322:272|322:272|362:235,1,104.999996870756
369,182,143499,2,8,B|324:84,3,104.999996870756,0|8|8|4
224,64,144299,5,0
192,64,144399,1,0
160,64,144499,2,0,B|96:64|96:64|124:118,1,104.999996870756,8|0
208,160,144899,1,0
304,112,145099,5,0
320,128,145199,1,0
336,144,145299,1,8
384,192,145499,2,0,B|432:224|432:224|384:256,1,104.999996870756
320,320,145899,1,0
224,256,146299,1,0
240,160,146699,1,0
112,160,147099,1,0
174,83,147299,6,0,B|201:32|263:65,1,104.999996870756,4|0
335,68,147699,2,0,B|392:72|392:72|423:121,1,104.999996870756,8|0
420,182,148099,1,0
420,182,148199,1,0
420,182,148299,1,0
371,238,148499,2,0,B|339:270|339:270|283:234,1,104.999996870756,8|0
285,171,148899,2,0,B|342:155|342:155|305:100,3,104.999996870756,0|0|8|0
250,81,149699,1,0
250,81,149799,1,0
250,81,149899,1,0
250,81,149999,1,0
250,81,150099,2,0,B|218:81|218:81|218:49|218:49|186:81|186:81,1,104.999996870756,8|0
188,181,150499,6,0,B|188:245|263:255,1,104.999996870756
309,211,150899,2,0,B|310:147|235:135,1,104.999996870756,8|0
188,181,151299,2,0,B|188:245|263:255,1,104.999996870756
309,211,151699,2,0,B|310:147|235:135,1,104.999996870756,8|0
160,96,152099,2,0,B|128:96|128:96|128:128|128:128|96:96,1,104.999996870756
352,96,152499,2,0,B|384:96|384:96|384:128|384:128|416:96,1,104.999996870756,8|0
256,96,152899,1,0
256,224,153099,1,8
160,160,153299,1,8
352,160,153499,1,0
256,160,153699,5,4
192,128,153899,2,0,B|128:128|128:128|128:64,1,104.999996870756,0|8
320,128,154299,2,0,B|384:128|384:128|384:64,1,104.999996870756
213,205,154699,2,0,B|256:240|256:240|303:196,1,104.999996870756,0|8
170,56,155099,2,0,B|110:57|110:57|148:112,1,104.999996870756
209,118,155499,2,0,B|242:89|242:89|291:127,1,104.999996870756,0|8
352,160,155899,2,0,B|416:160,2,52.4999984353781
320,224,156299,2,0,B|288:288|288:288|234:274,1,104.999996870756,0|8
176,208,156699,1,0
160,96,156899,6,0,B|205:65,4,52.4999984353781,0|0|0|0|8
256,128,157499,1,0
353,100,157699,2,0,B|298:63,4,52.4999984353781,0|0|0|0|8
256,128,158299,1,0
128,160,158499,6,0,B|95:216|95:216|146:234,1,104.999996870756
207,253,158899,2,0,B|243:293|243:293|291:256,1,104.999996870756,8|0
346,235,159299,2,0,B|386:218|386:218|361:161,1,104.999996870756,0|12
320,96,159699,1,4
208,82,160099,6,0,B|144:82|112:114,1,105,0|0
96,192,160499,2,0,B|128:256|128:256|166:237,1,104.999996870756,8|0
230,235,160899,2,0,B|294:235|294:235|326:203,1,104.999996870756,0|8
384,128,161299,2,0,B|338:93|287:125,1,104.999996870756
224,96,161899,2,0,B|253:49,2,52.4999984353781
192,64,162299,1,0
160,96,162499,2,0,B|96:128|135:181,1,104.999996870756,0|8
192,240,163099,1,8
288,224,163299,6,0,B|352:192|352:192|319:163,1,104.999996870756
320,96,163699,2,0,B|288:64|288:64|256:96|256:96|240:80,1,104.999996870756,8|0
160,128,164099,2,0,B|185:173|185:173|207:147|207:147|229:173,1,104.999996870756
350,180,164499,2,8,B|396:170|396:170|423:219,1,104.999996870756
416,288,164899,1,0
320,256,165299,1,8
288,160,165699,2,0,B|227:160|227:160|186:135,1,104.999996870756,0|8
128,96,166299,2,0,B|92:197,1,104.999996870756,0|12
160,224,166899,5,0
224,224,167299,2,0,B|288:224,4,52.4999984353781,8|0|0|0|8
224,96,168099,2,0,B|288:96,4,52.4999984353781,8|0|0|0|8
80,240,168899,1,0
96,224,168999,1,0
112,208,169099,1,0
128,192,169199,1,0
144,176,169299,1,8
160,160,169399,1,0
176,144,169499,1,8
256,68,169699,6,0,B|320:68|320:68|352:116,1,104.999996870756,8|0
288,256,170499,2,0,B|224:288|224:288|192:288,1,104.999996870756,8|0
160,224,171099,2,0,B|132:171,1,52.4999984353781
227,128,171499,2,0,B|256:192,1,70,0|8
352,160,171899,2,0,B|311:54,1,105
245,77,172299,2,0,B|213:77,8,26.2499992176891
256,256,173299,5,4
