osu file format v9

[General]
AudioFilename: miragecoordinator.mp3
AudioLeadIn: 0
PreviewTime: 147315
Countdown: 0
SampleSet: Soft
StackLeniency: 0.7
Mode: 0
LetterboxInBreaks: 1

[Editor]
DistanceSpacing: 1
BeatDivisor: 4
GridSize: 8

[Metadata]
Title:miragecoordinator
Artist:07th Expansion
Creator:La Cataline
Version:Normal
Source:Umineko no Naku Koro ni
Tags:zts when they cry visual novel mmzz hacksl

[Difficulty]
HPDrainRate:4
CircleSize:4
OverallDifficulty:5
ApproachRate:5
SliderMultiplier:1.3
SliderTickRate:1

[Events]
//Background and Video events
0,0,"122538.jpg"
//Break Periods
2,80312,91712
2,173512,183712
//Storyboard Layer 0 (Background)
//Storyboard Layer 1 (Fail)
//Storyboard Layer 2 (Pass)
//Storyboard Layer 3 (Foreground)
//Storyboard Sound Samples
//Background Colour Transformations
3,100,163,162,255

[TimingPoints]
1712,400,4,2,1,20,1,0
3312,-166.666666666667,4,2,1,20,0,0
15245,-166.666666666667,4,1,1,40,0,0
16112,-100,4,1,1,60,0,0
18712,-100,4,2,1,60,0,0
19212,-100,4,1,1,60,0,0
21912,-100,4,2,1,60,0,0
22412,-100,4,1,1,60,0,0
25112,-100,4,2,1,60,0,0
25612,-100,4,2,0,60,0,0
28918,-100,4,2,1,60,0,0
29712,-100,4,1,1,60,0,0
30712,-100,4,2,1,60,0,0
31112,-100,4,1,1,60,0,0
31512,-100,4,2,1,60,0,0
31912,-100,4,1,1,60,0,0
32118,-100,4,2,1,60,0,0
32912,-100,4,1,1,60,0,0
33912,-100,4,2,1,60,0,0
34312,-100,4,1,1,60,0,0
34712,-100,4,2,1,60,0,0
35112,-100,4,1,1,60,0,0
35318,-100,4,2,1,60,0,0
36112,-100,4,1,1,60,0,0
37112,-100,4,2,1,60,0,0
37512,-100,4,1,1,60,0,0
37912,-100,4,2,1,60,0,0
38312,-100,4,1,1,60,0,0
38518,-100,4,2,1,60,0,0
39312,-100,4,1,1,60,0,0
39812,-100,4,2,1,60,0,0
41712,-100,4,1,0,60,0,0
41912,-100,4,2,1,60,0,0
42012,-100,4,1,1,60,0,0
42312,-100,4,2,1,60,0,0
42412,-100,4,1,1,60,0,0
43212,-100,4,1,1,60,0,0
45112,-100,4,2,1,60,0,0
45312,-100,4,1,1,60,0,0
45412,-100,4,2,1,60,0,0
45612,-100,4,1,1,60,0,0
48312,-100,4,2,1,60,0,0
48412,-100,4,1,1,60,0,0
48612,-100,4,2,1,60,0,0
48812,-100,4,1,0,60,0,0
54512,-100,4,1,0,60,0,0
54578,-100,4,2,0,60,0,0
55112,-100,4,1,0,60,0,0
56312,-100,4,2,0,60,0,0
56912,-100,4,1,0,60,0,0
57912,-100,4,2,0,60,0,0
58312,-100,4,1,0,60,0,0
59512,-100,4,2,0,60,0,0
59912,-100,4,1,0,60,0,0
61112,-100,4,2,0,60,0,0
61512,-100,4,1,0,60,0,0
62712,-100,4,2,0,60,0,0
63112,-100,4,1,0,60,0,0
64512,-100,4,2,0,60,0,0
64712,-100,4,1,0,60,0,0
65912,-100,4,2,0,60,0,0
66312,-100,4,1,0,60,0,0
67712,-100,4,2,0,60,0,0
67903,-100,4,1,0,60,0,0
69112,-100,4,2,0,60,0,0
69512,-100,4,1,0,60,0,0
70912,-100,4,2,0,60,0,0
71112,-100,4,1,0,60,0,0
74112,-100,4,2,0,60,0,0
74312,-100,4,1,0,60,0,0
74712,-100,4,2,0,60,0,0
75112,-100,4,1,0,60,0,0
75712,-100,4,2,0,60,0,0
75912,-100,4,1,0,60,0,0
76512,-100,4,2,0,60,0,0
76712,-100,4,1,0,60,0,0
77312,-100,4,2,0,60,0,0
77512,-100,4,1,0,60,0,0
79812,-100,4,1,2,60,0,0
92912,-166.666666666667,4,1,2,60,0,0
105712,-100,4,1,2,60,0,0
112512,-100,4,2,2,60,0,0
112712,-100,4,1,2,60,0,0
113312,-100,4,2,2,60,0,0
113512,-100,4,1,2,60,0,0
114112,-100,4,2,2,60,0,0
114312,-100,4,1,2,60,0,0
114912,-100,4,2,2,60,0,0
115112,-100,4,1,2,60,0,0
117512,-100,4,2,2,60,0,0
117912,-100,4,1,2,60,0,0
118512,-200,4,1,2,20,0,1
121312,-100,4,1,2,5,0,0
121512,-100,4,1,2,60,0,0
147312,-100,4,1,1,60,0,1
158112,-100,4,2,1,60,0,1
158312,-100,4,1,1,60,0,1
160121,-100,4,2,1,60,0,1
160912,-100,4,1,1,60,0,1
173312,400,4,1,2,60,1,0
184112,-166.666666666667,4,2,2,20,0,0
195512,-166.666666666667,4,1,2,20,0,0
196912,-166.666666666667,4,2,2,20,0,0
198912,-100,4,1,2,60,0,0
211712,-100,4,1,2,60,0,1
213312,-100,4,1,2,60,0,0

[Colours]
Combo1 : 1,224,152
Combo2 : 194,120,128
Combo3 : 0,128,128
Combo4 : 215,96,99

[HitObjects]
64,176,3312,2,0,B|140:200|224:176,1,156.00000371933,0|2
284,140,4512,1,0
220,96,4912,2,0,B|196:172|220:256,1,156.00000371933
372,264,6512,6,0,B|412:264|444:288,1,78.0000018596649
388,344,7312,2,0,B|348:344|316:320,1,78.0000018596649,2|0
296,244,8112,2,0,B|296:152|344:96,1,156.00000371933
200,36,9712,6,0,B|200:128|152:184,1,156.00000371933,0|2
188,252,10912,1,0
112,252,11312,2,0,B|108:296|140:336,2,78.0000018596649
188,252,12512,1,0
264,256,12912,6,0,B|436:256,2,156.00000371933,4|2|0
392,344,15312,6,0,B|420:360,6,26.0000006198883,0|0|0|0|0|0|0
264,332,16512,1,0
344,232,16912,1,0
340,104,17312,1,0
220,56,17712,2,0,B|155:76|91:64,2,130
240,178,18912,2,0,B|208:174|176:184,1,65,2|0
176,184,19312,6,0,B|205:243|181:323,1,130,0|0
72,240,20112,2,0,B|44:181|67:101,1,130
184,64,20912,1,0
312,44,21312,1,0
428,104,21712,1,0
338,205,22112,2,0,B|366:221|400:224,1,65,2|0
400,224,22512,6,0,B|368:288|396:364,1,130
484,252,23312,2,0,B|516:188|488:112,1,130,0|0
376,64,24112,1,0
344,188,24512,1,0
304,316,24912,1,0
208,228,25312,2,0,B|145:214,1,65,2|0
84,196,25712,5,4
256,96,26512,1,4
428,196,27312,1,4
256,96,28912,6,2,B|323:83|384:112,3,130,0|0|2|2
296,208,30512,1,0
344,328,30912,1,2
220,372,31312,1,0
172,252,31712,2,0,B|136:240|132:192,1,65
156,144,32112,6,2,B|164:72|116:16,3,130,0|0|2|2
56,136,33712,1,0
136,240,34112,1,2
240,164,34512,1,0
348,88,34912,2,0,B|383:82|410:98,1,65,0|0
431,161,35312,6,2,B|475:173|451:265|503:273,3,130,0|0|2|2
372,324,36912,1,0
328,204,37312,1,2
208,156,37712,1,0
80,160,38112,2,0,B|67:188|79:224,1,65
140,244,38512,6,2,B|184:256|160:348|212:356,3,130,0|0|2|2
320,300,40112,5,6
308,172,40512,1,4
180,192,40912,1,4
196,320,41312,1,4
68,344,41712,6,0,B|36:356|-4:336,1,65,0|2
12,276,42112,2,0,B|0:244|20:204,1,65,0|2
36,152,42512,2,2,B|52:88|36:12,1,130
168,20,43312,2,2,B|184:84|168:160,2,130,0|0|8
276,92,44512,1,8
396,140,44912,6,0,B|412:108|472:108,1,65,0|2
456,172,45312,2,0,B|488:188|488:248,1,65,0|2
420,224,45712,2,2,B|268:224,1,130
364,332,46512,2,2,B|212:332,1,130,0|0
104,332,47312,1,8
0,252,47712,1,8
128,204,48112,6,0,B|216:196,1,65,0|2
220,256,48512,2,0,B|308:248,1,65,0|2
296,312,48912,2,2,B|424:304,1,130
468,180,49712,2,2,B|340:188,2,130,0|0|8
384,84,50912,1,8
260,44,51312,6,2,B|248:180,1,130,6|0
176,64,52112,2,2,B|164:200,1,130,6|2
80,96,52912,2,2,B|56:376,1,260,0|4
168,100,54512,5,0
296,80,54912,1,8
248,200,55312,2,0,B|298:242|370:230,1,130,0|0
492,180,56112,2,0,B|484:320,1,130,0|2
352,328,56912,2,0,B|288:308|212:320,1,130,0|4
96,340,57712,1,0
64,212,58112,5,8
188,168,58512,2,0,B|164:104|196:28,1,130
312,84,59312,1,0
440,104,59712,1,2
360,204,60112,2,0,B|297:230|233:206,1,130,0|4
108,236,60912,5,4
148,112,61312,1,8
280,120,61712,2,0,B|344:84|428:112,1,130
380,232,62512,1,0
500,208,62912,1,2
460,332,63312,2,0,B|396:368|312:340,1,130,0|4
252,244,64112,6,0,B|316:208|400:236,1,130,4|8
384,100,64912,2,0,B|321:135|258:113,1,130,0|0
140,60,65712,1,0
32,132,66112,1,2
116,232,66512,2,0,B|156:236|188:224,1,65
232,264,66912,2,0,B|258:295|289:309,1,65
348,300,67312,6,0,B|408:264|408:176,1,130,4|8
296,120,68112,2,0,B|331:60|404:61,1,130,0|0
504,148,68912,1,0
376,176,69312,1,2
252,140,69712,1,0
112,164,70112,1,4
16,76,70512,6,0,B|-4:228,1,130,4|8
96,292,71312,2,0,B|115:139,1,130,0|0
236,120,72112,2,0,B|220:252,1,130
348,216,72912,2,0,B|324:240|332:292,1,65
376,324,73312,2,0,B|408:348|452:340,1,65,4|0
468,284,73712,6,0,B|502:213|446:125,1,130,4|8
368,72,74512,1,0
256,144,74912,1,4
144,72,75312,2,0,B|109:142|165:230,1,130,0|8
80,312,76112,2,0,B|150:346|238:290,1,130,0|4
332,348,76912,6,0,B|366:277|310:189,1,130,0|8
408,112,77712,2,0,B|337:77|249:133,1,130
168,80,78512,5,4
256,192,78712,12,4,80112
352,292,92912,6,2,B|420:348|524:304,2,156.00000371933,0|0|4
216,216,95312,1,0
220,140,95712,1,0
148,172,96112,6,2,B|113:251|169:319,2,156.00000371933,0|0|4
296,124,98512,1,0
344,64,98912,1,0
268,48,99312,6,2,B|184:32|120:88,1,156.00000371933,0|0
232,196,100912,2,0,B|260:228|252:276,1,78.000001859665,4|0
192,324,101712,2,0,B|164:292|172:244,1,78.000001859665
156,176,102512,6,2,B|72:160|8:216,1,156.00000371933,0|0
88,80,104112,2,0,B|120:52|168:60,1,78.000001859665,4|0
240,64,104912,2,0,B|280:70|312:42,1,78.000001859665
376,96,105712,6,0,B|424:164|384:232,1,130,6|0
316,324,106512,2,0,B|268:256|308:188,1,130,2|0
292,72,107312,2,2,B|156:28|28:80,1,260,0|0
68,204,108512,1,2
100,332,108912,6,0,B|244:320,1,130,2|0
352,276,109712,2,0,B|496:264,1,130,2|0
476,136,110512,2,2,B|212:156,1,260,0|2
88,172,111712,1,2
160,280,112112,6,0,B|232:300|296:288,1,130,6|4
416,308,112912,2,0,B|436:172,1,130,2|4
356,72,113712,2,2,B|336:208,1,130,0|4
208,212,114512,2,0,B|136:192|72:204,1,130,4|4
124,324,115312,6,6,B|256:360|392:320,2,260
300,132,117712,5,4
420,96,118112,1,6
384,224,118512,6,0,B|368:244|368:244|356:224|356:224|344:244|344:244|328:224|328:224|320:244|320:244|304:224|304:224|292:244|292:244|280:224|280:224|268:244|268:244|252:224|252:224|240:244|240:244|224:224|224:224|212:244|212:244|196:224|196:224|184:244|184:244|168:224|168:224|156:244|156:244|144:224|144:224|124:240,1,455,4|0
56,136,121712,6,0,B|192:144,1,130,4|8
308,96,122512,2,0,B|340:108|400:96,2,65,0|0|8
296,224,123312,2,0,B|284:368,1,130,0|8
416,336,124112,2,0,B|428:192,1,130,0|8
368,72,124912,6,0,B|322:122|242:114,1,130,0|8
120,104,125712,2,0,B|32:84,2,65,0|0|4
172,224,126512,2,8,B|304:284|436:216,2,260,4|4|4
56,164,128512,5,8
164,92,128912,1,0
292,116,129312,1,8
328,240,129712,2,0,B|268:204|188:240,1,130,0|8
76,260,130512,2,0,B|40:318|70:384,1,130,0|4
180,312,131312,6,0,B|264:196|184:52,1,260,4|0
60,76,132512,1,8
144,172,132912,2,4,B|259:88|388:161,2,260,4|4|4
36,244,134912,5,8
160,288,135312,1,0
288,276,135712,1,8
412,312,136112,2,0,B|432:256|416:184,1,130,0|0
288,192,136912,2,0,B|232:212|160:196,1,130,8|4
32,164,137712,5,4
128,76,138112,1,8
256,64,138512,1,0
356,144,138912,1,8
484,132,139312,2,0,B|468:264,2,130,0|8|8
404,28,140512,1,4
356,144,140912,5,4
256,64,141312,1,8
208,184,141712,1,0
80,180,142112,1,8
148,296,142512,2,0,B|292:316,1,130
384,240,143312,2,0,B|240:220,1,130,8|4
124,216,144112,5,4
192,104,144512,1,8
320,104,144912,1,0
384,216,145312,1,8
352,344,145712,2,4,B|256:304|160:344,2,195
476,300,147312,6,0,B|516:172|472:32,1,260,4|4
348,76,148512,1,0
412,192,148912,2,0,B|348:220|280:188,1,130,4|0
172,124,149712,1,4
284,60,150112,1,4
285,190,150512,6,0,B|268:296|180:332|88:276,1,260,4|4
8,180,151712,1,0
136,184,152112,2,0,B|152:48,1,130,4|0
280,68,152912,1,4
408,84,153312,1,4
324,184,153712,6,0,B|269:272|305:360|411:378,1,260,4|4
440,252,154912,1,0
324,184,155312,2,0,B|192:184,1,130,4|0
64,180,156112,1,4
68,52,156512,1,4
196,56,156912,5,4
404,212,157712,2,0,B|432:280|400:364,1,130,4|4
296,276,158512,2,0,B|268:208|300:124,1,130,4|0
164,172,159312,1,4
180,300,159712,1,4
52,316,160112,6,2,B|28:196|40:44,2,260,2|4|4
180,300,162112,2,0,B|324:284,1,130,2|4
392,184,162912,2,2,B|248:200,1,130,6|4
492,320,164112,2,2,B|499:181|475:61,1,260,4|4
380,148,165312,2,0,B|324:180|252:168,1,130,2|4
128,140,166112,1,4
64,252,166512,6,4,B|204:220|332:300,1,260
436,240,167712,1,0
480,120,168112,2,4,B|340:152|212:72,1,260
112,24,169312,1,4
124,152,169712,6,0,B|112:224|152:276,1,130,4|0
272,324,170512,2,0,B|344:336|396:296,1,130,4|0
464,188,171312,2,0,B|476:116|436:64,1,130,4|0
316,12,172112,2,4,B|244:0|192:40,1,130
276,140,172912,6,2,B|304:284,1,130,0|4
72,104,184912,5,2
140,140,185312,1,0
160,216,185712,1,0
212,156,186112,2,0,B|260:92|360:104,1,156.00000371933,0|0
428,116,187312,5,2
380,176,187712,2,0,B|372:220|368:264,1,78.000001859665,0|0
292,264,188512,2,0,B|258:266|214:274,1,78.000001859665,2|2
136,288,189312,6,0,B|112:232|101:136,2,156.00000371933,0|2|2
212,152,191712,5,2
256,88,192112,1,2
288,160,192512,1,0
236,308,193312,2,0,B|400:312,1,156.00000371933,2|0
452,168,194912,5,0
376,172,195312,1,0
300,192,195712,2,0,B|56:208,1,234.000005578995,4|2
76,284,197312,2,0,B|240:276,2,156.00000371933,2|0|4
152,176,199312,6,0,B|260:156|344:228,2,195,8|8|0
28,216,200912,1,8
64,92,201312,1,0
184,40,201712,1,0
308,72,202112,5,4
308,72,202512,2,0,B|288:180|360:264,2,195,8|8|0
416,144,204112,1,8
460,268,204512,1,4
360,352,204912,1,0
248,288,205312,5,4
276,160,205712,2,8,B|60:180,2,195,8|8|4
236,284,207312,2,0,B|452:264,2,195,8|4|4
108,296,208912,5,8
205,174,209312,2,0,B|185:106|217:42,1,130,0|0
300,176,210112,2,0,B|320:244|288:308,1,130,0|8
140,276,210912,2,2,B|84:144|144:12,1,260,4|4
256,192,211812,12,0,213312
