osu file format v9

[General]
AudioFilename: miragecoordinator.mp3
AudioLeadIn: 0
PreviewTime: 147315
Countdown: 0
SampleSet: Normal
StackLeniency: 0.7
Mode: 0
LetterboxInBreaks: 1

[Editor]
DistanceSpacing: 0
BeatDivisor: 4
GridSize: 8

[Metadata]
Title:miragecoordinator
Artist:07th Expansion
Creator:La Cataline
Version:Hard
Source:Umineko no Naku Koro ni
Tags:zts when they cry visual novel mmzz hacksl

[Difficulty]
HPDrainRate:7
CircleSize:4
OverallDifficulty:5
ApproachRate:8
SliderMultiplier:1.6
SliderTickRate:1

[Events]
//Background and Video events
0,0,"122538.jpg"
//Break Periods
2,80312,88962
2,173512,184162
//Storyboard Layer 0 (Background)
//Storyboard Layer 1 (Fail)
//Storyboard Layer 2 (Pass)
//Storyboard Layer 3 (Foreground)
//Storyboard Sound Samples
//Background Colour Transformations
3,100,163,162,255

[TimingPoints]
1712,400,4,2,0,20,1,0
3312,-166.666666666667,4,2,0,20,0,0
15245,-100,4,1,0,40,0,0
16112,-100,4,1,0,60,0,0
16912,-100,4,2,0,60,0,0
17312,-100,4,1,0,60,0,0
17412,-100,4,2,0,60,0,0
17612,-100,4,1,0,60,0,0
17812,-100,4,2,0,60,0,0
18012,-100,4,1,0,60,0,0
18212,-100,4,2,0,60,0,0
18412,-100,4,1,0,60,0,0
18612,-100,4,2,0,60,0,0
18812,-100,4,1,0,60,0,0
19112,-100,4,2,0,60,0,0
19212,-100,4,1,0,60,0,0
20112,-100,4,2,0,60,0,0
20512,-100,4,1,0,60,0,0
20712,-100,4,2,0,60,0,0
20812,-100,4,1,0,60,0,0
21112,-100,4,2,0,60,0,0
21212,-100,4,1,0,60,0,0
21512,-100,4,2,0,60,0,0
21612,-100,4,1,0,60,0,0
21912,-100,4,2,0,60,0,0
22012,-100,4,1,0,60,0,0
22312,-100,4,2,0,60,0,0
22412,-100,4,1,0,60,0,0
23312,-100,4,2,0,60,0,0
23712,-100,4,1,0,60,0,0
23812,-100,4,2,0,60,0,0
24012,-100,4,1,0,60,0,0
24212,-100,4,2,0,60,0,0
24412,-100,4,1,0,60,0,0
24612,-100,4,2,0,60,0,0
24812,-100,4,1,0,60,0,0
25012,-100,4,2,0,60,0,0
25212,-100,4,1,0,60,0,0
25412,-100,4,2,0,60,0,0
25612,-100,4,1,0,60,0,0
26612,-100,4,1,1,60,0,0
27412,-100,4,2,0,60,0,0
28612,-100,4,1,1,60,0,0
28812,-100,4,1,0,60,0,0
30612,-100,4,2,0,60,0,0
31212,-100,4,1,0,60,0,0
31412,-100,4,2,0,60,0,0
31812,-100,4,1,0,60,0,0
34012,-100,4,2,0,60,0,0
34412,-100,4,1,0,60,0,0
34712,-100,4,2,0,60,0,0
35112,-100,4,1,0,60,0,0
37012,-100,4,2,0,60,0,0
37612,-100,4,1,0,60,0,0
37812,-100,4,2,0,60,0,0
38212,-100,4,1,0,60,0,0
39812,-100,4,2,0,60,0,0
41712,-100,4,1,0,60,0,0
41912,-100,4,2,0,60,0,0
42012,-100,4,1,0,60,0,0
42312,-100,4,2,0,60,0,0
42412,-100,4,1,0,60,0,0
43112,-100,4,2,0,60,0,0
43212,-100,4,1,0,60,0,0
44312,-100,4,2,0,60,0,0
44412,-100,4,1,0,60,0,0
45412,-100,4,2,0,60,0,0
45612,-100,4,1,0,60,0,0
46812,-100,4,2,0,60,0,0
47012,-100,4,1,0,60,0,0
47412,-100,4,2,0,60,0,0
47612,-100,4,1,0,60,0,0
48612,-100,4,2,0,60,0,0
48812,-100,4,1,0,60,0,0
49012,-100,4,2,0,60,0,0
49212,-100,4,1,0,60,0,0
50712,-100,4,2,0,60,0,0
50812,-100,4,1,0,60,0,0
53612,-166.666666666667,4,1,0,60,0,0
53712,-166.666666666667,4,1,0,60,0,1
54012,-200,4,1,0,60,0,1
54512,-100,4,1,0,80,0,0
54712,-100,4,2,0,80,0,0
55612,-100,4,1,0,80,0,0
56312,-100,4,2,0,80,0,0
57212,-100,4,1,0,80,0,0
57912,-100,4,2,0,80,0,0
58812,-100,4,1,0,80,0,0
59212,-100,4,1,1,80,0,0
59512,-100,4,2,0,80,0,0
60212,-100,4,2,0,80,0,0
60412,-100,4,1,0,80,0,0
61112,-100,4,2,0,80,0,0
62012,-100,4,1,0,80,0,0
62212,-100,4,2,0,80,0,0
62412,-100,4,1,0,80,0,0
62712,-100,4,2,0,80,0,0
63612,-100,4,1,0,80,0,0
63812,-100,4,2,0,80,0,0
64012,-100,4,1,0,80,0,0
64312,-100,4,2,0,80,0,0
65212,-100,4,1,0,80,0,0
65512,-100,4,2,0,80,0,0
65612,-100,4,1,0,80,0,0
66012,-100,4,2,0,80,0,0
66912,-100,4,1,0,80,0,0
67512,-100,4,2,0,80,0,0
67612,-100,4,1,0,80,0,0
67912,-100,4,2,0,80,0,0
68012,-100,4,1,0,80,0,0
68412,-100,4,2,0,80,0,0
68512,-100,4,1,0,80,0,0
68612,-100,4,2,0,80,0,0
68812,-100,4,1,0,80,0,0
69112,-100,4,2,0,80,0,0
69212,-100,4,1,0,80,0,0
69512,-100,4,2,0,80,0,0
69612,-100,4,1,0,80,0,0
70012,-100,4,2,0,80,0,0
70112,-100,4,1,1,80,0,0
70212,-100,4,2,1,80,0,0
70412,-100,4,1,1,80,0,0
70712,-100,4,2,1,80,0,0
70812,-100,4,1,1,80,0,0
71112,-100,4,2,1,80,0,0
71212,-100,4,1,1,80,0,0
71512,-100,4,2,1,80,0,0
71612,-100,4,1,1,80,0,0
71912,-100,4,2,1,80,0,0
72012,-100,4,1,1,80,0,0
72412,-100,4,2,1,80,0,0
72512,-100,4,1,1,80,0,0
72712,-100,4,2,1,80,0,0
72812,-100,4,1,1,80,0,0
73012,-100,4,2,1,80,0,0
73212,-100,4,1,0,80,0,0
73512,-100,4,1,1,80,0,0
74012,-100,4,2,1,80,0,0
74112,-100,4,1,1,80,0,0
74312,-100,4,2,1,80,0,0
74412,-100,4,1,1,80,0,0
74712,-100,4,2,1,80,0,0
75212,-100,4,1,1,80,0,0
75612,-100,4,2,1,80,0,0
75712,-100,4,1,1,80,0,0
75912,-100,4,2,1,80,0,0
76012,-100,4,1,1,80,0,0
76312,-100,4,2,1,80,0,0
76412,-100,4,1,1,80,0,0
76812,-100,4,1,0,80,0,0
77312,-100,4,1,1,80,0,0
77512,-100,4,2,1,80,0,0
77612,-100,4,1,1,80,0,0
77912,-100,4,2,1,80,0,0
78012,-100,4,1,1,80,0,0
78312,-100,4,2,0,80,0,0
78412,-100,4,1,0,80,0,0
78612,-100,4,2,0,80,0,0
79612,-100,4,1,0,50,0,0
79812,-100,4,1,1,80,0,0
80012,-100,4,1,0,80,0,0
92912,-166.666666666667,4,1,0,20,0,0
95112,-166.666666666667,4,1,0,25,0,0
98312,-166.666666666667,4,1,0,30,0,0
101512,-166.666666666667,4,1,0,35,0,0
104712,-166.666666666667,4,1,0,40,0,0
105712,-100,4,1,0,60,0,0
105812,-100,4,1,1,60,0,0
112012,-100,4,1,0,70,0,0
112512,-100,4,2,0,70,0,0
112612,-100,4,1,1,70,0,0
113212,-100,4,2,0,70,0,0
113412,-100,4,1,0,70,0,0
114112,-100,4,2,0,70,0,0
114412,-100,4,1,1,70,0,0
115212,-100,4,1,0,70,0,0
115712,-100,4,2,1,70,0,0
116012,-100,4,1,1,70,0,0
116412,-100,4,2,1,70,0,0
116812,-100,4,1,1,70,0,0
118412,-200,4,1,0,5,0,0
118512,-200,4,1,0,15,0,1
121512,-200,4,2,0,5,0,1
121612,-100,4,1,0,60,0,0
147312,-100,4,1,1,80,0,1
147512,-100,4,2,1,80,0,1
147612,-100,4,1,1,80,0,1
147912,-100,4,2,1,80,0,1
148012,-100,4,1,1,80,0,1
148412,-100,4,2,1,80,0,1
148512,-100,4,1,1,80,0,1
148612,-100,4,2,1,80,0,1
148812,-100,4,1,1,80,0,1
149112,-100,4,2,1,80,0,1
149212,-100,4,1,1,80,0,1
149512,-100,4,2,1,80,0,1
149612,-100,4,1,1,80,0,1
149912,-100,4,2,1,80,0,1
150012,-100,4,1,1,80,0,1
150312,-100,4,2,1,80,0,1
150412,-100,4,1,1,80,0,1
150712,-100,4,2,1,80,0,1
150812,-100,4,1,1,80,0,1
151112,-100,4,2,1,80,0,1
151212,-100,4,1,1,80,0,1
151612,-100,4,2,1,80,0,1
151712,-100,4,1,1,80,0,1
151812,-100,4,2,1,80,0,1
152012,-100,4,1,1,80,0,1
152312,-100,4,2,1,80,0,1
152412,-100,4,1,1,80,0,1
152712,-100,4,2,1,80,0,1
152812,-100,4,1,1,80,0,1
153112,-100,4,2,1,80,0,1
153212,-100,4,1,1,80,0,1
153512,-100,4,2,1,80,0,1
153612,-100,4,1,1,80,0,1
154012,-100,4,2,1,80,0,1
154112,-100,4,1,1,80,0,1
154312,-100,4,2,1,80,0,1
154412,-100,4,1,1,80,0,1
154812,-100,4,2,1,80,0,1
154912,-100,4,1,1,80,0,1
155112,-100,4,2,1,80,0,1
155212,-100,4,1,1,80,0,1
155612,-100,4,2,1,80,0,1
155712,-100,4,1,1,80,0,1
155912,-100,4,2,1,80,0,1
156012,-100,4,1,1,80,0,1
156312,-100,4,2,1,80,0,1
156412,-100,4,1,1,80,0,1
156712,-100,4,2,1,80,0,1
156812,-100,4,1,1,80,0,1
157212,-100,4,2,1,80,0,1
157312,-100,4,1,1,80,0,1
157512,-100,4,2,1,80,0,1
157612,-100,4,1,1,80,0,1
158012,-100,4,2,1,80,0,1
158112,-100,4,2,1,40,0,1
158412,-100,4,1,1,80,0,1
158712,-100,4,2,1,80,0,1
158812,-100,4,1,1,80,0,1
159112,-100,4,2,1,80,0,1
159212,-100,4,1,1,80,0,1
159512,-100,4,2,1,80,0,1
159612,-100,4,1,1,80,0,1
160612,-100,4,2,1,80,0,1
160812,-100,4,1,1,80,0,1
161412,-100,4,2,1,80,0,1
161612,-100,4,1,1,80,0,1
163812,-100,4,2,1,80,0,1
164012,-100,4,1,1,80,0,1
164612,-100,4,2,1,80,0,1
164812,-100,4,1,1,80,0,1
173312,400,4,1,0,80,1,1
173412,-166.666666666667,4,2,0,20,0,0
195612,-166.666666666667,4,1,0,20,0,0
196512,-166.666666666667,4,2,0,20,0,0
197412,-166.666666666667,4,2,1,70,0,0
198912,-100,4,1,0,20,0,0
204512,-100,4,1,2,20,0,0
204612,-100,4,1,0,20,0,0
208512,-100,4,1,0,35,0,0
211612,-100,4,1,0,5,0,0
211712,-100,4,1,0,100,0,1
213312,-100,4,1,0,30,0,0

[Colours]
Combo1 : 1,224,152
Combo2 : 194,120,128
Combo3 : 0,128,128
Combo4 : 215,96,99

[HitObjects]
272,144,3312,1,2
304,208,3512,1,0
240,240,3712,1,0
208,176,3912,1,0
239,240,4112,1,2
216,308,4312,1,0
148,286,4512,1,0
171,218,4712,1,0
272,144,4912,5,2
304,208,5112,1,0
240,240,5312,1,0
208,176,5512,1,0
304,208,5712,1,2
372,231,5912,1,0
350,299,6112,1,0
282,276,6312,1,0
260,73,6512,5,2
312,25,6712,1,0
380,49,6912,1,2
328,96,7112,1,0
233,205,7512,5,0
202,140,7712,1,2
272,144,7912,1,0
36,304,8312,5,0
88,257,8512,1,2
104,328,8712,1,0
303,207,9112,5,0
334,272,9312,1,2
264,268,9512,1,0
344,140,9712,5,2
408,108,9912,1,0
440,176,10112,1,2
376,208,10312,1,0
232,204,10512,5,2
168,236,10712,1,0
136,168,10912,1,2
200,136,11112,1,0
224,64,11312,5,2
292,87,11512,1,0
266,157,11712,1,2
199,135,11912,1,0
168,236,12112,5,2
136,300,12312,1,0
68,268,12512,1,0
100,204,12712,1,2
120,256,12912,6,0,B|201:227|269:267,1,144.000003433228,4|0
236,96,13712,2,0,B|176:108,1,48.0000011444092,2|0
284,188,14112,2,0,B|344:200,1,48.0000011444092,2|0
396,124,14512,2,0,B|405:77,1,48.0000011444092,2|0
428,216,14912,2,0,B|438:264,1,48.0000011444092
333,297,15312,1,0
333,297,15445,1,0
333,297,15578,1,0
333,297,15712,1,0
333,297,15845,1,0
333,297,15978,2,0,B|345:337,1,26.6666666666667
347,339,16112,6,0,B|179:339,2,160,0|0|2
200,196,17212,1,0
200,196,17312,1,0
272,216,17512,1,0
180,124,17712,1,0
220,268,17912,5,0
128,176,18112,1,0
252,144,18312,1,0
148,248,18512,5,0
292,288,18712,1,0
252,144,18912,2,0,B|239:106|255:66,1,80,0|0
255,66,19312,6,0,B|416:66,2,160,0|0|2
64,204,20412,1,0
64,204,20512,2,0,B|112:200|148:220,1,80,0|0
376,320,20912,2,0,B|345:293|301:297,1,80,0|0
148,320,21312,2,0,B|178:346|222:342,1,80,0|0
384,220,21712,2,0,B|353:193|309:197,1,80,0|0
144,216,22112,2,0,B|174:242|218:238,1,80,0|0
218,238,22512,6,4,B|182:154|224:84,2,160,0|0|2
352,300,23612,5,0
352,300,23712,1,0
464,216,23912,1,0
488,348,24112,1,0
384,220,24312,1,0
512,280,24512,1,0
404,364,24712,1,0
304,228,24912,5,0
224,240,25112,1,0
256,160,25312,1,0
332,148,25512,1,0
172,168,25712,5,4
156,164,25812,1,0
140,160,25912,1,0
124,156,26012,1,0
108,152,26112,1,0
92,148,26212,1,0
76,144,26312,1,0
60,140,26412,1,0
44,136,26512,1,4
256,192,26612,12,0,27312
104,138,27512,1,8
164,61,27712,1,8
72,37,27912,1,8
72,37,28012,1,8
260,86,28212,1,8
260,86,28312,1,8
344,107,28512,1,0
232,1,28712,1,4
188,156,28912,6,0,B|168:240|192:324,1,160,4|0
324,156,29712,2,2,B|343:239|322:314,1,160,2|2
288,108,30512,5,0
372,116,30712,1,0
364,204,30912,1,2
276,196,31112,1,0
203,140,31312,5,0
99,153,31512,1,0
111,265,31712,1,0
216,252,31912,1,0
337,57,32112,6,0,B|256:36|168:56,1,160,0|0
60,196,32912,2,2,B|104:132|212:128,1,160,2|2
199,129,33712,2,0,B|168:177|184:245,1,120,0|0
184,244,34112,2,0,B|228:240|264:272,1,80,2|0
344,304,34512,2,0,B|352:352|313:391,1,80,0|0
104,184,34912,2,2,B|95:135|134:96,1,80,0|0
236,100,35312,6,0,B|367:47,1,120,0|0
347,54,35712,1,0
480,40,35912,1,0
428,168,36112,2,2,B|400:240|432:336,1,160,2|2
420,88,36912,5,0
351,135,37112,1,0
428,168,37312,1,2
492,120,37512,1,0
420,88,37712,5,0
284,176,37912,1,0
432,248,38112,1,0
384,168,38312,1,0
352,136,38512,6,0,B|284:152|220:120,1,120,0|0
234,126,38912,1,0
152,176,39112,1,0
60,208,39312,2,2,B|143:192|217:224,1,160
112,312,40112,6,0,B|152:316|204:336,1,80,4|0
200,224,40512,2,0,B|196:184|204:140,1,80,4|0
399,312,40913,2,0,B|360:316|322:330,1,80,4|0
304,224,41312,2,2,B|304:192,5,26.6666666666667
304,224,41712,6,0,B|308:184|300:140,1,80,0|2
200,224,42112,2,0,B|196:264|204:308,1,80,0|2
360,304,42512,2,2,B|420:300|480:340,1,120,2|0
473,335,42912,2,2,B|504:240,1,80,2|2
428,124,43312,2,2,B|403:200,1,80,0|2
316,244,43712,2,0,B|291:167,1,80,0|2
220,60,44112,2,0,B|195:136,1,80,2|0
120,252,44512,2,8,B|95:175,1,80,8|8
220,60,44912,6,0,B|144:36|56:64,1,160,2|8
136,136,45512,1,2
44,160,45712,2,2,B|20:236|48:324,1,160,2|2
216,160,46312,2,2,B|388:184,1,160,0|2
460,192,46912,1,2
400,316,47112,2,0,B|308:304,1,80,2|2
320,305,47512,1,0
374,182,47712,1,8
424,108,47912,1,8
340,100,48112,6,2,B|264:88|176:112,1,160,2|8
80,152,48712,1,2
120,256,48912,1,2
216,216,49112,1,2
181,110,49312,1,2
80,152,49512,2,2,B|155:140|238:162,1,160
416,204,50112,2,2,B|368:216|316:192,1,80,0|2
400,116,50512,2,0,B|448:104|500:128,1,80,2|0
508,224,50912,1,8
436,308,51112,1,8
332,172,51312,6,0,B|272:220|276:320,1,160,6|8
436,308,51912,1,0
296,152,52112,6,2,B|236:199|240:295,1,160,6|6
436,308,52712,1,0
424,188,52912,5,4
420,168,53012,1,0
416,148,53112,1,0
412,128,53212,1,0
408,108,53312,1,0
404,88,53412,1,0
400,68,53512,1,0
396,48,53612,1,0
392,28,53712,6,0,B|364:24|328:28,1,48.0000011444092
200,124,54112,2,0,B|232:132|276:124,1,60
288,128,54512,6,0,B|288:168|320:200,1,80,4|0
464,232,54912,2,0,B|428:214|380:230,1,80,8|0
280,336,55312,2,0,B|320:318|324:274,1,80,0|2
212,208,55712,1,0
212,208,56112,6,0,B|204:128,1,80,0|0
132,232,56512,2,4,B|100:140,1,80,8|0
64,288,56912,2,2,B|16:216,1,80,0|2
176,320,57312,1,4
176,320,57712,6,0,B|192:358|230:375,1,80,4|0
254,221,58111,2,0,B|238:259|254:299,1,80,8|0
386,220,58512,2,0,B|347:236|330:274,1,80,0|2
356,132,58912,1,0
356,131,59312,6,0,B|395:115|433:130,1,80,0|0
279,107,59711,2,0,B|295:68|334:52,1,80,8|0
204,132,60112,1,2
168,280,60312,1,0
56,172,60512,1,4
56,172,60912,6,0,B|20:92,1,80,4|0
124,132,61312,2,0,B|116:52,1,80,8|0
204,132,61712,2,0,B|211:52,1,80,0|2
280,164,62112,1,0
348,204,62312,1,2
280,164,62512,6,0,B|244:244,1,80,0|0
348,204,62912,2,0,B|340:284,1,80,8|0
428,204,63312,2,2,B|435:283,1,80,0|2
504,172,63712,1,4
436,124,63912,1,0
348,204,64112,6,0,B|336:332,1,120
336,323,64512,1,8
240,260,64712,1,0
256,132,64912,2,0,B|264:36,1,80,0|2
140,216,65312,2,0,B|132:312,1,80
348,204,65712,6,0,B|412:228|472:204,1,120,0|0
464,168,66112,2,0,B|464:122|452:80,1,80,8|0
368,112,66512,1,0
248,128,66712,2,0,B|232:84,3,26.6666666666667,2|0|0|4
176,248,67112,1,0
284,292,67312,6,0,B|324:268|375:294,1,80,4|2
512,336,67712,2,0,B|475:355|435:331,1,80,0|2
428,124,68112,2,0,B|460:184|428:248,1,120,0|0
431,239,68512,1,0
324,360,68712,1,2
279,204,68912,6,0,B|283:166|316:136,1,80,0|2
464,56,69312,2,0,B|460:94|427:124,1,80,0|2
296,288,69712,2,0,B|224:284|196:220,1,120,0|0
199,227,70112,1,0
108,304,70312,1,2
88,180,70512,6,0,B|14:149,1,80,0|2
104,72,70912,2,0,B|177:104,1,80,0|2
320,76,71312,2,0,B|246:45,1,80,0|0
392,28,71712,2,0,B|465:60,1,80,0|2
416,156,72112,6,0,B|357:192|301:163,1,120,0|2
301,163,72512,2,0,B|284:256,1,80
272,344,72912,1,0
368,304,73112,1,2
206,178,73312,2,4,B|182:151|136:144,1,80,0|0
40,264,73712,6,0,B|96:304|168:288,1,120
153,290,74112,1,0
116,188,74312,1,0
218,68,74512,2,0,B|192:144,1,80
292,204,74912,2,0,B|318:128,1,80,4|0
320,128,75312,6,0,B|376:96|456:128,1,120
436,120,75712,1,0
392,264,75912,1,0
272,336,76112,2,0,B|172:324,1,80
176,320,76412,1,0
160,312,76512,2,0,B|76:312,1,80
180,50,76912,6,0,B|223:88|216:160,1,120,4|0
216,160,77312,2,0,B|123:160,1,80
48,248,77712,2,0,B|19:217|27:174,1,80,0|0
384,148,78112,2,0,B|412:178|404:221,1,80,0|0
312,188,78512,5,4
240,144,78712,1,8
320,104,78912,1,8
232,228,79112,5,8
232,228,79212,1,8
248,60,79412,1,8
248,60,79512,1,8
384,148,79712,1,4
232,228,79912,1,4
288,148,80112,5,4
256,192,89712,12,4,92912
180,68,93312,6,0,B|184:96|168:120,1,48.0000011444092,0|0
144,184,93712,2,2,B|128:232|144:288,1,96.0000022888184,2|2
88,336,94312,1,0
164,352,94512,2,0,B|192:344|204:324,1,48.0000011444092,0|0
44,260,94912,1,4
44,260,95312,2,0,B|60:212|44:156,1,96.0000022888184
360,184,96112,5,4
360,184,96512,2,0,B|408:184,1,48.0000011444092,0|0
296,128,96912,1,2
296,304,97312,2,0,B|344:304,1,48.0000011444092,2|0
232,248,97712,1,0
360,184,97912,1,0
296,128,98112,1,4
296,128,98512,2,2,B|200:128,2,96.0000022888184,0|0|6
40,128,99712,6,0,B|36:160|52:184,1,48.0000011444092,0|0
112,236,100112,2,2,B|132:184|104:132,1,96.0000022888184,2|2
88,72,100712,1,0
44,256,100912,2,0,B|40:288|56:312,1,48.0000011444092,0|0
172,344,101312,1,4
172,344,101712,2,2,B|224:336|280:344,1,96.0000022888184,0|0
436,216,102512,5,6
436,216,102912,2,0,B|444:240|444:272,1,48.0000011444092,0|0
416,132,103312,1,2
356,320,103712,2,0,B|356:348|364:376,1,48.0000011444092,2|0
348,240,104112,1,0
320,64,104312,1,0
416,132,104512,1,4
416,132,104912,2,2,B|468:120|496:72,1,96.0000022888184,4|0
320,64,105712,6,0,B|261:76|224:131,1,120,6|0
216,156,106112,1,0
176,228,106312,1,0
176,228,106412,1,0
176,228,106512,1,2
256,228,106712,1,2
136,156,106912,1,0
216,300,107112,1,0
296,156,107312,6,2,B|360:164|408:120,1,120,0|0
424,104,107712,1,0
480,48,107912,1,0
444,184,108112,1,0
348,84,108312,1,2
504,124,108512,1,0
408,28,108712,1,2
368,164,108912,6,2,B|308:188|296:264,1,120,2|0
300,292,109312,1,0
288,368,109512,1,0
288,368,109612,1,0
288,368,109712,1,2
212,344,109912,1,2
224,264,110112,1,0
300,292,110312,1,0
292,192,110512,6,2,B|232:172|172:202,1,120,0|0
175,200,110912,1,0
88,236,111112,1,2
4,344,111312,2,2,B|44:344|77:316,1,80,4|2
104,152,111712,2,0,B|63:151|30:179,1,80,6|0
224,320,112112,6,2,B|312:312|356:240,1,160,6|4
464,132,112712,1,0
432,256,112912,1,2
340,164,113112,1,2
484,204,113312,1,4
392,112,113512,1,0
408,184,113712,6,2,B|320:176|276:104,1,160,2|4
224,40,114312,1,0
104,184,114512,2,0,B|88:228|108:280,1,80,0|2
409,262,114912,2,2,B|424:228|408:184,1,80,6|0
464,132,115312,6,2,B|420:203|332:211,1,160,6|4
200,256,115912,1,0
292,348,116112,1,2
252,204,116312,1,2
220,328,116512,1,4
344,296,116712,1,0
216,128,116912,6,0,B|136:125,1,80,2|0
296,128,117312,2,2,B|375:125,1,80,4|2
136,125,117712,2,2,B|52:181,1,80,0|2
376,125,118112,2,0,B|460:181,1,80,6|0
460,256,118512,6,2,B|452:264|452:264|444:256|444:256|436:264|436:264|428:256|428:256|420:264|420:264|412:256|412:256|404:264|404:264|396:256|396:256|388:264|388:264|380:256|380:256|372:264|372:264|364:256|364:256|356:264|356:264|348:256|348:256|340:264|340:264|332:256|332:256|324:264|324:264|316:256|316:256|308:264|308:264|300:256|300:256|292:264|292:264|284:256|284:256|276:264|276:264|268:256|268:256|260:264|260:264|252:256|252:256|244:264|244:264|236:256|236:256|228:264|228:264|220:256|220:256|212:264|212:264|204:256|204:256|196:264|196:264|188:256|188:256|180:264|180:264|172:256|172:256|164:264|164:264|156:256|156:256|148:264|148:264|140:256|140:256|132:264|132:264|124:256|124:256|116:264|116:264|108:256|108:256|100:264|100:264|92:256|92:256|84:264|84:264|76:256|76:256|68:264|68:264|60:256|60:256|52:264|52:264|44:256|44:256|36:264,1,600,4|2
88,180,121712,6,0,B|113:155|117:107,1,80,4|0
116,96,122012,1,0
112,88,122112,2,0,B|148:-1,1,80,0|0
192,136,122512,2,0,B|257:89,1,80,0|0
217,231,122912,2,0,B|325:223,1,80,0|0
412,152,123312,5,4
337,201,123512,1,0
331,114,123712,5,8
420,248,123912,1,0
476,104,124112,5,4
272,248,124312,1,0
344,284,124512,1,8
272,248,124712,1,0
200,296,124912,6,0,B|112:276,1,80,4|0
96,268,125212,1,0
80,252,125312,2,0,B|38:258|-8:252,1,80,0|0
104,144,125712,2,0,B|145:150|191:144,1,80
296,48,126112,2,0,B|254:43|208:49,1,80,0|0
256,156,126512,5,4
168,216,126712,1,0
168,216,126812,1,0
168,216,126912,1,8
176,328,127112,2,0,B|256:352|333:330,1,160,4|8
348,216,127712,1,0
333,329,127912,1,8
444,210,128112,6,0,B|424:246|440:288,1,80,4|0
439,287,128412,1,0
440,288,128512,2,0,B|493:363,1,80,0|0
332,332,128912,2,0,B|279:257,1,80,0|0
300,152,129312,2,0,B|353:227,1,80,0|0
56,316,129712,5,4
108,240,129912,1,0
148,56,130112,5,8
96,132,130312,1,0
196,260,130512,5,12
248,184,130712,1,0
288,0,130912,5,0
236,76,131112,1,8
336,112,131312,6,0,B|448:112,1,80,4|0
416,112,131612,1,0
416,112,131712,2,0,B|496:60,1,80,0|0
400,228,132112,2,0,B|328:272,1,80
268,188,132512,2,0,B|180:188,1,80,0|0
120,232,132912,6,0,B|145:282|117:350,1,120,4|0
112,368,133312,1,8
48,272,133512,2,0,B|12:196|48:100,1,160,4|8
52,100,134012,1,0
64,88,134112,1,4
184,92,134312,1,8
172,104,134412,1,4
164,120,134512,6,0,B|152:164|168:216,1,80
348,199,134912,2,0,B|360:164|348:120,1,80,8|0
216,264,135312,2,0,B|121:277,1,80,0|0
296,264,135712,2,0,B|392:277,1,80,8|0
137,274,136112,5,4
57,285,136312,1,0
69,369,136512,1,8
149,357,136712,1,0
375,274,136912,1,4
456,285,137112,1,8
444,369,137312,1,0
364,357,137512,1,8
164,240,137712,6,0,B|200:256|248:240,1,80,4|0
348,144,138112,2,0,B|312:128|264:144,1,80,8|0
208,100,138512,2,0,B|192:136|208:184,1,80,0|0
304,284,138912,2,0,B|320:248|304:200,1,80,8|0
128,172,139312,5,4
268,64,139512,1,0
268,64,139612,1,0
268,64,139712,1,8
384,212,139912,1,4
384,212,140112,1,8
244,320,140312,1,4
244,320,140512,1,0
256,192,140712,1,8
268,64,140912,6,4,B|376:72,1,80,4|0
256,192,141312,2,0,B|148:184,1,80,8|0
8,212,141712,2,0,B|87:217,1,80,0|0
180,95,142113,2,0,B|100:89,1,80,8|0
87,217,142512,5,4
104,296,142712,1,0
160,240,142912,1,8
252,118,143112,5,0
236,40,143312,1,4
180,96,143512,1,8
140,164,143712,5,0
308,60,143912,1,8
216,188,144112,6,0,B|244:220|232:268,1,80,4|0
196,384,144512,2,0,B|168:352|180:304,1,80,8|0
340,168,144912,2,0,B|368:200|356:248,1,80,0|0
320,364,145312,2,0,B|292:332|304:284,1,80,8|0
432,252,145712,5,4
456,124,145912,1,0
456,124,146012,1,0
456,124,146112,1,8
368,48,146312,1,4
368,48,146512,1,0
340,168,146712,1,12
340,168,146912,1,0
240,76,147112,1,8
240,76,147212,1,0
240,76,147312,6,0,B|196:68|152:92,1,80,4|0
148,176,147712,2,0,B|192:184|236:160,1,80,0|0
88,104,148112,2,0,B|48:160|80:232,1,120,4|0
74,218,148512,1,0
12,312,148712,1,0
124,320,148912,2,4,B|216:332,1,80,4|0
352,304,149312,2,0,B|260:292,1,80,0|0
436,312,149712,2,0,B|452:220,1,80,4|0
368,116,150112,2,0,B|352:208,1,80,4|0
256,216,150512,6,0,B|212:224|176:188,1,80,4|0
176,96,150912,2,0,B|220:88|256:124,1,80,0|0
248,304,151312,2,0,B|180:316|132:264,1,120,4|0
137,270,151712,1,0
88,172,151912,1,0
137,270,152112,2,0,B|60:312,1,80,4|0
374,270,152512,2,0,B|452:312,1,80,0|0
217,279,152912,2,0,B|137:270,1,80,4|0
294,279,153312,2,0,B|374:270,1,80,4|0
200,132,153712,6,0,B|160:188|60:180,1,120,4|0
88,136,154112,2,0,B|62:98|80:56,1,80,0|0
148,84,154512,2,0,B|208:48|276:72,1,120,4|0
280,28,154912,2,0,B|321:32|346:69,1,80,0|0
400,144,155312,6,0,B|456:184|448:284,1,120,4|0
412,312,155712,2,0,B|374:337|332:320,1,80,0|0
188,272,156112,2,0,B|226:246|278:254,1,80,4|0
84,312,156512,2,0,B|43:308|17:271,1,80,4|0
0,148,156912,6,0,B|60:120|119:151,1,120,4|0
152,84,157312,2,0,B|192:104|192:160,1,80,0|0
152,336,157712,2,0,B|120:276|155:216,1,120,4|0
276,237,158112,2,0,B|257:276|212:276,1,80,4|0
360,280,158512,6,0,B|456:268,1,80,4|0
304,152,158912,2,0,B|208:164,1,80,0|0
20,248,159312,2,0,B|156:236,1,120,4|0
152,246,159712,1,0
165,254,159812,1,0
179,260,159912,1,0
193,267,160012,1,0
207,274,160112,6,0,B|287:250|367:274,1,160,4|0
468,312,160712,1,2
512,180,160912,2,2,B|434:156|354:180,1,160,6|2
272,80,161512,1,2
184,224,161712,2,0,B|175:263|191:303,1,80,4|2
412,280,162112,2,0,B|422:242|406:202,1,80,0|2
272,80,162512,2,0,B|234:70|194:86,1,80,6|0
256,256,162912,2,0,B|295:265|335:249,1,80,4|0
184,224,163312,6,0,B|106:190|19:225,1,160,4|0
104,292,163912,1,2
216,148,164112,2,2,B|293:116|371:150,1,160,6|2
456,192,164712,1,2
412,312,164912,2,2,B|371:316|340:286,1,80,4|2
164,260,165312,2,2,B|244:260,1,80,0|2
64,328,165712,2,0,B|35:295|38:254,1,80,4|0
80,88,166112,1,0
88,108,166212,1,0
160,160,166412,1,0
176,172,166512,6,2,B|256:220|340:172,1,160,6|0
176,52,167112,1,0
484,164,167312,2,2,B|404:116|320:164,1,160,6|0
400,236,167912,1,0
504,280,168112,2,2,B|503:319|472:351,1,80,4|2
332,156,168512,2,2,B|333:117|364:85,1,80,0|2
289,295,168912,2,0,B|247:310|212:292,1,80,6|0
168,140,169312,2,2,B|171:96|211:78,1,80,4|2
148,220,169712,6,2,B|69:173|0:232,1,160,6|0
0,128,170312,1,0
153,312,170512,2,2,B|193:312|224:280,1,80,6|0
376,188,170912,2,0,B|340:170|298:184,1,80,2|2
64,196,171312,5,4
148,220,171512,1,2
300,184,171712,5,2
276,104,171912,1,0
220,168,172112,1,6
436,140,172312,5,0
356,124,172512,1,0
356,124,172612,1,0
256,192,172645,12,4,173312
424,95,184912,5,2
463,182,185312,1,0
415,265,185712,1,0
372,179,186112,2,0,B|288:245|323:364,1,192.000004577637,0|2
244,291,187312,2,0,B|272:245|253:192,1,96.0000022888184
159,207,188112,1,0
307,121,188512,1,2
172,40,188912,1,2
208,116,189312,6,0,B|142:32|23:67,1,192.000004577637,0|2
140,168,190912,2,2,B|205:251|312:220,1,192.000004577637
332,308,192112,1,0
288,136,192512,6,0,B|376:80|485:111,2,192.000004577637,0|0|2
288,136,194912,1,0
252,268,195312,1,0
164,368,195712,6,0,B|117:272|174:184,1,192.000004577637,4|2
88,120,196912,1,0
180,72,197312,1,2
256,192,197412,12,0,198912
156,115,199312,5,8
172,208,199512,1,0
172,208,199612,1,0
172,208,199712,1,0
244,144,199912,1,4
264,228,200112,2,0,B|360:232,1,80
448,236,200512,1,4
448,236,200912,5,8
452,140,201112,1,0
452,140,201212,1,0
452,140,201312,1,0
440,40,201512,1,8
372,96,201712,1,0
512,80,201912,1,0
264,80,202112,5,4
264,80,202512,2,0,B|272:132|260:176,1,80,8|0
263,159,202812,1,0
263,159,202912,1,0
176,204,203112,1,4
256,256,203312,1,0
184,112,203512,1,0
96,248,203712,1,4
96,248,204112,5,8
68,336,204312,1,0
68,336,204412,1,0
68,336,204512,1,4
156,360,204712,1,8
188,272,204912,2,0,B|276:248,1,80
432,280,205312,6,0,B|272:328,1,160,4|8
352,192,205912,1,0
352,192,206012,1,0
352,192,206112,2,0,B|428:168,1,80,0|4
384,80,206512,2,0,B|308:104,1,80
256,184,206912,1,4
256,184,207312,5,8
152,224,207512,1,0
152,224,207612,1,0
152,224,207712,1,0
236,300,207912,1,8
112,344,208112,2,0,B|83:315,3,40
75,299,208512,5,0
71,283,208612,1,0
71,267,208712,1,0
71,251,208812,1,0
71,235,208912,1,0
71,219,209012,1,0
71,203,209112,1,0
75,187,209212,1,0
79,171,209312,1,0
83,155,209412,1,0
91,139,209512,1,0
99,127,209612,1,0
111,115,209712,1,0
123,103,209812,1,0
135,95,209912,1,0
151,87,210012,1,0
167,83,210112,1,0
256,192,210212,12,0,211612
256,192,211712,12,4,213312
