osu file format v9

[General]
AudioFilename: lixAxil.ogg
AudioLeadIn: 0
PreviewTime: 102170
Countdown: 0
SampleSet: Normal
StackLeniency: 0.7
Mode: 0
LetterboxInBreaks: 1

[Editor]
DistanceSpacing: 1.1
BeatDivisor: 4
GridSize: 8

[Metadata]
Title:lixAxil
Artist:07th Expansion
Creator:La Cataline
Version:Easy
Source:Umineko no Naku Koro ni Chiru
Tags:when they cry gurasan neko visual novel vass_bass mmzz

[Difficulty]
HPDrainRate:3
CircleSize:3
OverallDifficulty:2
ApproachRate:3
SliderMultiplier:1
SliderTickRate:1

[Events]
//Background and Video events
0,0,"bg.png"
//Break Periods
2,82507,87489
//Storyboard Layer 0 (Background)
//Storyboard Layer 1 (Fail)
//Storyboard Layer 2 (Pass)
//Storyboard Layer 3 (Foreground)
//Storyboard Sound Samples
//Background Colour Transformations
3,100,163,162,255

[TimingPoints]
1205,413.793103448276,4,1,1,60,1,0
2446,-133.333333333333,4,1,1,60,0,0
4515,-133.333333333333,4,2,1,40,0,0
5342,-133.333333333333,4,1,1,40,0,0
5756,-133.333333333333,4,1,1,60,0,0
7722,-133.333333333333,4,2,1,40,0,0
8653,-133.333333333333,4,1,1,40,0,0
9377,-133.333333333333,4,1,1,60,0,0
11136,-133.333333333333,4,2,1,40,0,0
11963,-133.333333333333,4,1,1,40,0,0
12687,-133.333333333333,4,1,1,60,0,0
14342,-133.333333333333,4,2,1,40,0,0
15273,-133.333333333333,4,2,1,80,0,0
15584,-133.333333333333,4,1,1,80,0,0
15998,-100,4,1,1,90,0,0
27688,-100,4,2,1,90,0,0
28411,-100,4,1,1,90,0,0
28619,-100,4,2,1,90,0,0
29033,-100,4,1,1,90,0,0
35860,-100,4,2,1,90,0,0
36791,-100,4,1,1,90,0,0
37411,-100,4,2,1,90,0,0
38446,-100,4,1,1,90,0,0
39170,-100,4,2,1,90,0,0
39377,-100,4,1,1,90,0,0
56032,-100,4,2,1,90,0,0
56239,-100,4,1,1,90,0,0
56860,-100,4,2,1,90,0,0
57067,-100,4,1,1,90,0,0
59342,-100,4,2,1,90,0,0
59549,-100,4,1,1,90,0,0
60170,-100,4,2,1,90,0,0
60377,-100,4,1,1,90,0,0
62653,-100,4,2,1,90,0,0
62756,-100,4,1,1,90,0,0
63480,-100,4,2,1,90,0,0
63584,-100,4,1,1,90,0,0
65963,-100,4,2,1,90,0,0
66067,-100,4,1,1,90,0,0
66791,-100,4,2,1,90,0,0
66894,-100,4,1,1,90,0,0
72584,-100,4,2,1,90,0,0
72998,-100,4,1,1,90,0,0
73411,-100,4,2,1,90,0,0
73825,-100,4,1,1,90,0,0
74239,-100,4,2,1,90,0,0
74653,-100,4,1,1,90,0,0
75480,-100,4,2,1,90,0,0
76515,-100,4,1,1,90,0,0
77342,-100,4,2,1,90,0,0
78170,-100,4,1,1,90,0,0
78791,-100,4,2,1,90,0,0
82308,-133.333333333333,4,1,0,90,0,1
82309,-133.333333333333,4,1,0,90,0,0
88723,-133.333333333333,4,1,0,50,0,0
95549,-100,4,1,2,80,0,0
102170,-100,4,1,0,90,0,1
108791,-100,4,1,1,90,0,0
135480,-100,4,2,1,90,0,0
135584,-100,4,1,1,90,0,0
137032,-100,4,2,1,90,0,0
137239,-100,4,1,1,90,0,0
138791,-100,4,2,1,90,0,0
138894,-100,4,1,1,90,0,0
140342,-100,4,2,1,90,0,0
140549,-100,4,1,1,90,0,0
148205,-100,4,2,1,90,0,0
148411,-100,4,1,1,90,0,0

[Colours]
Combo1 : 19,150,206
Combo2 : 255,32,37
Combo3 : 24,219,235
Combo4 : 220,60,31

[HitObjects]
328,80,2860,6,0,B|352:160|328:232,3,149.999995529652,0|4|2|0
168,256,6170,2,0,B|96:264|16:264,1,149.999995529652,0|4
72,104,7825,2,0,B|144:96|224:96,1,149.999995529652,2|0
389,199,9480,6,0,B|317:191|240:192,3,149.999995529652,0|4|2|0
144,328,12791,2,0,B|96:264|120:184,1,149.999995529652,0|4
224,56,14446,2,0,B|272:120|248:200,1,149.999995529652,2|4
168,200,15687,1,4
208,272,16101,5,0
208,272,16515,2,0,B|408:304,1,200,8|4
480,232,17756,1,0
408,144,18170,1,8
304,176,18584,1,0
224,96,18998,1,8
120,128,19411,5,0
32,64,19825,2,0,B|8:160|16:264,1,200,8|4
128,256,21067,2,0,B|184:256|240:264,1,100,0|8
336,280,21894,2,0,B|342:236|342:180,1,100,0|8
440,128,22722,6,0,B|433:171|433:227,1,100,0|8
416,336,23549,2,0,B|314:331|216:336,1,200,0|0
104,312,24791,1,8
56,216,25205,1,0
80,112,25618,1,8
184,64,26032,6,0,B|227:70|283:70,1,100,0|8
224,160,26859,2,0,B|322:164|423:159,1,200,0|12
480,64,28101,1,8
512,168,28515,1,2
464,264,28928,1,12
368,288,29342,6,0,B|320:272|296:200,1,100,6|8
192,192,30170,2,0,B|240:176|264:104,1,100,2|4
312,24,30998,1,2
200,40,31411,1,8
120,112,31826,1,2
88,216,32239,1,8
112,320,32653,6,0,B|160:304|184:232,1,100,2|8
280,208,33481,2,0,B|232:192|208:120,1,100,2|4
200,40,34309,1,2
312,24,34722,1,8
384,104,35137,1,2
488,72,35550,1,8
464,176,35963,6,0,B|432:288|336:344,1,200,4|0
136,288,37618,2,0,B|79:186|107:78,1,200,4|0
256,248,39273,5,4
256,192,39377,12,4,41756
144,168,42584,5,0
360,144,43411,1,2
216,312,44239,2,0,B|336:296,1,100,0|2
408,240,45067,1,0
360,144,45480,1,2
456,88,45894,5,0
264,192,46722,1,2
48,208,47549,2,0,B|64:328,1,100,0|2
168,280,48377,1,2
280,288,48790,1,8
392,280,49205,6,0,B|424:176|384:64,1,200,4|2
216,160,50860,2,0,B|192:112|209:62,1,100,0|2
304,120,51687,2,0,B|327:167|310:217,1,100,0|2
208,264,52515,6,0,B|8:296,1,200,0|2
184,160,54170,2,0,B|72:176,1,100,0|2
136,72,54998,2,0,B|248:56,1,100,2|8
344,43,55825,6,0,B|416:51,2,50,0|2|0
303,145,56653,2,0,B|309:164|308:201,2,50,0|2|0
412,150,57480,2,0,B|415:203|405:261,1,100,0|2
312,306,58308,2,0,B|259:309|201:299,1,100,0|2
321,217,59136,6,0,B|313:145,2,50,0|2|0
215,185,59964,2,0,B|196:179|159:180,2,50,0|2|0
163,282,60791,2,0,B|110:285|52:275,1,100,0|2
6,182,61618,2,0,B|-2:135|0:82,1,100,2|8
110,89,62446,6,0,B|176:69,1,50,0|2
211,60,62860,2,0,B|278:96|366:72,1,150,8|2
407,53,63687,1,8
410,163,64101,2,0,B|408:214|387:278,1,100,0|2
295,314,64929,2,0,B|293:260|318:199,1,100,0|2
327,107,65756,6,0,B|261:87,1,50,0|2
226,78,66170,2,0,B|159:114|71:90,1,150,8|2
30,71,66997,1,12
57,177,67411,2,0,B|72:224|74:275,1,100,0|2
165,338,68239,2,0,B|163:284|188:223,1,100,2|8
207,132,69067,6,0,B|311:107|424:148,1,200,4|0
252,300,70722,2,0,B|148:324|55:290,1,200,0|0
72,71,72377,6,0,B|68:122|62:171,1,100,0|2
154,110,73205,2,0,B|150:161|144:210,1,100,0|2
236,149,74032,2,0,B|232:200|226:249,1,100,0|2
318,188,74860,2,0,B|314:239|308:288,1,100
403,342,75687,6,0,B|435:242|415:134,3,200,4|0|4|0
208,64,78998,2,0,B|176:164|196:272,1,200,4|4
96,311,80239,1,4
82,201,80653,1,4
112,96,81067,1,4
208,64,81480,2,0,B|305:45|415:71,1,200,4|4
111,298,88929,6,2,B|59:294,2,37.4999988824129,4|0|2
180,253,89756,2,2,B|281:251|281:251|320:180|289:80,1,262.499992176891,2|2
216,128,91618,1,0
176,144,91825,6,2,B|137:163|104:152,2,74.9999977648259,2|4|2
136,64,93067,2,2,B|96:184|168:280,1,224.999993294478
192,312,94515,2,2,B|392:312,1,187.499994412065,0|4
464,240,95963,5,8
424,136,96377,1,0
344,208,96791,1,8
312,104,97205,2,0,B|224:80|144:104,2,150,0|0|8
344,208,98860,5,0
280,296,99273,1,8
248,192,99687,1,0
184,280,100101,1,8
152,176,100515,2,0,B|133:115|157:27,2,150,0|0|8
184,280,102170,6,0,B|344:272,1,150,6|2
392,264,102998,2,2,B|400:216|392:152,1,100,0|2
352,64,103825,1,4
280,144,104239,2,0,B|224:152,2,50,0|2|0
248,40,105067,1,2
143,80,105480,6,6,B|112:144|136:232,1,150
144,280,106308,1,4
248,256,106722,1,6
352,280,107136,1,6
456,256,107549,2,0,B|480:200,2,50,0|2|6
384,168,108377,1,6
416,64,108791,6,0,B|320:24|208:64,1,200,0|8
112,80,110032,2,0,B|64:88,2,50,0|2|0
184,168,110860,1,8
264,240,111273,2,0,B|294:194|288:120,1,100,0|8
184,168,112101,6,0,B|148:267|188:363,1,200,0|8
280,304,113342,2,0,B|336:288|392:304,1,100,2|0
480,336,114170,1,8
464,224,114584,1,0
368,176,114998,6,0,B|368:144|376:120,2,50,0|8|0
256,176,115825,2,0,B|258:117|272:72,1,100,8|0
168,104,116653,2,0,B|165:162|152:208,1,100,2|0
48,240,117480,2,0,B|50:181|64:136,2,100,8|0|8
128,312,118722,6,0,B|336:312,1,200,0|8
392,224,119963,2,0,B|416:184|416:128,1,100,2|0
376,24,120791,1,8
272,48,121205,2,0,B|208:56,1,50
168,64,121618,2,0,B|152:120,1,50,0|8
104,128,122032,6,0,B|64:224|104:336,1,200,4|8
208,296,123273,2,0,B|216:320|208:352,2,50,0|2|0
232,192,124101,1,8
304,112,124514,2,0,B|258:81|184:88,1,100,0|8
232,192,125342,6,0,B|331:227|427:187,1,200,0|8
448,296,126583,2,0,B|392:280|336:296,1,100,2|0
240,304,127411,1,8
232,192,127825,1,0
304,112,128239,6,0,B|304:80|296:56,2,50,0|8|0
200,88,129066,2,0,B|141:90|96:104,1,100,8|4
120,200,129894,2,0,B|117:258|104:304,1,100,2|4
216,304,130721,2,0,B|256:316|314:318,2,100,8|0|8
280,216,131963,6,0,B|383:224|496:240,2,200,4|4|4
168,200,134032,1,6
184,88,134446,2,0,B|192:24,1,50,4|0
136,40,134860,2,0,B|72:48,1,50,4|8
32,56,135273,6,0,B|16:168,1,100,4|8
8,264,136101,2,0,B|56:288|120:272,1,100,0|4
208,240,136929,2,0,B|336:176|464:248,1,250,0|8
488,280,138170,1,8
495,167,138584,6,0,B|448:144|425:99,1,100,0|8
319,111,139411,2,0,B|264:112|231:72,1,100,0|4
128,32,140239,2,0,B|40:144|120:272,1,250,0|8
144,312,141480,1,8
248,288,141894,6,0,B|290:302|346:286,1,100,0|8
440,344,142722,2,0,B|456:288|440:240,1,100,0|4
367,167,143549,2,0,B|248:88|133:164,1,250,0|8
88,200,144790,1,8
88,312,145205,6,0,B|144:312|184:256,1,100,0|8
248,344,146032,2,0,B|248:288|304:248,1,100,0|4
368,344,146860,2,0,B|447:224|371:110,1,250,0|8
328,72,148101,2,0,B|264:80,2,50,0|8|4
304,176,148929,5,8
232,256,149342,1,0
200,152,149756,1,4
128,72,150170,2,0,B|64:191|128:311,1,250,0|8
168,344,151411,6,0,B|288:352,1,100,8|4
304,248,152239,2,0,B|184:240,1,100,8|0
272,152,153067,1,4
368,96,153480,2,0,B|431:215|367:335,1,250,0|8
312,344,154722,1,8
200,360,155136,6,0,B|64:224|192:80,1,300,4|4
280,40,156791,2,0,B|320:152|235:222,1,200,4|0
424,344,158446,2,0,B|384:232|468:161,1,200,4|0
416,64,159687,1,4
312,88,160101,5,4
256,192,160205,12,4,161756
