osu file format v9

[General]
AudioFilename: 0f_liberatedliberater.mp3
AudioLeadIn: 0
PreviewTime: 137332
Countdown: 0
SampleSet: Soft
StackLeniency: 0.7
Mode: 0
LetterboxInBreaks: 1

[Editor]
Bookmarks: 81830,97259
DistanceSpacing: 0.3
BeatDivisor: 4
GridSize: 4

[Metadata]
Title:liberatedliberater
Artist:07th Expansion
Creator:Shiirn
Version:Episode 5
Source:Umineko no naku koro ni Chiru
Tags:when they cry bernkastel zts

[Difficulty]
HPDrainRate:9
CircleSize:5
OverallDifficulty:6
ApproachRate:8
SliderMultiplier:1.90000000596046
SliderTickRate:1

[Events]
//Background and Video events
0,0,"bgt.jpg"
//Break Periods
2,116961,131868
//Storyboard Layer 0 (Background)
//Storyboard Layer 1 (Fail)
//Storyboard Layer 2 (Pass)
//Storyboard Layer 3 (Foreground)
//Storyboard Sound Samples
//Background Colour Transformations
3,100,183,54,201
3,100,205,50,50

[TimingPoints]
13904,428.571428571429,4,1,0,67,1,0
27177,-200,4,1,1,100,0,0
27473,-200,4,2,1,100,0,0
27562,-100,4,1,1,89,0,0
53544,-100,4,2,0,100,0,0
55034,-100,4,2,0,100,0,0
89759,-133.333333333333,4,2,0,100,0,0
90830,-100,4,2,0,100,0,0
108187,-100,4,1,0,60,0,0
108509,-100,4,2,0,91,0,0
108609,-100,4,1,0,60,0,0
108937,-100,4,2,0,90,0,0
109037,-100,4,1,0,60,0,0
109366,-100,4,2,0,85,0,0
109466,-100,4,1,0,60,0,0
109794,-100,4,2,0,60,0,0
109894,-100,4,1,0,60,0,0
110011,-100,4,2,0,60,0,0
116759,-100,4,2,0,89,0,0
137332,-100,4,1,1,70,0,1
176759,-100,4,1,0,89,0,1
177187,-100,4,2,0,89,0,1
177402,-100,4,1,0,89,0,1
178476,-100,4,1,0,89,0,1
178478,-100,4,1,0,89,0,0

[Colours]
Combo1 : 238,145,238
Combo2 : 96,32,64
Combo3 : 32,32,223
Combo4 : 213,43,128

[HitObjects]
256,192,13903,1,0
340,112,14118,1,8
256,192,14332,1,0
372,192,14546,1,8
256,192,14761,1,0
340,268,14975,1,8
256,192,15189,1,8
144,192,15403,1,8
144,192,15618,6,0,B|88:168|88:96,1,95.000000298023,0|8
188,60,16046,2,0,B|240:80|240:140,1,95.000000298023,0|8
340,188,16475,2,0,B|340:136|384:104,1,95.000000298023,0|8
444,204,16903,2,8,B|448:264|404:304,1,95.000000298023
264,312,17332,5,0
176,240,17546,1,8
84,308,17761,1,0
176,240,17975,2,0,B|256:156,1,95.000000298023,8|0
176,240,18403,2,8,B|108:168,2,95.000000298023
320,192,19046,6,0,B|416:192,1,95.000000298023,0|8
264,192,19475,2,0,B|364:136,1,95.000000298023,0|8
216,220,19903,2,0,B|232:120,1,95.000000298023,0|8
204,276,20332,2,8,B|152:188,1,95.000000298023
144,64,20761,6,0,B|144:168,1,95.000000298023,0|8
256,148,21189,2,0,B|212:60,1,95.000000298023,0|8
328,64,21618,2,0,B|328:176,1,95.000000298023,0|8
256,244,22046,2,8,B|256:116,1,95.000000298023,8|8
412,328,22475,6,0,B|464:340,3,47.5000001490115,0|0|8|0
364,312,22903,2,0,B|448:264|440:224,1,95.000000298023,0|8
360,232,23332,2,0,B|304:268|240:276,1,95.000000298023,0|8
272,196,23761,2,8,B|340:168|384:132,1,95.000000298023
72,208,24189,6,0,B|101:245,3,47.5000001490115,0|0|8|0
112,260,24618,2,0,B|136:312|136:312|176:312,1,95.000000298023,0|8
196,240,25046,2,0,B|252:216|252:216|252:176,1,95.000000298023,0|8
168,160,25475,2,8,B|168:112|168:112|224:96,1,95.000000298023
255,168,25903,5,0
255,176,26010,1,0
255,183,26117,1,8
256,192,26225,1,0
255,200,26332,1,0
256,208,26439,1,8
256,216,26546,1,0
256,223,26653,1,0
255,232,26760,1,8
255,240,26868,1,0
255,248,26975,1,8
255,255,27082,1,8
256,264,27189,6,0,B|256:320,1,47.5000001490115
255,347,27618,6,0,B|304:328|336:364|392:324,1,95.000000298023,2|0
348,208,28047,2,0,B|380:240|348:260|388:292,1,95.000000298023,0|0
464,144,28475,2,0,B|432:168|468:192|420:228,1,95.000000298023,0|0
332,76,28904,2,0,B|264:84|312:144|228:140,1,95.000000298023
96,112,29332,6,0,B|48:216,1,95.000000298023,2|0
56,198,29761,2,0,B|116:300,1,95.000000298023
104,280,30189,2,0,B|244:288,1,95.000000298023
199,285,30618,2,0,B|272:208,1,95.000000298023
184,64,31046,5,2
188,72,31153,1,0
192,80,31261,1,0
196,88,31368,1,0
200,96,31475,2,0,B|288:120|316:168,1,95.000000298023
212,208,31903,2,0,B|156:232|164:324,1,95.000000298023
264,308,32332,2,0,B|320:320|368:296,1,95.000000298023
412,124,32761,5,2
396,124,32868,1,0
380,124,32975,1,0
364,124,33082,1,0
348,124,33189,1,0
388,192,33404,1,0
348,260,33618,5,0
364,260,33725,1,0
380,260,33832,1,0
396,260,33939,1,0
412,260,34046,1,2
388,192,34261,2,0,B|272:192,1,95.000000298023,0|2
200,192,34689,5,0
188,200,34796,1,0
176,208,34904,1,0
80,164,35118,1,0
84,176,35225,1,0
88,188,35332,1,0
100,300,35546,2,0,B|144:340|168:288|220:312,1,95.000000298023
304,300,35975,2,0,B|248:288|244:324|184:300,1,95.000000298023,0|2
256,204,36404,5,0
268,196,36511,1,0
280,188,36618,1,0
292,180,36725,1,0
304,172,36832,1,0
316,164,36939,1,0
328,156,37046,2,0,B|382:122|392:72,1,95.000000298023
276,72,37475,2,0,B|224:76|192:116,1,95.000000298023
100,180,37904,6,0,B|56:236|128:236|68:300,1,95.000000298023,2|0
104,272,38225,1,0
116,276,38332,1,0
128,280,38439,1,0
140,284,38546,1,0
152,288,38654,1,0
164,292,38761,2,0,B|224:316|284:312,1,95.000000298023
340,236,39189,2,0,B|296:212|212:220,1,95.000000298023
128,208,39618,6,0,B|88:188|80:132,1,95.000000298023,2|0
176,72,40046,2,0,B|152:124|192:160,1,95.000000298023
280,88,40475,1,0
272,100,40582,1,0
264,112,40689,1,0
256,124,40796,1,0
248,136,40904,1,0
240,148,41011,1,0
232,160,41118,1,0
224,172,41225,1,0
216,184,41332,6,0,B|176:240|220:312,1,95.000000298023,2|0
304,224,41761,2,0,B|344:280|308:320,1,95.000000298023
204,340,42189,2,0,B|132:340|80:308,1,95.000000298023
28,244,42618,2,0,B|48:168|104:136,1,95.000000298023
148,76,43046,5,2
160,84,43154,1,0
172,92,43261,1,0
184,100,43368,1,0
196,108,43475,2,0,B|284:168,1,95.000000298023
268,88,43904,1,0
256,96,44012,1,0
244,104,44119,1,0
232,112,44226,1,0
220,120,44333,2,0,B|132:180,1,95.000000298023
48,236,44761,6,0,B|168:236,1,95.000000298023,2|0
48,296,45189,2,0,B|152:296,1,95.000000298023
48,356,45618,2,0,B|144:356,1,95.000000298023
144,236,46046,2,0,B|188:288|264:284,1,95.000000298023
256,184,46475,5,2
268,180,46582,1,0
280,176,46689,2,0,B|248:140|268:88,2,95.000000298023,0|0|2
356,156,47332,5,0
360,168,47439,1,0
364,180,47546,1,0
368,192,47653,1,0
376,204,47761,1,0
380,216,47868,1,0
384,228,47975,1,0
388,240,48082,1,0
392,248,48189,6,0,B|416:320|364:348,1,95.000000298023,2|0
284,292,48618,1,0
200,356,48832,1,0
262,275,49046,1,0
164,313,49260,1,0
246,253,49475,1,0
141,263,49689,1,0
237,228,49904,5,2
133,208,50118,1,0
235,201,50332,1,0
141,154,50546,1,0
252,176,50761,2,0,B|284:128|360:128,1,95.000000298023
428,172,51189,2,0,B|472:208|464:272,1,95.000000298023
360,268,51618,5,2
360,252,51725,1,0
360,236,51832,1,0
360,220,51939,1,0
360,204,52046,1,0
256,192,52154,12,0,53332
256,40,53546,5,8
84,192,53868,1,8
428,192,54189,1,8
256,100,54618,5,8
256,248,54832,1,8
256,100,55046,2,0,B|256:212,1,95.000000298023,2|0
256,195,55475,1,2
464,352,55903,6,0,B|464:224,1,95.000000298023,2|0
464,257,56332,1,2
464,257,56546,1,0
464,257,56761,2,2,B|432:212|396:224|372:188,1,95.000000298023
388,204,57046,1,2
388,204,57118,1,2
388,204,57189,1,2
256,132,57403,5,0
256,256,57618,1,2
152,192,57832,1,0
276,192,58046,1,2
152,192,58261,1,2
256,32,58475,5,2
380,32,58689,1,0
256,32,58903,1,2
256,336,59332,5,2
132,336,59546,1,0
256,336,59761,1,2
256,104,59975,5,2
256,112,60046,1,2
256,120,60118,1,2
256,128,60189,1,2
256,280,60403,5,2
256,272,60474,1,2
256,264,60546,1,2
256,256,60617,1,2
256,196,60832,5,0
428,192,61046,1,2
256,196,61261,1,2
264,196,61332,1,2
272,196,61403,1,2
280,196,61475,1,2
428,192,61689,1,0
184,76,61904,6,0,B|144:72|152:120|84:100,1,95.000000298023,2|0
97,103,62332,1,2
182,308,62761,2,0,B|144:312|152:264|97:280,1,95.000000298023,2|0
97,280,63189,1,2
97,280,63403,2,0,B|80:244|112:232|96:184,1,95.000000298023,0|2
192,160,63832,2,2,B|252:160,3,31.6666667660077
256,304,64261,6,0,B|324:240,1,95.000000298023,0|2
256,192,64689,1,0
256,84,64903,2,0,B|172:160,1,95.000000298023,2|0
256,192,65332,2,0,B|372:192,1,95.000000298023,0|2
464,192,65761,1,2
352,192,65975,1,2
352,80,66189,5,0
236,76,66404,1,2
228,84,66475,1,2
220,92,66546,1,2
212,100,66618,1,2
96,104,66832,1,0
212,100,67046,5,0
96,104,67261,1,2
104,112,67332,1,2
112,120,67404,1,2
120,128,67475,1,2
228,164,67689,2,0,B|180:196|156:252,1,95.000000298023,0|2
260,296,68118,2,0,B|308:264|332:208,1,95.000000298023,0|2
320,112,68546,1,0
216,68,68761,6,0,B|164:80|132:112,1,95.000000298023,2|0
220,164,69189,1,2
368,312,69618,1,2
436,236,69832,2,0,B|392:212|316:212,2,95.000000298023,0|2|0
400,136,70475,1,2
300,112,70689,1,2
292,120,70761,1,2
284,128,70832,1,2
276,136,70904,1,2
176,104,71118,6,0,B|112:120|112:120|112:176,1,95.000000298023,0|2
204,196,71546,1,0
120,256,71761,1,2
212,212,71975,1,0
152,300,72189,1,2
228,228,72404,1,0
196,328,72618,1,2
288,140,73046,5,2
244,236,73261,1,0
288,140,73475,1,2
280,244,73689,1,2
288,248,73761,1,2
296,248,73832,1,2
304,248,73904,1,2
312,144,74118,1,2
320,144,74189,1,2
328,140,74261,1,2
336,136,74332,1,2
340,240,74546,5,0
336,344,74761,1,2
424,288,74975,1,2
416,288,75046,1,2
408,288,75118,1,2
400,288,75189,1,2
296,292,75404,1,0
196,256,75618,5,2
92,256,75832,1,0
196,256,76046,1,2
256,56,76475,5,2
156,76,76689,1,0
224,156,76904,1,2
256,56,77118,1,0
200,144,77332,5,2
312,144,77546,1,2
304,152,77618,1,2
296,160,77689,1,2
288,168,77761,1,2
188,192,77975,1,0
256,268,78189,5,2
328,192,78404,1,0
396,272,78618,1,2
464,192,78832,1,0
392,116,79046,1,2
464,192,79261,1,0
396,272,79475,1,2
328,192,79689,2,0,B|296:148|292:224|244:192,1,95.000000298023,0|2
140,192,80118,5,2
140,192,80189,1,2
140,192,80261,1,2
140,192,80332,1,2
60,192,80546,1,0
136,264,80761,1,2
56,264,80975,1,2
56,264,81046,1,2
56,264,81118,1,2
56,264,81189,1,2
24,192,81404,2,0,B|12:136|44:104,1,95.000000298023,0|2
112,64,81832,6,2,B|160:56,2,47.5000001490115
140,92,82154,2,2,B|164:144,2,47.5000001490115
196,128,82475,2,0,B|376:208|192:256|348:340,1,285.000000894069
360,340,83225,5,2
376,340,83332,2,0,B|444:344|492:320|492:268|492:268|492:224|460:196|400:192,1,285.000000894069
388,192,84082,1,2
372,192,84189,1,0
276,148,84404,2,2,B|260:176,3,31.6666667660077
196,92,84832,6,0,B|120:188,1,95.000000298023,0|2
92,72,85261,2,0,B|28:144,2,95.000000298023,0|2|2
100,192,85904,2,0,B|44:262|75:340|144:387|225:347,1,285.000000894069
380,108,86761,6,2,B|384:184|300:188|304:284,2,190.000000596046
217,280,88261,5,0
217,280,88368,1,2
217,280,88475,2,0,B|216:192|128:192|128:120,1,190.000000596046,0|2
336,120,89332,1,2
336,120,89761,2,0,B|408:126|447:177|436:249|386:288|314:281|274:231|285:159,1,356.249990500509
272,156,90939,1,0
264,144,91046,1,2
376,96,91261,5,0
376,96,91332,1,0
376,96,91404,1,0
376,96,91475,1,2
328,192,91689,1,0
288,288,91904,1,2
244,192,92118,1,0
304,116,92332,6,2,B|402:150|441:250,2,190.000000596046,2|0|2
80,80,93618,2,0,B|64:148|104:200,1,95.000000298023
96,184,93939,1,0
104,196,94046,2,0,B|184:248,2,95.000000298023,2|0|0
112,184,94582,5,0
124,180,94689,1,0
140,176,94796,1,0
156,172,94904,1,2
172,168,95011,1,0
188,164,95118,1,0
204,160,95225,1,0
220,156,95332,1,2
236,152,95439,1,0
248,148,95546,1,0
264,144,95654,1,0
276,140,95761,1,2
292,136,95868,1,0
308,132,95975,1,0
324,128,96082,1,2
340,124,96189,6,0,B|413:124|476:180|476:292|413:348|336:384|184:320,1,475.000001490115
324,184,97475,2,0,B|408:204|384:288|320:292|256:276,1,190.000000596046,2|2
192,280,98118,1,2
184,276,98189,1,0
176,272,98261,1,0
168,268,98332,1,0
104,192,98546,5,0
180,120,98761,1,2
280,88,98975,1,0
384,72,99189,2,0,B|484:128|484:128|484:212,2,190.000000596046,2|0|0
88,68,100475,2,0,B|44:160|88:252,2,190.000000596046,2|0|0
280,156,101761,1,2
112,280,102189,5,2
160,332,102404,1,2
160,332,102475,1,2
160,332,102546,1,2
160,332,102618,1,2
228,348,102832,1,2
300,348,103046,6,0,B|328:276|400:252|400:252|468:228|448:132,1,285.000000894069
440,124,103796,1,2
428,116,103904,2,0,B|360:76|288:80|240:88,1,190.000000596046
232,96,104439,1,2
220,104,104546,1,2
208,112,104654,1,2
196,120,104761,6,0,B|136:160|136:296,1,190.000000596046,0|2
64,216,105404,2,0,B|152:176|268:216,1,190.000000596046,0|2
172,292,106046,2,0,B|216:312|268:296,1,95.000000298023,2|0
280,292,106368,1,2
292,288,106475,2,0,B|339:365|455:333|515:261|475:133|392:104|288:132|276:200|276:200|264:260|184:236,1,570.000001788138
192,236,107868,1,2
180,228,107975,1,2
168,220,108082,1,2
124,280,108189,6,0,B|236:384,1,142.500000447034
284,364,108618,2,0,B|179:267,1,142.500000447034
236,256,109046,2,0,B|348:360,1,142.500000447034
396,344,109475,2,0,B|291:247,1,142.500000447034
256,192,109904,12,0,112904
104,192,113332,5,0
408,192,113761,1,0
256,192,113832,12,4,116761
256,192,132618,12,0,136475
76,192,137332,6,0,B|48:96,1,95.000000298023,4|0
152,120,137761,1,4
360,144,138189,2,0,B|308:248,1,95.000000298023,4|0
252,148,138618,1,4
92,312,139046,6,0,B|52:212,1,95.000000298023,4|0
56,223,139475,2,4,B|168:224,1,95.000000298023
164,260,139761,2,0,B|164:316,2,31.6666667660077,0|0|0
256,192,140118,2,0,B|208:280,1,95.000000298023,4|0
324,264,140546,1,4
436,236,140761,5,4
436,132,140975,2,0,B|336:180,1,95.000000298023,0|4
172,60,141618,2,0,B|172:172,1,95.000000298023,4|0
172,60,142046,1,4
380,88,142475,6,0,B|448:160,2,95.000000298023,4|0|4
332,180,143118,1,4
340,176,143189,1,0
348,172,143261,1,0
356,168,143332,1,0
296,80,143546,2,0,B|384:152,2,95.000000298023,4|0|4
192,84,144189,5,4
100,136,144404,1,0
188,192,144618,1,4
188,192,145046,1,4
188,296,145261,1,0
280,244,145475,1,4
280,244,145904,5,4
384,264,146118,1,0
356,164,146332,1,4
280,244,146546,1,4
272,252,146618,1,0
264,260,146689,1,0
256,268,146761,1,0
176,336,146975,1,4
92,276,147189,1,0
180,220,147404,1,4
92,276,147618,5,4
88,172,147832,1,0
180,120,148046,1,4
388,156,148475,1,4
436,248,148689,1,0
372,328,148904,1,4
164,324,149332,5,4
252,268,149546,1,0
344,216,149761,1,4
428,156,149975,1,4
432,148,150046,1,0
436,140,150118,1,0
436,132,150189,1,0
372,52,150404,2,0,B|380:124|316:152,2,95.000000298023,4|0|4
268,56,151046,6,0,B|208:156,1,95.000000298023,4|0
120,104,151475,1,4
52,304,151904,1,4
148,264,152118,1,0
44,244,152332,1,4
72,36,152761,6,0,B|184:36,1,95.000000298023,4|0
72,36,153189,2,0,B|72:144,1,95.000000298023,4|4
72,140,153475,1,0
72,148,153546,1,0
72,156,153618,2,0,B|72:208|116:256,1,95.000000298023,0|4
172,164,154046,2,0,B|208:204|232:264,1,95.000000298023,0|4
328,236,154475,5,4
352,220,154689,1,0
376,204,154904,1,4
240,44,155332,1,4
256,68,155546,1,0
276,92,155761,1,4
92,188,156189,5,4
56,228,156404,2,0,B|88:268|164:264,1,95.000000298023,0|4
244,256,156832,2,0,B|232:296,3,31.6666667660077,4|0|0|0
332,284,157261,1,4
424,300,157475,1,0
400,212,157689,1,4
364,112,157904,5,4
340,128,158118,1,0
316,144,158332,1,4
108,132,158761,2,0,B|48:220,1,95.000000298023,4|0
148,208,159189,1,4
284,316,159618,5,4
196,264,159832,1,0
108,204,160046,1,4
204,160,160261,1,4
212,160,160332,1,0
220,160,160404,1,0
228,160,160475,1,0
316,192,160689,1,4
372,268,160904,1,0
432,196,161118,1,4
420,100,161332,6,0,B|368:80|324:104,2,95.000000298023,4|0|4
327,282,162189,2,0,B|368:304|420:284,2,95.000000298023,4|0|4
420,100,163046,6,0,B|368:80|324:104,2,95.000000298023,4|0|4
420,200,163689,1,4
416,208,163761,1,0
412,216,163832,1,0
408,224,163904,1,0
332,296,164118,2,0,B|384:312|344:332|400:364,2,95.000000298023,4|0|4
256,224,164761,5,4
256,64,164975,1,0
180,192,165189,1,4
256,224,165618,1,4
256,64,165832,1,0
332,192,166046,1,4
332,192,166475,5,4
256,224,166689,1,0
184,192,166904,1,4
256,120,167118,1,4
256,112,167189,1,0
256,104,167261,1,0
256,96,167332,1,0
256,28,167546,2,0,B|324:112,2,95.000000298023,4|0|4
152,48,168189,5,4
128,76,168404,1,0
100,104,168618,1,4
52,160,169046,1,4
168,160,169261,1,0
104,212,169475,1,4
176,240,169904,5,4
236,292,170118,1,0
128,292,170332,1,4
208,336,170546,2,0,B|238:345,3,31.6666667660077,4|0|0|0
300,280,170975,1,4
388,224,171189,1,0
288,188,171404,1,4
222,121,171618,6,0,B|128:96,2,95.000000298023,4|0|4
40,340,172475,1,4
40,196,172689,1,0
164,264,172904,1,4
440,192,173332,5,4
316,264,173546,1,0
436,344,173761,1,4
392,264,173975,2,0,B|360:264,3,31.6666667660077,4|0|0|0
308,196,174404,2,0,B|256:176|204:196,2,95.000000298023,4|0|4
104,192,175046,5,4
104,192,175261,1,0
104,192,175475,2,0,B|64:132|112:60|192:72,1,190.000000596046,4|4
216,164,176118,1,0
272,88,176332,1,4
112,72,176761,5,0
120,84,176868,1,0
128,96,176975,1,0
220,68,177189,1,8
324,72,177404,1,0
316,84,177511,1,0
308,96,177618,1,0
240,176,177832,5,0
340,336,178046,1,8
152,336,178261,1,8
240,276,178475,5,4
