osu file format v9

[General]
AudioFilename: Lastendconductor.mp3
AudioLeadIn: 0
PreviewTime: 89869
Countdown: 0
SampleSet: Soft
StackLeniency: 0.7
Mode: 0
LetterboxInBreaks: 1

[Editor]
DistanceSpacing: 1
BeatDivisor: 4
GridSize: 4

[Metadata]
Title:lastendconductor
Artist:07th Expansion
Creator:W h i t e
Version:Hard
Source:Umineko no Naku Koro ni Chiru
Tags:zts frederica bernkastel lambdadelta

[Difficulty]
HPDrainRate:5
CircleSize:4
OverallDifficulty:6
ApproachRate:7
SliderMultiplier:1.80000000596047
SliderTickRate:2

[Events]
//Background and Video events
0,0,"bg1.jpg"
//Break Periods
2,117739,129589
//Storyboard Layer 0 (Background)
//Storyboard Layer 1 (Fail)
//Storyboard Layer 2 (Pass)
//Storyboard Layer 3 (Foreground)
//Storyboard Sound Samples
//Background Colour Transformations
3,100,163,162,255

[TimingPoints]
7036,431.654676258993,4,2,1,90,1,0
89913,-100,4,2,1,90,0,1
117539,-100,4,2,1,90,0,0
145165,-100,4,2,2,90,0,0
158978,-100,4,2,1,90,0,1
172359,-100,4,2,1,90,0,0
172791,-100,4,2,1,90,0,1
186604,-100,4,2,1,90,0,0

[Colours]
Combo1 : 255,128,255
Combo2 : 0,0,160
Combo3 : 255,128,0

[HitObjects]
172,156,7035,2,0,B|212:116|300:116|344:160,2,180.000000596047,4|8|0
84,136,8115,1,0
16,192,8330,1,8
84,248,8546,1,0
172,228,8762,6,0,B|212:268|300:268|336:228,1,180.000000596047,0|8
336,227,9410,1,0
428,248,9625,1,0
496,192,9840,1,0
428,136,10056,1,8
336,156,10273,1,8
240,120,10489,6,0,B|284:132|292:192|284:252|232:272,1,180.000000596047,0|8
192,192,11136,1,0
192,192,11352,2,0,B|376:192,1,180.000000596047,0|8
384,280,12000,1,0
384,280,12215,6,0,B|340:280|340:312|296:312,1,90.0000002980235,0|0
212,312,12647,2,0,B|172:312|172:280|128:280,1,90.0000002980235,8|0
116,192,13079,2,0,B|152:168|168:116,1,90.0000002980235
256,108,13510,1,8
345,119,13726,2,0,B|360:168|396:192,1,90.0000002980235,8|0
336,260,14158,5,0
256,300,14374,1,8
256,212,14589,1,0
256,212,14805,1,0
176,260,15021,2,0,B|124:280|96:232,1,90.0000002980235,0|8
98,148,15453,2,0,B|124:104|176:124,1,90.0000002980235,0|0
256,76,15884,5,0
256,76,16100,1,8
256,76,16316,2,0,B|256:260,1,180.000000596047,0|8
176,220,16964,2,0,B|212:180|256:176|300:180|340:224,1,180.000000596047,8|0
384,296,17611,1,0
300,324,17827,2,0,B|256:340|208:324,1,90.0000002980235,8|0
128,296,18259,1,0
196,236,18474,5,0
256,168,18690,1,8
316,236,18906,1,0
380,172,19122,2,0,B|416:116|364:36|300:56,1,180.000000596047,0|8
211,55,19769,2,0,B|148:36|96:116|132:172,1,180.000000596047,0|8
184,244,20417,2,0,B|256:220|256:196|256:196|256:220|332:244,1,180.000000596047,8|4
416,268,21064,6,0,B|344:324,1,90.0000002980235,0|8
256,348,21496,1,0
167,323,21712,2,0,B|96:268,1,90.0000002980235,0|0
144,192,22143,2,0,B|160:144|220:136,1,90.0000002980235,8|0
301,137,22575,2,0,B|352:144|368:192,1,90.0000002980235,0|0
300,252,23007,2,0,B|256:268|200:248,1,90.0000002980235,8|0
144,192,23438,5,0
144,192,23654,1,0
212,136,23870,2,0,B|316:136,1,90.0000002980235,8|0
368,192,24302,1,0
368,192,24518,1,0
424,264,24733,6,0,B|396:304|396:304|348:320,1,90.0000002980235,8|0
340,228,25165,2,0,B|256:196|256:196|168:228,1,180.000000596047,0|8
171,226,25812,1,0
155,317,26028,1,0
155,317,26244,2,0,B|116:304|116:304|88:264,1,90.0000002980235,0|8
140,192,26676,5,0
176,108,26892,2,0,B|208:72|256:64|304:72|336:108,1,180.000000596047,0|8
372,192,27539,1,0
379,279,27755,2,0,B|328:276|300:313,1,90.0000002980235
211,313,28187,2,0,B|184:276|132:279,1,90.0000002980235,8|0
100,192,28618,2,0,B|116:152|180:132,1,90.0000002980235
256,112,29050,2,0,B|256:16,2,90.0000002980235,8|0|0
344,136,29697,2,8,B|396:152|412:192,1,90.0000002980235,0|8
336,240,30129,5,0
336,240,30345,2,0,B|316:276|256:284|196:276|172:232,1,180.000000596047,0|8
256,192,30992,1,0
176,144,31208,2,0,B|196:108|256:100|316:108|340:152,1,180.000000596047,0|8
412,192,31856,1,0
464,120,32071,6,0,B|500:156|508:200|500:244|464:280,1,180.000000596047,0|8
372,288,32719,2,0,B|324:272|296:232,1,90.0000002980235
256,160,33151,1,0
212,236,33366,2,0,B|188:272|140:288,1,90.0000002980235,8|0
48,280,33798,2,8,B|12:244|4:200|12:156|48:120,1,180.000000596047,8|8
220,192,34661,6,0,B|36:192,1,180.000000596047,6|8
92,116,35309,1,0
172,76,35525,1,0
256,48,35741,1,0
340,76,35956,1,8
420,116,36172,2,0,B|468:192|468:192|416:272,1,180.000000596047
332,252,36820,2,0,B|300:208|256:200|212:208|180:252,1,180.000000596047,8|0
92,268,37467,6,0,B|76:224|32:196,1,90.0000002980235,0|8
88,124,37899,1,0
88,124,38115,2,0,B|140:112|176:152,1,90.0000002980235
216,68,38546,2,0,B|256:88|256:88|304:64,1,90.0000002980235,8|0
341,146,38978,2,0,B|372:112|428:124,1,90.0000002980235
476,200,39410,6,0,B|488:312|380:332,1,180.000000596047,8|0
320,268,40057,1,0
256,204,40273,1,8
192,268,40489,1,0
127,331,40705,2,0,B|24:312|36:200,1,180.000000596047,0|8
76,116,41352,5,0
148,60,41568,2,0,B|148:132|148:132|200:144|220:208,1,180.000000596047,0|8
256,288,42215,1,0
292,206,42431,2,0,B|316:140|364:132|364:132|364:60,1,180.000000596047,0|8
436,116,43079,1,0
436,116,43294,6,0,B|468:144|484:192|484:192|468:240|432:272,1,180.000000596047,0|8
356,232,43942,2,0,B|316:140,1,90.0000002980235
256,84,44374,1,0
192,148,44589,2,0,B|157:231,1,90.0000002980235,8|0
72,268,45021,2,0,B|40:240|24:192|24:192|40:144|76:112,1,180.000000596047,0|8
136,56,45669,6,0,B|168:28|216:16,1,90.0000002980235
256,96,46100,1,0
296,16,46316,2,0,B|344:28|376:56,1,90.0000002980235,8|0
336,136,46748,2,0,B|376:224|296:308,1,180.000000596047,0|8
209,301,47395,2,0,B|136:224|176:136,1,180.000000596047,0|8
256,96,48043,1,8
344,120,48259,1,0
292,192,48474,6,0,B|476:192,1,180.000000596047,6|8
420,268,49122,1,0
340,308,49338,1,0
256,336,49554,1,0
172,308,49769,1,8
92,268,49985,2,0,B|44:192|44:192|96:112,1,180.000000596047
180,132,50633,2,0,B|212:176|256:184|300:176|332:132,1,180.000000596047,8|0
420,116,51280,6,0,B|436:160|480:188,1,90.0000002980235,0|8
424,260,51712,1,0
424,260,51928,2,0,B|372:272|336:232,1,90.0000002980235
296,316,52359,2,0,B|256:296|256:296|208:320,1,90.0000002980235,8|0
171,238,52791,2,0,B|140:272|84:260,1,90.0000002980235
36,184,53223,6,0,B|24:72|132:52,1,180.000000596047,8|0
192,116,53870,1,0
256,180,54086,1,8
320,116,54302,1,0
384,52,54518,2,0,B|488:72|476:184,1,180.000000596047,0|8
436,268,55165,5,0
364,324,55381,2,0,B|364:252|364:252|312:240|292:176,1,180.000000596047,0|8
256,96,56028,1,0
220,178,56244,2,0,B|196:244|148:252|148:252|148:324,1,180.000000596047,0|8
76,268,56892,1,0
76,268,57107,6,0,B|44:240|28:192|28:192|44:144|80:112,1,180.000000596047,0|8
156,152,57755,2,0,B|196:244,1,90.0000002980235
256,300,58187,1,0
321,235,58402,2,0,B|356:152,1,90.0000002980235,8|0
440,116,58834,2,0,B|472:144|488:192|488:192|472:240|436:272,1,180.000000596047,4|8
376,328,59482,6,0,B|344:356|296:368,1,90.0000002980235
256,288,59913,1,8
215,367,60129,2,0,B|168:356|136:328,1,90.0000002980235,8|0
88,252,60561,2,0,B|36:252|16:196|32:132|88:132,2,180.000000596047,0|8|0
176,248,61640,1,0
256,268,61856,6,0,B|256:304,6,22.5000000745059,2|0|0|0|0|0|2
256,247,62287,6,0,B|348:232,1,90.0000002980235,4|0
364,144,62719,2,0,B|320:128|296:76,1,90.0000002980235,8|0
256,8,63151,1,0
212,83,63366,2,0,B|192:128|148:144,1,90.0000002980235,0|8
167,232,63798,2,0,B|260:248,1,90.0000002980235
256,336,64230,5,0
256,336,64446,1,8
336,296,64661,1,0
336,296,64877,2,0,B|380:264|364:216,1,90.0000002980235
452,192,65309,2,0,B|424:148|364:136,1,90.0000002980235,8|0
296,112,65741,2,0,B|272:128|256:192|256:192|240:128|220:112,1,180.000000596047,0|8
131,140,66388,2,0,B|88:148|60:192,1,90.0000002980235,0|0
147,217,66820,5,0
147,217,67036,2,0,B|132:268|180:300,1,90.0000002980235,8|0
256,336,67467,2,0,B|256:152,1,180.000000596047,0|8
256,64,68115,1,0
344,88,68330,2,0,B|387:120|371:172,1,90.0000002980235,0|8
372,167,68762,1,8
464,168,68978,6,0,B|464:216|420:260,1,90.0000002980235
364,312,69410,2,0,B|324:284|312:236,1,90.0000002980235,0|8
256,312,69841,2,0,B|256:356,2,45.0000001490117
198,240,70273,2,0,B|188:284|148:312,1,90.0000002980235,0|8
81,249,70705,1,0
81,249,70920,2,0,B|48:216|48:168,1,90.0000002980235
88,88,71352,6,0,B|120:60|120:60|184:60,1,90.0000002980235,8|0
212,140,71784,2,0,B|256:120|312:144,1,90.0000002980235
344,60,72215,2,0,B|392:60|392:60|428:92,1,90.0000002980235,8|0
404,176,72647,1,0
328,220,72863,1,0
400,272,73079,2,0,B|376:332|300:340|256:280|256:280|212:340|132:332|108:268,1,360.000001192094,8|8
184,220,74158,1,0
108,176,74374,2,0,B|56:192|36:248,1,90.0000002980235
20,144,74805,5,8
88,88,75021,1,0
180,76,75237,1,0
256,28,75453,1,8
332,80,75669,2,0,B|344:124|344:124|340:172,1,90.0000002980235,8|0
256,137,76100,6,0,B|164:152,1,90.0000002980235,4|0
147,235,76532,2,0,B|192:256|208:300,1,90.0000002980235,8|0
256,376,76964,1,0
300,300,77179,2,0,B|320:255|364:239,1,90.0000002980235,0|8
344,151,77611,2,0,B|252:136,1,90.0000002980235
256,48,78043,5,0
256,48,78259,1,8
176,88,78474,1,0
176,88,78690,2,0,B|132:120|148:168,1,90.0000002980235
60,192,79122,2,0,B|88:236|148:248,1,90.0000002980235,8|0
216,272,79554,2,0,B|240:256|256:192|256:192|272:256|292:272,1,180.000000596047,0|8
381,244,80201,2,0,B|424:236|452:192,1,90.0000002980235,0|0
364,166,80633,5,0
364,166,80849,2,0,B|380:116|332:84,1,90.0000002980235,8|0
256,48,81280,2,0,B|256:232,1,180.000000596047,0|8
256,320,81928,1,0
168,296,82143,2,0,B|124:263|140:211,1,90.0000002980235,0|8
139,216,82575,1,8
48,216,82791,6,0,B|48:168|92:124,1,90.0000002980235
148,72,83223,2,0,B|188:100|200:148,1,90.0000002980235,0|8
256,72,83654,2,0,B|256:28,2,45.0000001490117
313,143,84086,2,0,B|324:100|364:72,1,90.0000002980235,0|8
430,134,84518,1,0
430,134,84733,2,0,B|464:168|464:216,1,90.0000002980235
424,296,85165,6,0,B|392:324|392:324|328:324,1,90.0000002980235,8|0
300,244,85597,2,0,B|256:264|200:240,1,90.0000002980235
167,324,86028,2,0,B|120:324|120:324|84:292,1,90.0000002980235,8|0
108,208,86460,1,0
184,164,86676,1,0
112,112,86892,2,0,B|136:52|212:44|256:104|256:104|300:44|380:52|404:116,1,360.000001192094,8|8
328,164,87971,1,0
404,208,88187,1,0
388,296,88402,5,0
388,296,88618,2,0,B|340:292|304:268,1,90.0000002980235,8|0
256,192,89050,1,0
303,116,89266,2,0,B|340:92|388:88,2,90.0000002980235,8|8|0
208,100,89913,6,0,B|100:108|72:232,2,180.000000596047,4|8|0
212,188,90992,1,0
256,264,91208,1,8
300,188,91424,1,0
304,100,91640,2,0,B|412:108|440:232,1,180.000000596047,0|8
352,264,92287,5,0
352,264,92503,2,0,B|336:308|336:308|296:332,1,90.0000002980235,0|0
256,252,92935,1,8
213,330,93151,1,0
213,330,93366,2,0,B|176:308|176:308|160:260,1,90.0000002980235
108,192,93798,2,0,B|200:192,1,90.0000002980235,8|0
198,192,94230,1,0
152,116,94446,5,0
196,36,94661,1,8
256,104,94877,1,0
316,36,95093,2,0,B|408:48|408:48|460:140,1,180.000000596047,0|8
360,116,95741,1,0
328,200,95956,2,0,B|308:244|256:264|204:244|184:200,1,180.000000596047,0|8
152,116,96604,1,0
61,123,96820,2,0,B|104:48|104:48|200:36,2,180.000000596047,0|8|0
60,212,97899,5,0
92,296,98115,2,0,B|128:320|176:328,1,90.0000002980235,8|0
256,284,98546,2,0,B|256:192,2,90.0000002980235,0|0|8
336,328,99194,2,0,B|384:321|420:297,1,90.0000002980235,0|0
452,212,99625,1,0
424,128,99841,2,0,B|380:108|380:108|344:76,1,90.0000002980235,8|0
256,80,100273,2,0,B|256:172,2,90.0000002980235,0|0|8
163,80,100920,2,0,B|132:108|132:108|88:128,1,90.0000002980235,0|0
24,192,101352,6,0,B|92:260,1,90.0000002980235,0|8
172,224,101784,1,0
172,224,102000,2,0,B|180:180|180:180|220:144,1,90.0000002980235
256,72,102431,1,8
256,72,102647,1,0
298,149,102863,2,0,B|332:180|332:180|340:228,1,90.0000002980235
424,255,103294,2,0,B|488:192,1,90.0000002980235,8|0
416,136,103726,6,0,B|332:168|332:168|304:256,1,180.000000596047,4|8
256,176,104374,1,0
300,96,104589,1,0
256,16,104805,1,0
212,96,105021,1,8
256,176,105237,1,0
207,253,105453,2,0,B|180:168|180:168|96:136,1,180.000000596047,0|8
112,220,106100,5,0
168,288,106316,2,0,B|256:308|256:308|344:288,1,180.000000596047,0|8
400,220,106964,1,0
460,152,107179,2,0,B|420:60|316:56,1,180.000000596047,0|8
256,120,107827,1,0
192,56,108043,2,0,B|92:60|52:152,1,180.000000596047,0|8
132,192,108690,6,0,B|180:204|204:256,1,90.0000002980235
256,320,109122,2,0,B|256:290,3,30.0000000993412,0|0|0|8
312,247,109553,2,0,B|332:204|380:192,1,90.0000002980235
396,104,109985,5,0
312,136,110201,1,8
256,64,110417,1,0
200,136,110633,1,0
116,104,110848,1,0
116,103,111064,2,0,B|148:20|256:-40|364:20|396:104,1,360.000001192094,8|8
400,196,112143,5,0
356,276,112359,2,0,B|304:280|292:328,1,90.0000002980235
256,244,112791,1,8
220,328,113007,2,0,B|208:280|156:276,1,90.0000002980235
112,196,113438,1,0
128,108,113654,1,8
128,108,113870,2,0,B|160:68|160:68|208:68,1,90.0000002980235
256,0,114302,1,0
313,68,114518,2,0,B|352:68|352:68|384:108,1,90.0000002980235,8|0
424,188,114949,6,0,B|384:204|332:200,1,90.0000002980235
256,160,115381,1,8
176,200,115597,2,0,B|128:204|88:188,1,90.0000002980235,0|4
84,280,116028,2,0,B|100:324|100:324|148:364,1,90.0000002980235,0|0
212,308,116460,2,0,B|256:288|308:312,1,90.0000002980235,4|0
378,351,116892,2,0,B|412:324|412:324|428:280,1,90.0000002980235,0|4
420,192,117323,1,0
420,192,117539,1,4
492,240,130489,5,2
424,296,130705,1,0
332,308,130921,1,2
256,356,131137,1,0
180,304,131352,2,0,B|168:260|168:260|172:212,1,90.0000002980235,8|0
256,184,131784,6,0,B|256:92,1,90.0000002980235,2|0
304,20,132215,2,0,B|348:44|344:100,2,90.0000002980235,0|2|8
208,20,132863,2,0,B|164:44|168:100,2,90.0000002980235,0|2|0
256,96,133510,2,0,B|256:276,1,180.000000596047,8|2
336,320,134158,1,0
256,360,134374,1,8
176,320,134589,1,2
92,288,134805,5,0
92,288,135021,2,0,B|112:248|112:248|160:224,1,90.0000002980235,2|8
180,140,135453,2,0,B|168:92|216:56,1,90.0000002980235,2|0
301,60,135884,2,0,B|344:96|332:148,1,90.0000002980235,0|10
359,227,136316,2,0,B|400:248|400:248|424:292,1,90.0000002980235
421,287,136748,1,0
348,336,136964,6,0,B|312:304|296:264,1,90.0000002980235,10|0
256,184,137395,1,0
216,263,137611,2,0,B|200:304|164:336,1,90.0000002980235,10|0
256,336,138043,1,0
256,336,138259,2,0,B|256:152,1,180.000000596047,0|10
180,192,138906,1,0
180,192,139122,2,0,B|208:236|256:240|304:236|332:192,1,180.000000596047,0|8
400,116,139769,6,0,B|356:144|348:192|356:240|404:268,1,180.000000596047,0|8
436,192,140416,1,0
436,192,140632,2,0,B|252:192,1,180.000000596047,0|10
164,192,141280,1,0
164,192,141496,1,8
108,120,141712,2,0,B|88:176|56:192|56:192|88:212|108:264,1,180.000000596047,0|8
236,128,142575,5,0
324,148,142791,1,0
324,236,143007,1,8
236,256,143223,1,0
172,192,143438,1,0
172,192,143654,2,0,B|352:192,1,180.000000596047,0|8
364,280,144302,5,0
300,344,144518,2,0,B|208:344,1,90.0000002980235,0|8
148,280,144949,1,0
88,212,145165,6,0,B|16:264,2,90.0000002980235,8|0|8
172,176,145812,1,0
256,148,146028,1,0
340,176,146244,1,8
424,212,146460,1,0
424,212,146676,2,0,B|496:264,2,90.0000002980235,8|0|0
348,260,147323,5,8
300,336,147539,2,0,B|256:320|212:336,1,90.0000002980235
164,260,147971,1,8
108,192,148187,1,0
108,192,148402,1,0
152,112,148618,6,0,B|136:64|76:40,2,90.0000002980235,8|0|8
200,188,149266,1,0
256,260,149482,1,0
312,188,149697,1,8
360,112,149913,2,0,B|376:64|436:40,2,90.0000002980235,0|8|0
404,192,150561,5,0
404,192,150777,1,8
344,256,150992,1,0
280,192,151208,2,0,B|188:192,2,90.0000002980235,0|0|8
344,128,151856,1,0
424,172,152071,6,0,B|496:120,2,90.0000002980235,8|0|8
340,208,152718,1,0
256,236,152934,1,0
172,208,153150,1,8
88,172,153366,1,0
88,172,153582,2,0,B|16:120,2,90.0000002980235,8|0|0
164,124,154229,5,8
212,48,154446,2,0,B|256:64|300:48,1,90.0000002980235
348,124,154877,1,8
404,192,155093,1,0
404,192,155308,1,0
360,272,155524,6,0,B|376:320|436:344,2,90.0000002980235,0|0|8
312,196,156172,1,0
256,124,156388,1,0
200,196,156603,1,8
152,272,156819,2,0,B|136:320|76:344,2,90.0000002980235,0|8|8
256,236,158115,5,0
166,240,158331,1,2
84,276,158546,1,0
36,352,158762,1,2
36,352,158978,2,0,B|220:352,1,180.000000596047,4|8
296,352,159625,5,0
296,352,159841,2,0,B|480:352,1,180.000000596047,0|8
428,276,160489,2,0,B|336:236,1,90.0000002980235
304,160,160920,1,0
348,80,161136,1,8
164,80,161568,5,0
208,160,161784,1,0
166,240,162000,2,0,B|84:276,1,90.0000002980235,8|0
0,240,162431,1,0
68,180,162647,1,0
28,100,162863,2,0,B|104:56|104:56|196:36,1,180.000000596047,8|0
256,104,163510,5,8
317,36,163726,2,0,B|408:56|408:56|488:104,1,180.000000596047,8|0
404,140,164374,1,0
476,192,164589,1,8
404,244,164805,1,0
224,244,165237,5,8
256,328,165453,1,8
288,244,165669,1,0
344,180,165884,2,0,B|256:144|168:180,1,180.000000596047,0|8
92,132,166532,1,0
92,132,166748,2,0,B|88:72|160:20|228:36,1,180.000000596047,0|8
256,116,167395,1,0
294,34,167611,2,8,B|348:24|424:68|420:136,1,180.000000596047,0|8
420,131,168474,5,0
332,116,168690,1,0
276,184,168906,1,8
188,168,169122,1,0
180,256,169338,2,0,B|256:304|256:304|332:256,2,180.000000596047,0|8|0
212,172,170417,2,0,B|256:160|300:172,1,90.0000002980235,0|8
332,88,170848,2,0,B|256:40|256:40|180:88,2,180.000000596047,0|8|0
256,140,171928,5,0
256,140,172143,1,0
256,140,172359,1,8
176,180,172575,5,0
172,192,172683,1,0
168,204,172791,2,0,B|256:240|344:204,1,180.000000596047,4|8
420,252,173439,1,0
420,253,173655,2,0,B|424:312|352:364|294:349,1,180.000000596047,0|8
256,268,174302,1,0
217,349,174518,2,8,B|164:360|88:316|92:248,1,180.000000596047,0|8
91,252,175381,5,0
180,268,175597,1,0
236,200,175813,1,8
324,216,176029,1,0
332,128,176245,2,0,B|256:80|256:80|180:128,2,180.000000596047,0|8|0
300,212,177323,2,0,B|256:224|212:212,1,90.0000002980235,0|8
180,296,177755,1,0
180,296,177971,2,0,B|256:344|256:344|332:296,2,180.000000596047,0|8|0
212,212,179050,5,0
148,148,179266,1,8
60,140,179482,1,0
104,64,179697,6,0,B|76:20|20:28,2,90.0000002980235,0|0|8
192,64,180345,1,0
256,128,180561,1,0
320,64,180777,1,0
404,64,180992,2,0,B|432:20|488:28,2,90.0000002980235,8|0|0
452,140,181640,5,0
364,148,181856,1,8
300,212,182071,1,0
256,292,182287,2,0,B|256:384,2,90.0000002980235,0|0|8
212,212,182935,1,0
148,148,183151,1,0
60,140,183366,1,0
60,140,183582,1,8
208,40,184014,5,0
256,116,184230,1,0
304,40,184446,1,8
256,116,184661,1,0
256,192,184877,12,4,186604
