osu file format v9

[General]
AudioFilename: zts_is_so_awesome.mp3
AudioLeadIn: 0
PreviewTime: 89924
Countdown: 0
SampleSet: Normal
StackLeniency: 0.3
Mode: 0
LetterboxInBreaks: 1

[Editor]
Bookmarks: 20859,48485,89924,117550,158989
DistanceSpacing: 1.1
BeatDivisor: 4
GridSize: 8

[Metadata]
Title:lastendconductor
Artist:07th Expansion
Creator:Natteke
Version:Normal
Source:Umineko no Naku Koro ni Chiru
Tags:zts

[Difficulty]
HPDrainRate:4
CircleSize:4
OverallDifficulty:5
ApproachRate:5
SliderMultiplier:1.4
SliderTickRate:2

[Events]
//Background and Video events
0,0,"bg.jpg"
//Break Periods
2,117744,130157
//Storyboard Layer 0 (Background)
//Storyboard Layer 1 (Fail)
//Storyboard Layer 2 (Pass)
//Storyboard Layer 3 (Foreground)
//Storyboard Sound Samples
//Background Colour Transformations
3,100,163,162,255

[TimingPoints]
7041,431.654676258993,4,1,0,60,1,0
58953,-100,4,2,0,60,0,0
59168,-100,4,1,0,60,0,0
59383,-100,4,2,0,60,0,0
59813,-100,4,2,0,60,0,0
60028,-100,4,1,0,60,0,0
60243,-100,4,2,0,60,0,0
60458,-100,4,1,0,60,0,0
130284,-100,4,2,0,70,0,0
145068,-100,4,1,0,50,0,0
145716,-100,4,2,0,70,0,0
146579,-100,4,1,0,60,0,0
146794,-100,4,2,0,70,0,0
147226,-100,4,1,0,60,0,0
147441,-100,4,2,0,70,0,0
148090,-100,4,1,0,60,0,0
148305,-100,4,2,0,70,0,0
148521,-100,4,1,0,60,0,0
148736,-100,4,2,0,70,0,0
148953,-100,4,1,0,60,0,0
149168,-100,4,2,0,70,0,0
149600,-100,4,1,0,60,0,0
149815,-100,4,2,0,70,0,0
150248,-100,4,1,0,60,0,0
150895,-100,4,2,0,70,0,0
151543,-100,4,1,0,60,0,0
152622,-100,4,2,0,70,0,0
153270,-100,4,1,0,60,0,0
154349,-100,4,2,0,70,0,0
157154,-100,4,1,0,70,0,0
158018,-100,4,1,0,20,0,0
158233,-100,4,1,0,25,0,0
158448,-100,4,1,0,30,0,0
158663,-100,4,1,0,35,0,0
158983,-100,4,1,0,60,0,1
186609,-100,4,1,0,60,0,0

[Colours]
Combo1 : 17,254,176
Combo2 : 173,255,95
Combo3 : 255,88,100
Combo4 : 255,94,55

[HitObjects]
88,272,20853,2,0,B|80:112,2,140,4|8|0
240,256,22148,1,8
240,256,22580,2,0,B|232:96,2,140,0|8|0
392,232,23875,1,8
392,232,24307,6,0,B|400:64,2,140,0|8|0
240,224,25602,2,0,B|160:216,1,70,8|0
96,216,26033,2,0,B|88:48,2,140,0|8|0
216,312,27328,2,0,B|296:304,1,70,8|0
360,296,27760,5,0
392,224,27976,1,0
400,144,28192,2,0,B|336:96|256:136,2,140,8|0|8
192,168,29487,5,0
160,240,29703,1,0
152,320,29919,2,0,B|216:368|296:328,2,140,8|0|8
56,200,31213,6,0,B|40:128,1,70
24,56,31645,1,8
168,104,32076,1,0
192,256,32508,1,8
72,360,32940,2,0,B|16:304|56:216,1,140,0|8
192,176,33803,1,0
272,168,34019,1,0
328,112,34235,1,8
320,264,34666,6,0,B|392:216|472:288,1,140,4|8
424,344,35314,1,0
344,344,35530,2,0,B|272:352|192:344,2,140,0|8|0
424,344,36609,1,0
424,264,36825,1,8
344,264,37041,1,0
264,264,37256,2,0,B|196:257|124:265,2,140,0|8|0
288,112,38551,6,0,B|328:112|352:88,1,70,8|0
416,128,38983,2,0,B|400:272,2,140,0|8|0
424,48,40062,1,0
344,40,40278,2,0,B|264:32,1,70,8|0
232,96,40710,2,0,B|160:72|80:96,2,140,0|8|0
216,248,42005,6,0,B|192:272|152:272,1,70,8|0
96,224,42436,2,0,B|120:200|160:200,1,70,0|0
232,168,42868,1,8
232,168,43084,2,0,B|304:208|368:160,1,140
400,96,43731,1,8
376,248,44163,1,0
304,280,44379,1,0
240,320,44594,1,8
88,280,45026,6,0,B|32:216|96:144,2,140,0|8|0
168,280,46105,1,0
248,280,46321,1,8
328,280,46537,2,8,B|400:264|488:288,1,140,0|8
480,208,47184,2,0,B|488:128,1,70,8|0
432,80,47616,1,0
360,64,47832,1,0
288,80,48048,1,0
256,232,48479,6,0,B|184:264|109:222,2,140,4|8|0
320,184,49558,1,0
336,256,49774,1,8
416,248,49990,2,0,B|448:168|384:104,1,140
320,104,50638,2,0,B|248:128,3,70,8|0|0|0
280,200,51501,6,0,B|232:256|144:232,1,140,8|0
112,168,52148,1,0
80,240,52364,1,8
32,176,52580,1,0
64,104,52796,1,0
144,96,53012,2,0,B|224:136|283:76,1,140
336,32,53659,1,0
344,112,53875,2,0,B|328:144|344:184,2,70,0|8|0
416,144,54523,6,0,B|456:208|408:288,2,140,0|8|0
272,200,55817,1,8
240,272,56033,1,0
192,208,56249,1,0
224,56,56681,1,8
224,56,56897,2,0,B|152:24|80:64,1,140
40,120,57544,1,8
120,128,57760,1,0
72,192,57976,1,0
184,296,58407,6,0,B|336:296,1,140
360,232,59055,1,2
368,152,59271,1,0
328,88,59487,1,2
256,64,59702,1,0
184,88,59918,1,2
144,152,60134,1,0
152,232,60350,1,2
256,192,60566,12,4,62292
128,240,62724,6,0,B|80:168|144:96,2,140,10|0|10
200,272,63803,1,2
256,216,64019,1,2
312,272,64235,1,0
384,240,64451,2,0,B|432:168|368:96,2,140,10|0|10
384,320,65530,1,2
312,352,65746,6,0,B|240:336,2,70,2|0|6
200,264,66609,2,0,B|272:248,2,70,2|0|6
320,184,67472,2,0,B|248:168,2,70,2|0|10
208,96,68335,2,0,B|280:80,2,70,2|0|10
136,112,68983,1,0
80,168,69199,6,2,B|56:256|144:304|224:280|240:184,1,280,2|2
256,112,70278,1,0
336,96,70494,1,10
392,152,70710,1,2
312,168,70925,6,2,B|336:80|248:32|168:56|152:152,1,280,2|2
136,224,72005,1,0
176,288,72220,1,10
256,288,72436,1,0
320,248,72652,6,0,B|392:240|464:296,2,140,2|10|2
272,184,73731,2,0,B|312:168|328:136,2,70,0|10|2
240,256,74379,2,2,B|168:248|109:294,3,140,2|10|2|10
48,336,75889,1,0
40,256,76105,6,0,B|32:96,2,140,0|8|2
120,240,77184,1,0
112,160,77400,1,10
192,152,77616,1,2
200,232,77832,2,0,B|272:264|336:200,2,140,0|8|2
152,296,78911,1,0
224,328,79127,1,10
296,312,79343,1,2
368,280,79558,6,0,B|424:222|496:254,2,140,2|8|2
328,216,80638,1,0
336,136,80853,1,10
400,88,81069,1,2
328,56,81285,6,2,B|190:123|57:54,1,280
80,128,82364,1,0
80,208,82580,1,10
48,280,82796,1,2
128,272,83012,6,2,B|266:205|399:274,1,280
448,328,84091,1,0
472,256,84307,2,2,B|480:176,1,70,10|2
456,112,84738,6,2,B|376:144|320:80,1,140,2|8
184,152,85602,2,2,B|264:120|320:184,1,140,2|8
328,248,86249,1,2
280,304,86465,2,0,B|200:336|144:272,3,140,2|8|2|10
120,208,87976,1,2
256,192,88192,12,4,89918
120,80,90782,6,2,B|80:88|64:128,1,70,0|2
96,192,91213,2,2,B|136:184|152:144,1,70,10|0
208,96,91645,2,2,B|288:104|320:192,1,140,0|10
328,328,92508,2,2,B|248:320|216:232,1,140,2|8
176,184,93156,1,0
136,248,93371,1,0
288,216,93803,1,8
392,304,94235,6,2,B|432:296|448:256,1,70,0|2
416,192,94666,2,2,B|376:200|360:240,1,70,10|0
304,288,95098,2,2,B|224:280|192:192,1,140,0|10
184,56,95961,2,2,B|264:64|296:152,1,140,2|10
336,200,96609,1,0
376,136,96824,1,2
424,200,97041,6,0,B|440:272,1,70,0|8
384,320,97472,1,0
312,304,97688,2,2,B|272:296|232:304,1,70,0|2
168,304,98120,2,0,B|136:312|88:304,1,70,10|2
72,232,98551,6,0,B|56:80,3,140,2|8|2|10
120,40,100062,1,0
152,112,100278,2,2,B|264:168|368:80,1,210
416,136,101141,2,2,B|342:221|398:333,1,210
320,344,102005,6,2,B|304:304|304:264,1,70,0|2
224,280,102436,2,2,B|240:240|240:200,1,70,10|2
312,192,102868,2,2,B|280:120|320:48,1,140,2|10
384,32,103515,1,0
376,112,103731,1,2
360,264,104163,6,0,B|288:264,2,70,8|2|0
424,224,104810,2,0,B|496:224,2,70,2|8|2
360,184,105458,2,2,B|296:147|224:184,1,140,0|10
144,312,106321,2,2,B|208:349|280:312,1,140,0|10
178,212,107184,6,2,B|174:119|262:71|350:127|335:225,2,280
184,288,109127,1,0
256,328,109343,1,8
328,288,109558,1,2
256,256,109774,2,2,B|256:96,2,140,0|10|4
176,128,111069,6,2,B|172:35|260:-13|348:43|333:141,1,280,10|10
336,208,112148,1,0
328,288,112364,2,0,B|344:328|384:336,1,70,2|0
448,312,112796,2,0,B|432:272|392:264,1,70,10|0
336,208,113228,2,0,B|320:168|287:162,1,70,2|0
215,184,113660,2,0,B|230:223|263:229,1,70,10|2
264,304,114091,5,0
160,192,114523,1,8
256,72,114954,1,0
352,192,115386,1,8
256,192,115817,12,4,117544
39,179,131357,6,0,B|71:317|255:382|446:320|478:171,1,560
336,120,133515,6,2,B|340:27|252:-21|164:35|179:133,2,280
352,272,135674,2,2,B|256:344|154:270,1,210
152,192,136537,1,0
192,128,136753,1,0
256,80,136969,1,2
320,128,137184,1,0
360,192,137400,1,2
320,256,137616,1,0
256,304,137832,1,2
192,256,138047,1,0
152,192,138264,6,2,B|88:144|144:48,2,140
256,304,139558,1,0
360,192,139990,2,2,B|424:144|368:48,2,140
256,80,141285,1,0
200,224,141717,6,2,B|144:280|192:360,1,140,2|0
312,224,142580,2,2,B|368:280|320:360,1,140
256,192,143443,12,4,145170
80,192,146033,6,0,B|32:128,2,70
152,168,146681,2,0,B|153:89,2,70
224,192,147328,2,0,B|264:128,2,70
272,256,147976,2,0,B|352:232,2,70
192,264,148623,6,0,B|168:296|128:296,2,70
216,192,149271,2,0,B|176:184|176:144,2,70
296,192,149918,2,0,B|336:184|336:144,2,70
320,264,150566,2,0,B|344:296|384:296,2,70
256,312,151213,2,0,B|256:384,2,70
256,160,152076,5,0
256,160,152508,2,0,B|232:192|192:192,1,70
152,256,152940,2,0,B|176:288|216:288,1,70
300,287,153371,2,0,B|336:288|360:256,1,70
315,191,153803,2,0,B|280:192|256:160,1,70
320,112,154235,6,0,B|400:128|432:224,1,140
192,112,155098,2,0,B|112:128|80:224,1,140,0|0
112,352,155961,2,0,B|184:320|184:232,1,140
400,352,156825,2,0,B|328:320|328:232,1,140,0|4
256,88,158120,5,2
256,88,158335,1,2
256,88,158551,1,2
256,88,158767,1,2
256,88,158983,6,0,B|189:53|117:89,2,140,6|8|2
256,168,160062,1,0
256,248,160278,2,0,B|323:283|395:247,2,140,8|2|8
200,104,161573,6,2,B|152:72|96:152|64:120,1,140,2|2
64,200,162220,1,0
136,232,162436,1,0
312,104,162868,2,0,B|360:72|416:152|448:120,1,140,10|0
448,200,163515,1,0
376,232,163731,1,10
224,200,164163,6,0,B|200:224|200:264,1,70
264,304,164594,2,2,B|288:280|288:240,1,70,10|0
296,160,165026,1,0
224,128,165242,1,10
288,80,165458,1,10
360,112,165674,1,2
384,184,165889,6,0,B|360:256|416:328,2,140,0|10|0
304,192,166969,1,0
256,128,167184,1,10
216,192,167400,1,0
128,184,167616,2,0,B|152:256|96:328,2,140,0|10|0
80,120,168695,1,0
160,112,168911,1,10
112,48,169127,1,2
192,40,169343,6,2,B|264:24|344:42,1,140,0|10
432,160,170206,2,2,B|360:176|280:158,1,140,0|10
216,160,170853,1,0
240,232,171069,6,0,B|172:247|100:231,2,140,2|8|2
312,264,172148,1,0
256,328,172364,1,2
256,328,172580,1,2
256,328,172796,6,0,B|323:363|395:327,2,140,6|8|2
256,248,173875,1,0
256,168,174091,2,0,B|189:133|117:169,2,140,8|2|8
312,312,175386,6,2,B|360:344|416:264|448:296,1,140,2|2
448,216,176033,1,0
376,184,176249,1,0
200,312,176681,2,0,B|152:344|96:264|64:296,1,140,10|0
64,216,177328,1,0
136,184,177544,1,10
288,216,177976,6,0,B|312:192|312:152,1,70
248,112,178407,2,2,B|224:136|224:176,1,70,10|0
216,256,178839,1,0
288,288,179055,1,10
224,336,179271,1,10
152,304,179487,1,2
128,232,179702,6,0,B|152:160|96:88,2,140,0|10|0
208,224,180782,1,0
256,288,180997,1,10
296,224,181213,1,0
384,232,181429,2,0,B|360:160|416:88,2,140,0|10|0
432,296,182508,1,0
352,304,182724,1,10
400,368,182940,1,2
320,376,183156,6,2,B|248:392|168:374,1,140,0|10
80,256,184019,2,2,B|152:240|232:258,1,140,0|10
296,256,184666,1,0
256,192,184882,1,4
256,192,185098,12,4,186609
