osu file format v9

[General]
AudioFilename: zts_is_so_awesome.mp3
AudioLeadIn: 0
PreviewTime: 89924
Countdown: 0
SampleSet: Normal
StackLeniency: 0.3
Mode: 0
LetterboxInBreaks: 1

[Editor]
Bookmarks: 20859,48485,89924,117550,158989
DistanceSpacing: 1
BeatDivisor: 4
GridSize: 8

[Metadata]
Title:lastendconductor
Artist:07th Expansion
Creator:Natteke
Version:Hard
Source:Umineko no Naku Koro ni Chiru
Tags:zts

[Difficulty]
HPDrainRate:7
CircleSize:4
OverallDifficulty:7
ApproachRate:8
SliderMultiplier:1.6
SliderTickRate:2

[Events]
//Background and Video events
0,0,"bg.jpg"
//Break Periods
2,117744,129744
//Storyboard Layer 0 (Background)
//Storyboard Layer 1 (Fail)
//Storyboard Layer 2 (Pass)
//Storyboard Layer 3 (Foreground)
//Storyboard Sound Samples
//Background Colour Transformations
3,100,163,162,255

[TimingPoints]
7041,431.654676258993,4,1,0,60,1,0
33270,-200,4,1,0,60,0,0
33911,-100,4,1,0,60,0,0
58953,-100,4,2,0,60,0,0
59168,-100,4,1,0,60,0,0
59383,-100,4,2,0,60,0,0
59813,-100,4,2,0,60,0,0
60028,-100,4,1,0,60,0,0
60243,-100,4,2,0,60,0,0
60458,-100,4,1,0,60,0,0
130284,-100,4,2,0,70,0,0
145068,-100,4,1,0,50,0,0
145716,-100,4,2,0,70,0,0
146579,-100,4,1,0,60,0,0
146794,-100,4,2,0,70,0,0
147226,-100,4,1,0,60,0,0
147441,-100,4,2,0,70,0,0
148090,-100,4,1,0,60,0,0
148305,-100,4,2,0,70,0,0
148521,-100,4,1,0,60,0,0
148736,-100,4,2,0,70,0,0
148953,-100,4,1,0,60,0,0
149168,-100,4,2,0,70,0,0
149600,-100,4,1,0,60,0,0
149815,-100,4,2,0,70,0,0
150248,-100,4,1,0,60,0,0
150895,-100,4,2,0,70,0,0
151543,-100,4,1,0,60,0,0
152622,-100,4,2,0,70,0,0
153270,-100,4,1,0,60,0,0
154349,-100,4,2,0,70,0,0
157154,-100,4,1,0,70,0,0
158018,-100,4,1,0,20,0,0
158233,-100,4,1,0,25,0,0
158448,-100,4,1,0,30,0,0
158663,-100,4,1,0,35,0,0
158983,-100,4,1,0,60,0,1
186609,-100,4,1,0,60,0,0

[Colours]
Combo1 : 17,254,176
Combo2 : 173,255,95
Combo3 : 255,88,100
Combo4 : 255,94,55

[HitObjects]
360,280,20853,5,4
360,280,21069,1,0
360,280,21285,2,0,B|328:192|408:128,1,160,8|0
480,96,21933,1,0
400,56,22148,2,0,B|320:48,1,80,8|8
248,104,22580,5,0
248,104,22796,1,0
248,104,23012,2,0,B|280:192|200:256,1,160,8|0
128,288,23660,1,0
208,328,23875,2,0,B|288:336,1,80,8|8
424,288,24307,6,0,B|384:272|336:280,1,80
264,240,24738,2,0,B|240:160|272:72,1,160,8|0
360,96,25386,1,0
352,184,25602,1,8
344,272,25817,1,8
272,320,26033,6,0,B|233:326|193:310,1,80
88,240,26465,2,0,B|168:208|256:248,1,160,8|0
160,336,27112,2,0,B|168:256,2,80,0|8|8
88,240,27760,6,0,B|80:160,1,80
152,96,28192,2,0,B|168:256,1,160,8|0
256,256,28839,1,0
344,264,29055,1,8
432,264,29271,1,8
456,176,29487,6,0,B|472:96,1,80
360,96,29918,2,0,B|344:256,1,160,8|0
304,336,30566,1,0
240,280,30782,2,8,B|192:280|168:320,1,80
136,232,31213,6,0,B|94:255|93:302,1,80
16,336,31645,2,0,B|0:248|56:184,1,160,8|0
128,144,32292,1,0
136,232,32508,1,8
56,264,32724,1,8
128,320,32940,5,0
200,184,33156,1,0
264,320,33371,2,0,B|352:320,1,80,0|4
400,184,34019,1,0
456,320,34235,1,0
104,96,34666,6,0,B|64:112|56:160,1,80,4|0
184,88,35098,2,0,B|224:104|232:152,1,80,8|0
168,240,35530,2,0,B|136:216|144:168,2,80,0|0|8
184,344,36177,6,0,B|232:272|328:280,1,160
408,304,36825,1,8
376,224,37041,1,0
464,232,37256,2,0,B|488:192|472:144,1,80
384,56,37688,6,0,B|360:96|376:144,1,80,8|0
376,224,38120,2,0,B|288:208,1,80
192,280,38551,2,0,B|216:248|208:200,1,80,8|0
120,176,38983,1,0
264,320,39199,6,0,B|310:253|283:159,1,160,0|0
240,96,39846,1,0
152,96,40062,1,8
328,88,40278,2,0,B|368:112|416:88,1,80,8|0
448,240,40710,6,0,B|368:232,1,80
336,312,41141,2,0,B|296:296|256:304,1,80,8|0
208,232,41573,1,0
152,296,41789,1,0
112,216,42005,2,0,B|32:200,1,80,8|0
8,112,42436,6,0,B|88:128,1,80,0|0
176,144,42868,1,8
264,168,43084,2,0,B|320:248|240:320,1,160
248,311,43731,1,8
336,312,43947,1,0
424,312,44163,1,0
344,272,44379,1,8
256,272,44594,1,8
168,272,44810,1,0
104,216,45026,6,0,B|87:174|112:136,1,80
192,32,45458,2,0,B|209:74|184:112,1,80,8|0
272,216,45889,2,0,B|289:174|264:136,2,80,0|0|8
376,64,46537,1,0
368,64,46645,1,0
360,64,46753,2,0,B|327:140|368:232,1,160,0|8
448,216,47400,1,0
256,112,47616,5,0
256,112,47832,1,0
256,112,48048,1,0
256,192,48264,2,0,B|256:224,2,20
256,192,48479,6,0,B|176:152|94:192,2,160,4|8|0
312,264,49558,2,0,B|336:296|314:339,1,80,0|8
352,184,49990,2,0,B|432:136|384:24,1,160
320,96,50638,1,8
320,96,50853,2,0,B|280:112|240:96,1,80
96,32,51285,2,0,B|139:30|171:59,1,80,0|8
160,144,51717,1,0
160,144,51933,6,0,B|89:214|160:304,2,160,0|8|0
208,216,53012,2,0,B|288:216,1,80,0|8
344,144,53443,2,0,B|415:214|344:304,1,160
280,336,54091,1,8
192,328,54307,1,0
152,328,54415,1,0
112,328,54523,2,0,B|104:248,1,80,0|8
176,168,54954,2,0,B|184:248,1,80,8|0
96,176,55386,6,0,B|80:8,2,160,4|8|0
176,136,56465,2,0,B|212:114|262:131,1,80,0|8
336,168,56897,2,0,B|352:336,1,160
264,328,57544,2,0,B|168:320,1,80,8|0
352,328,57976,2,0,B|431:334,1,80
264,248,58407,1,8
352,248,58623,1,0
352,248,58731,1,0
352,248,58839,1,4
408,40,59055,6,0,B|400:120,1,80,2|0
304,32,59487,2,0,B|304:120,1,80,2|0
208,40,59918,2,0,B|200:120,1,80,2|0
112,32,60350,2,0,B|120:112,1,80,2|0
80,288,60782,5,0
88,288,60889,1,0
96,288,60997,1,0
104,288,61105,1,0
112,288,61213,1,0
200,288,61429,6,0,B|216:248|200:208,1,80
288,152,61861,2,0,B|272:192|288:232,1,80
328,304,62292,6,0,B|406:260|484:306,2,160,4|10|0
488,224,63371,2,0,B|416:192,2,80,0|10|2
344,216,64019,6,0,B|254:216|212:292,2,160,0|10|2
320,320,65098,1,0
320,320,65206,1,0
320,320,65314,1,10
408,312,65530,1,2
392,224,65746,6,2,B|379:137,1,80,2|0
280,80,66177,2,2,B|309:250,1,160,10|0
216,248,66825,2,2,B|128:264,1,80,0|10
16,128,67256,2,2,B|104:112,1,80
160,176,67688,5,0
160,176,67904,2,2,B|240:144|336:176,1,160,10|2
392,216,68551,1,0
392,216,68659,1,0
392,216,68767,1,10
392,216,68983,1,2
392,216,69199,6,0,B|368:136|424:48,2,160,2|8|2
440,288,70278,1,0
352,296,70494,2,2,B|304:296|288:344,1,80,10|2
240,264,70925,6,0,B|176:320|80:296,2,160,2|8|2
224,176,72005,2,0,B|184:176|160:128,1,80,0|10
296,208,72436,2,2,B|336:208|360:256,1,80
304,320,72868,1,0
344,104,73084,6,2,B|326:39|254:6|181:41|170:107,1,240,10|2
170,105,73839,1,0
170,105,73947,1,8
136,184,74163,1,2
178,261,74379,6,0,B|242:221|274:325|354:237,3,160,4|8|4|8
384,192,75889,1,0
432,120,76105,6,0,B|472:104|480:56,1,80
344,112,76537,2,0,B|304:128|296:176,1,80,10|0
224,112,76969,2,0,B|264:96|272:48,1,80,2|2
136,112,77401,2,0,B|96:128|88:176,1,80,8|2
144,328,77832,6,0,B|224:264|152:160,2,160,0|10|2
104,248,78911,1,0
104,248,79019,1,0
104,248,79127,2,2,B|200:256,1,80,10|2
272,264,79558,1,2
360,272,79774,1,2
448,280,79990,6,2,B|424:192|480:128,1,160,10|0
424,56,80638,2,2,B|336:40,2,80,0|8|2
376,128,81285,5,0
288,120,81501,1,0
200,128,81717,2,2,B|138:199|202:281,1,160,10|2
288,272,82364,1,0
288,272,82472,1,0
288,272,82580,2,0,B|376:272,2,80,10|2|4
448,272,83228,5,0
456,184,83443,2,8,B|464:80,1,80,8|2
392,56,83875,2,0,B|320:116|373:198,1,160,0|10
264,336,84523,1,10
264,336,84738,2,0,B|336:276|283:194,2,160,0|10|2
208,264,85817,1,0
128,224,86033,1,10
40,224,86249,1,2
112,344,86465,5,6
112,344,86681,1,0
112,344,86897,2,2,B|80:288|104:216,1,120,10|0
100,227,87328,1,4
256,200,87544,1,0
400,40,87760,2,2,B|432:96|408:168,1,120,10|0
411,156,88191,1,4
289,317,88407,5,0
134,228,88623,1,4
222,76,88839,1,0
377,163,89055,1,4
256,192,89271,5,0
256,192,89487,1,0
256,192,89594,1,0
256,192,89702,1,0
134,228,89918,6,0,B|80:152|152:72,1,160,4|8
376,160,90674,1,0
376,160,90782,2,0,B|430:236|358:316,1,160,0|8
280,304,91429,1,0
296,216,91645,6,0,B|368:248|472:248,1,160,0|8
216,168,92400,1,0
216,168,92508,2,0,B|144:136|40:136,1,160,0|8
60,136,93156,1,0
88,216,93371,6,0,B|112:256|88:304,1,80,2|0
216,168,93803,2,2,B|192:128|216:80,1,80,8|2
272,256,94235,2,2,B|192:264,1,80,0|2
296,128,94666,2,2,B|376:120,1,80,8|2
448,232,95098,5,2
448,232,95530,2,2,B|416:312,1,80,8|2
344,208,95961,2,2,B|341:294,1,80,0|2
240,232,96393,2,2,B|266:313,1,80,8|2
192,360,96825,6,0,B|112:320|128:192,2,160,2|8|2
256,272,97904,1,0
272,184,98120,1,10
256,96,98335,1,2
192,40,98551,1,2
336,240,98983,5,10
424,264,99199,1,0
424,264,99307,1,0
424,264,99415,2,2,B|472:280|512:264,1,80,2|0
400,184,99846,2,2,B|432:152|408:104,1,80,8|2
336,240,100278,6,0,B|256:200|168:248,2,160,2|8|2
296,320,101357,2,2,B|216:320,2,80,0|10|2
384,304,102005,6,2,B|387:216,1,80,2|0
240,24,102436,2,2,B|243:112,1,80,8|2
244,124,102760,1,0
245,143,102868,1,2
160,160,103084,5,0
336,144,103299,1,2
256,240,103515,1,2
64,320,103731,6,0,B|8:248|64:160,2,160,2|8|0
112,248,104810,2,2,B|24:256,1,80,2|10
192,240,105242,2,2,B|280:232,1,80,2|2
360,224,105674,1,0
360,224,105889,2,0,B|392:56,2,160,10|2|10
336,312,106969,1,0
336,312,107076,1,0
336,312,107184,6,2,B|269:256|176:304,1,160,2|8
104,336,107832,1,2
104,336,108048,2,2,B|128:248|72:160,2,160,2|8|2
192,312,109127,1,0
256,256,109343,2,2,B|224:224|168:232,1,80,10|0
280,176,109774,2,2,B|312:208|368:200,1,80,2|0
336,280,110206,5,0
176,104,110422,1,2
416,88,110638,1,4
416,88,111069,6,2,B|384:160|288:176,1,160,2|0
290,175,111717,1,0
312,264,111933,2,2,B|352:256|392:280,1,80,10|0
232,232,112364,2,2,B|144:200|72:256,1,160,2|10
79,250,113012,1,0
0,328,113228,2,2,B|88:360|160:304,1,160,2|10
192,232,113875,1,0
184,144,114091,6,2,B|147:124|104:136,1,80,2|0
106,135,114523,2,2,B|192:144|264:80,1,160,2|0
328,200,115278,1,0
328,200,115386,1,0
248,240,115602,1,0
248,240,115710,1,0
248,240,115817,1,0
256,192,115925,12,4,117544
40,344,130494,5,0
104,280,130710,1,2
128,192,130925,1,2
120,104,131141,1,0
208,40,131357,6,0,B|181:118|222:200,2,160,0|2|2
280,112,132436,2,0,B|320:136|368:120,1,80,0|2
120,104,132868,2,0,B|80:80|32:96,1,80,2|0
48,184,133299,5,0
128,200,133515,1,2
176,264,133731,1,0
256,288,133947,1,2
328,264,134163,1,2
384,200,134379,1,0
464,184,134595,1,0
338,86,134810,6,0,B|290:150|314:246,2,160,2|0|2
408,48,135889,1,2
104,48,136321,1,2
174,86,136537,2,0,B|222:150|198:246,2,160,0|2|2
104,128,137616,1,2
64,200,137832,1,0
104,272,138048,1,2
184,248,138264,6,0,B|224:272|264:248,1,80
280,328,138695,2,0,B|316:306|356:330,1,80,2|0
456,248,139127,2,0,B|416:272|376:248,1,80,2|2
344,176,139558,1,0
336,96,139774,1,2
384,32,139990,1,0
56,248,140422,6,0,B|96:272|136:248,1,80,2|0
168,176,140853,1,0
176,96,141069,1,2
128,32,141285,1,2
176,96,141501,1,0
256,80,141717,1,2
168,176,142148,6,0,B|224:240|192:336,1,160,2|2
272,304,142796,1,2
352,304,143012,1,0
424,336,143228,1,2
464,184,143659,5,0
464,184,143875,1,2
296,64,144307,1,0
296,64,144523,1,2
216,64,144738,1,0
216,64,144954,1,2
256,136,145170,5,4
256,136,145602,2,0,B|178:162|96:130,1,160,0|2
32,176,146249,1,2
104,216,146465,1,0
40,264,146681,1,0
112,304,146897,1,0
112,304,147328,6,0,B|192:344|272:296,1,160,0|2
296,224,147976,1,2
360,272,148192,1,0
376,192,148407,1,2
440,240,148623,1,0
440,240,149055,6,0,B|464:200|448:152,1,80,0|2
388,116,149487,1,0
388,116,149702,2,0,B|364:156|380:204,1,80,0|0
360,272,150134,1,2
360,272,150350,1,0
360,272,150566,1,0
360,272,150782,2,0,B|298:215|186:239,1,160,0|2
128,232,151429,6,0,B|80:216|80:168,1,80
168,296,151861,2,0,B|128:320|136:368,1,80
256,352,152292,1,0
256,264,152508,2,0,B|256:184,1,80,0|2
344,296,152940,2,0,B|384:320|376:368,1,80
384,232,153371,2,0,B|432:216|432:168,1,80
349,84,153803,6,0,B|328:128|352:160,1,80
264,232,154235,2,0,B|285:188|261:156,1,80,0|2
248,152,154558,1,0
232,152,154666,1,0
166,212,154882,1,0
150,212,154990,1,0
136,208,155098,2,0,B|112:176|134:132,1,80,0|0
256,192,155530,12,4,157256
168,248,158120,5,2
56,248,158335,1,2
136,152,158551,1,2
248,152,158766,1,2
336,248,158983,6,2,B|296:264|256:248,1,80,6|0
144,72,159415,2,0,B|184:56|224:72,1,80,8|2
160,264,159846,2,0,B|144:224|160:184,1,80,0|0
336,72,160278,2,0,B|352:112|336:152,1,80,10|0
288,240,160710,5,2
288,240,160925,1,0
288,240,161141,2,2,B|368:216|456:264,1,160,10|2
408,352,161789,1,0
304,328,162005,1,10
200,320,162220,1,2
96,336,162436,1,0
64,240,162652,1,0
168,216,162868,6,0,B|208:128|112:64,2,160,10|0|10
168,216,163947,1,2
256,232,164163,6,0,B|336:248,1,80
256,136,164594,2,2,B|344:128,1,80,10|2
216,56,165026,2,0,B|336:32,1,120,0|0
333,32,165458,1,8
416,176,165674,1,2
336,320,165889,6,2,B|296:336|256:320,1,80,0|2
168,296,166321,2,0,B|216:216|328:256,2,160,8|2|8
264,336,167400,2,0,B|228:254,1,80,2|0
184,168,167832,1,0
184,168,168048,6,2,B|160:128|112:128,1,80,10|0
200,240,168479,2,2,B|205:286|167:315,1,80,2|0
264,192,168911,1,10
264,192,169127,1,10
264,192,169343,6,2,B|352:216|408:144,2,160,2|10|2
96,256,170422,1,2
200,112,170638,1,8
208,288,170853,1,2
96,152,171069,5,0
96,152,171285,2,2,B|80:72,1,80,0|10
264,192,171717,1,0
264,192,171933,2,2,B|280:272,1,80,2|2
424,128,172364,2,2,B|408:48,1,80,8|2
256,56,172796,6,2,B|168:24|104:80,1,160,4|10
128,184,173443,1,8
152,288,173659,1,2
256,272,173875,1,10
240,168,174091,1,8
200,264,174307,5,2
304,240,174523,1,0
272,144,174738,1,0
168,168,174954,6,2,B|88:192,1,80,10|0
272,144,175386,2,2,B|352:120,1,80,2|2
424,192,175817,2,2,B|448:232|424:272,1,80,10|0
336,320,176249,6,0,B|160:296,2,160,0|10|0
216,232,177328,1,0
312,192,177544,1,10
224,144,177760,1,2
176,64,177976,2,0,B|352:88,2,160,0|10|0
224,144,179055,1,0
128,184,179271,1,10
216,232,179487,1,2
312,200,179702,6,2,B|336:240|312:288,1,80,0|2
408,320,180134,2,2,B|384:280|408:232,1,80,10|0
403,243,180566,2,0,B|488:232,1,80,2|0
312,200,180997,2,2,B|227:211,1,80,8|2
128,224,181429,1,0
128,224,181861,6,2,B|96:144,1,80,10|0
208,216,182292,2,2,B|227:132,1,80,0|2
280,248,182724,2,2,B|344:190,1,80,10|0
312,320,183156,2,2,B|472:280,2,160,2|10|2
360,224,184235,1,2
464,200,184451,1,8
464,96,184666,1,2
360,120,184882,1,4
256,192,185098,12,4,186609
