osu file format v9

[General]
AudioFilename: zts_is_so_awesome.mp3
AudioLeadIn: 0
PreviewTime: 89924
Countdown: 0
SampleSet: Normal
StackLeniency: 0.3
Mode: 0
LetterboxInBreaks: 1

[Editor]
Bookmarks: 20859,34672,48485,89924,117550,158989
DistanceSpacing: 1
BeatDivisor: 4
GridSize: 8

[Metadata]
Title:lastendconductor
Artist:07th Expansion
Creator:Natteke
Version:Easy
Source:Umineko no Naku Koro ni Chiru
Tags:zts

[Difficulty]
HPDrainRate:2
CircleSize:3
OverallDifficulty:2
ApproachRate:3
SliderMultiplier:1.2
SliderTickRate:2

[Events]
//Background and Video events
0,0,"bg.jpg"
//Break Periods
2,117744,129917
//Storyboard Layer 0 (Background)
//Storyboard Layer 1 (Fail)
//Storyboard Layer 2 (Pass)
//Storyboard Layer 3 (Foreground)
//Storyboard Sound Samples
//Background Colour Transformations
3,100,163,162,255

[TimingPoints]
7041,431.654676258993,4,1,0,60,1,0
58953,-100,4,2,0,60,0,0
59168,-100,4,1,0,60,0,0
59383,-100,4,2,0,60,0,0
59813,-100,4,2,0,60,0,0
60028,-100,4,1,0,60,0,0
60243,-100,4,2,0,60,0,0
60458,-100,4,1,0,60,0,0
130284,-100,4,2,0,70,0,0
145068,-100,4,1,0,50,0,0
145716,-100,4,2,0,70,0,0
146579,-100,4,1,0,60,0,0
146794,-100,4,2,0,70,0,0
147226,-100,4,1,0,60,0,0
147441,-100,4,2,0,70,0,0
148090,-100,4,1,0,60,0,0
148305,-100,4,2,0,70,0,0
148521,-100,4,1,0,60,0,0
148736,-100,4,2,0,70,0,0
148953,-100,4,1,0,60,0,0
149168,-100,4,2,0,70,0,0
149600,-100,4,1,0,60,0,0
149815,-100,4,2,0,70,0,0
150248,-100,4,1,0,60,0,0
150895,-100,4,2,0,70,0,0
151543,-100,4,1,0,60,0,0
152622,-100,4,2,0,70,0,0
153270,-100,4,1,0,60,0,0
154349,-100,4,2,0,70,0,0
157154,-100,4,1,0,70,0,0
158018,-100,4,1,0,20,0,0
158233,-100,4,1,0,25,0,0
158448,-100,4,1,0,30,0,0
158663,-100,4,1,0,35,0,0
158983,-100,4,1,0,60,0,1
186609,-100,4,1,0,60,0,0

[Colours]
Combo1 : 17,254,176
Combo2 : 173,255,95
Combo3 : 255,88,100
Combo4 : 255,94,55

[HitObjects]
104,192,20853,6,0,B|120:136|184:96|248:96,2,180
200,272,22580,2,0,B|184:328|120:368|56:368,2,180
312,272,24307,2,0,B|328:328|392:368|456:368,2,180
408,192,26033,2,0,B|392:136|328:96|264:96,2,180
408,312,27760,5,0
320,232,28192,1,0
208,192,28623,1,0
88,192,29055,1,0
152,296,29487,5,0
272,296,29919,1,0
384,256,30350,1,0
472,176,30782,1,0
352,152,31213,5,0
256,80,31645,1,0
152,144,32076,1,0
256,208,32508,1,0
184,304,32940,6,0,B|120:304,2,60
328,304,33803,2,0,B|392:304,2,60
408,208,34666,6,0,B|368:152|400:80,2,120,0|8|0
328,296,35961,1,8
256,200,36393,2,0,B|256:64,2,120,0|8|0
184,296,37688,1,8
104,208,38120,6,0,B|144:152|112:80,2,120,0|8|0
184,296,39415,1,8
256,200,39846,2,0,B|256:64,2,120,0|8|0
328,296,41141,1,8
424,224,41573,5,0
320,168,42005,1,8
216,224,42436,1,0
216,344,42868,1,8
328,296,43299,5,0
216,224,43731,1,8
216,344,44163,1,0
328,296,44594,1,8
216,224,45026,6,0,B|156:199|96:224,2,120,0|8|0
304,136,46321,2,0,B|364:161|424:136,2,120,8|0|8
184,128,47616,2,0,B|120:96,2,60
112,224,48479,6,0,B|40:224,2,60,0|0|8
192,312,49343,2,0,B|160:376,2,60,0|0|8
320,312,50206,2,0,B|352:376,2,60,0|0|8
400,224,51069,2,0,B|472:224,2,60,0|0|8
320,136,51933,6,0,B|352:72,2,60,0|0|8
192,136,52796,2,0,B|160:72,2,60,0|0|8
192,248,53659,2,0,B|160:312,2,60,0|0|8
320,248,54522,2,0,B|352:312,2,60,0|0|8
424,192,55386,5,0
320,136,55817,2,0,B|320:64,2,60,8|0|0
216,192,56681,2,0,B|160:232|104:192,2,120,8|0|8
320,248,57976,2,0,B|320:320,2,60,0|0|8
424,192,58839,6,0,B|496:192,2,60,0|2|0
304,192,59702,2,0,B|240:192,2,60,0|2|0
256,192,60566,12,4,62292
136,192,63156,6,0,B|96:248|136:312,2,120,2|8|2
256,224,64451,1,0
376,192,64882,2,0,B|416:248|376:312,2,120,2|8|2
364,72,66177,2,2,B|256:168|144:64,1,240,2|8
104,176,67472,6,2,B|168:184|200:264,1,120,2|8
318,248,68335,2,2,B|344:184|408:176,1,120,2|8
432,296,69199,5,2
318,335,69630,2,0,B|190:335,1,120,8|2
80,296,70494,1,10
144,192,70925,1,2
80,88,71357,1,8
198,49,71789,2,2,B|318:49,1,120,2|10
432,88,72652,5,2
368,192,73084,2,10,B|256:256|138:189,1,240
80,88,74379,5,6
200,88,74810,1,8
320,88,75242,1,6
440,88,75674,1,10
376,192,76105,5,4
376,192,76537,1,8
376,192,76969,2,0,B|416:136|376:72,2,120,2|8|2
256,160,78264,1,0
136,192,78695,2,0,B|96:136|136:72,2,120,2|8|2
148,312,79990,2,2,B|256:216|368:320,1,240,2|8
408,208,81285,6,2,B|344:200|312:120,1,120,2|8
193,135,82148,2,2,B|168:200|104:208,1,120,2|8
80,88,83012,5,2
194,49,83443,2,0,B|322:49,1,120,8|2
432,88,84307,1,10
368,192,84738,1,2
432,296,85170,1,8
314,335,85602,2,2,B|194:335,1,120,2|10
80,296,86465,5,2
144,192,86897,2,10,B|256:128|374:195,1,240
432,296,88192,5,6
312,296,88623,1,8
192,296,89055,1,6
72,296,89487,1,10
128,192,89918,6,0,B|88:128|136:64,2,120,0|10|0
208,104,91213,2,0,B|200:32,2,60,10|2|0
296,184,92076,2,0,B|289:124,2,60,10|2|0
384,104,92940,2,2,B|422:153|382:217,1,120,10|2
200,232,93803,6,0,B|64:232,2,120,10|0|10
256,336,95098,2,0,B|320:336,2,60,0|2|10
136,336,95961,2,0,B|72:336,2,60,0|2|10
200,232,96825,6,2,B|200:144|312:96|392:152,1,240,2|0
376,264,98120,2,0,B|416:312,2,60,8|2|2
280,192,98983,2,0,B|248:128|296:72,2,120,10|2|10
400,200,100278,6,2,B|400:288|288:336|208:280,2,240
315,115,102436,2,0,B|371:75,2,60,8|2|2
256,216,103299,1,2
384,192,103731,6,0,B|424:256|376:320,2,120,0|10|0
304,280,105026,2,0,B|312:352,2,60,10|2|0
216,200,105889,2,0,B|222:259,2,60,10|2|0
128,280,106753,2,2,B|89:230|129:166,1,120,10|2
312,152,107616,6,0,B|448:152,2,120,10|0|10
256,48,108911,2,0,B|192:48,2,60,0|2|10
376,48,109774,2,0,B|440:48,2,60,0|2|10
312,152,110638,6,2,B|312:240|200:288|120:232,1,240,2|2
136,120,111933,2,0,B|96:72,2,60,8|2|2
232,192,112796,2,0,B|264:256|216:312,2,120,10|2|10
112,184,114091,6,2,B|112:96|224:48|304:104,2,240,2|2|2
256,192,116033,12,4,117544
104,312,131357,6,0,B|88:218|197:125|325:125|429:228|411:320,2,480
32,216,135242,1,2
112,128,135674,1,0
480,216,136537,1,2
400,128,136969,1,0
304,200,137400,1,2
384,288,137832,1,2
412,203,138264,6,0,B|428:297|319:390|191:390|87:287|105:195,2,480,0|0|2
318,128,142148,1,2
198,128,142580,1,0
200,248,143012,1,2
320,248,143443,1,2
416,184,143875,5,2
96,184,144738,1,2
176,96,145170,6,0,B|184:160|272:176,3,120
376,160,146897,2,0,B|368:96|280:80,2,120
328,272,148192,1,0
208,256,148623,6,0,B|216:192|304:176,3,120
408,192,150350,2,0,B|400:256|312:272,2,120
408,72,151645,2,0,B|472:48,2,60
304,136,152508,2,0,B|216:104|128:184|152:272,1,240
232,344,153803,2,0,B|320:376|408:296|384:208,1,240
268,242,155098,1,0
268,242,155530,1,0
256,192,155961,12,4,157256
256,136,158120,6,2,B|256:64,4,60,2|2|2|2|4
160,208,159415,5,8
200,312,159846,1,0
312,312,160278,1,8
352,208,160710,1,0
256,136,161141,1,10
195,32,161573,1,2
315,32,162005,1,10
256,136,162436,6,0,B|144:136|120:248,2,180,0|8|0
256,136,164163,2,0,B|368:136|392:248,2,180,0|8|0
256,256,165889,5,0
152,192,166321,1,8
256,136,166753,1,0
360,192,167184,1,8
256,256,167616,5,0
360,312,168048,1,10
256,368,168479,1,0
152,312,168911,1,10
120,200,169343,6,2,B|128:128|208:104,1,120,2|10
321,110,170206,2,2,B|384:128|392:200,1,120,2|10
360,312,171069,2,2,B|280:312,2,60,0|2|10
152,312,171933,2,2,B|232:312,2,60,0|2|10
256,248,172796,5,4
352,176,173228,1,8
312,72,173659,1,0
200,72,174091,1,8
160,176,174523,1,0
256,248,174954,1,10
317,352,175386,1,2
197,352,175818,1,10
256,248,176249,6,0,B|368:248|392:136,2,180,0|8|0
256,248,177976,2,0,B|144:248|120:136,2,180,0|8|0
256,128,179702,5,0
360,192,180134,1,8
256,248,180566,1,0
152,192,180997,1,8
256,128,181429,5,0
152,72,181861,1,10
256,16,182292,1,0
360,72,182724,1,10
392,184,183156,6,2,B|384:256|304:280,1,120,2|10
190,273,184019,2,2,B|128:256|120:184,1,120,2|10
256,192,184882,12,4,186609
