osu file format v9

[General]
AudioFilename: haze.mp3
AudioLeadIn: 0
PreviewTime: 103499
Countdown: 0
SampleSet: Soft
StackLeniency: 0.5
Mode: 0
LetterboxInBreaks: 1

[Editor]
Bookmarks: 251497,252215,253293,254461
DistanceSpacing: 1.1
BeatDivisor: 4
GridSize: 8

[Metadata]
Title:haze
Artist:07th Expansion
Creator:Shiirn
Version:Natteke
Source:Umineko no Naku Koro ni
Tags:Lanttu Natteke

[Difficulty]
HPDrainRate:7
CircleSize:4
OverallDifficulty:7
ApproachRate:8
SliderMultiplier:1.8
SliderTickRate:1

[Events]
//Background and Video events
0,0,"2fccad17ba1e823c12798b19cb836495.jpg"
//Break Periods
2,92202,99874
//Storyboard Layer 0 (Background)
//Storyboard Layer 1 (Fail)
//Storyboard Layer 2 (Pass)
//Storyboard Layer 3 (Foreground)
//Storyboard Sound Samples
//Background Colour Transformations
3,100,163,162,255

[TimingPoints]
26,359.281437125748,4,2,1,40,1,0
90115,-100,4,2,1,55,0,0
90654,-100,4,2,1,5,0,0
100445,-100,4,2,1,40,0,0
100958,-100,4,2,1,30,0,0
101317,-100,4,2,1,20,0,0
101676,-100,4,2,1,15,0,0
103473,-100,4,2,1,40,0,0
111942,-200,4,1,1,15,0,0
112481,-200,4,1,1,18,0,0
112840,-200,4,1,1,23,0,0
113199,-200,4,1,1,28,0,0
113558,-100,4,1,1,35,0,0
114636,-100,4,1,2,45,0,0
137990,-100,4,1,2,45,0,1
159636,-100,4,2,0,55,0,1
160265,-100,4,2,1,45,0,0
160804,-100,4,1,1,20,0,0

[Colours]
Combo1 : 17,254,176
Combo2 : 173,255,95
Combo3 : 255,88,100
Combo4 : 255,94,55

[HitObjects]
72,120,33079,1,2
120,208,33618,1,2
136,296,33978,1,0
136,296,34157,1,6
136,296,34517,6,0,B|216:240|208:128,1,180,12|0
208,140,35055,1,2
208,140,35415,1,8
303,140,35594,2,0,B|296:240|376:296,1,180,2|8
424,232,36133,5,0
400,152,36313,1,2
400,72,36493,1,0
112,72,36852,1,8
112,152,37032,1,2
88,232,37212,1,0
32,296,37391,6,0,B|104:368|208:312,1,180,8|2
280,296,37930,2,0,B|351:224|444:275,1,180,0|8
444,275,38469,1,2
336,152,38828,6,0,B|312:48,1,90,8|0
256,184,39187,2,0,B|190:99,1,90,2|0
200,248,39546,2,0,B|104:199,1,90,0|8
184,328,39906,2,0,B|77:324,1,90,2|0
320,288,40265,5,8
320,288,40624,1,2
320,288,40804,2,0,B|400:224|336:112,1,180,0|8
296,24,41343,2,0,B|216:88|280:200,1,180,2|8
272,186,41882,6,0,B|192:240,1,90,0|2
80,184,42241,2,0,B|160:248|96:360,1,180,0|8
103,346,42780,1,2
184,320,42960,1,0
264,312,43139,6,0,B|368:344|432:272,1,180,8|2
456,200,43678,1,0
456,200,44037,1,8
456,200,44217,1,2
256,76,44576,5,8
200,120,44756,1,0
219,184,44936,1,2
292,184,45115,1,0
312,120,45295,1,0
178,172,45475,5,8
255,230,45654,1,2
333,172,45834,1,0
448,256,46014,6,0,B|344:232|296:336,1,180,12|2
299,327,46552,1,0
299,327,46912,1,8
256,240,47091,1,2
64,256,47451,6,0,B|168:232|216:336,1,180,12|2
212,327,47990,1,0
212,327,48349,1,8
256,240,48528,1,2
64,128,48888,6,0,B|168:152|216:48,1,180,8|2
120,208,49427,2,0,B|224:224,1,90
392,208,49786,2,0,B|288:224,1,90,8|2
446,128,50325,6,0,B|344:152|299:56,1,180,8|2
392,240,50864,2,0,B|288:256,1,90
120,240,51223,2,0,B|224:256,1,90,8|2
440,312,51762,6,0,B|261:339,1,180,12|2
416,224,52301,2,0,B|320:208,1,90,0|0
464,152,52660,2,0,B|392:96,2,90,8|2|0
280,224,53199,6,0,B|307:45,1,180,12|2
192,200,53738,2,0,B|176:104,1,90,0|0
120,248,54097,2,0,B|64:176,2,90,8|2|0
136,336,54636,6,0,B|208:270|320:310,1,180,8|2
384,328,55175,1,0
384,328,55534,1,8
376,248,55714,2,0,B|304:182|192:222,1,180,2|8
120,248,56253,6,0,B|144:200|120:152,1,90,0|2
216,48,56612,2,0,B|192:96|216:144,1,90
208,344,56972,1,8
208,344,57151,2,0,B|224:240,1,90,2|0
272,192,57511,1,12
416,336,57870,5,2
416,336,58049,2,0,B|472:248|408:160,1,180,0|8
480,48,58588,2,0,B|488:144,1,90,2|0
328,184,58948,6,0,B|248:240|144:176,1,180,12|2
112,248,59487,2,0,B|88:336,2,90,0|0|8
184,280,60025,1,2
256,48,60385,5,8
440,248,60744,2,0,B|352:280,1,90,2|0
72,248,61283,2,0,B|160:280,1,90,8|2
256,48,61822,5,8
440,280,62181,2,0,B|352:312,1,90,2|0
72,280,62720,2,0,B|160:312,1,90,8|2
156,310,63259,6,0,B|224:224|160:136,1,180,12|2
88,24,63798,2,0,B|29:103|97:190,1,180,0|8
272,192,64337,2,0,B|240:104,1,90,2|0
376,56,64696,6,0,B|308:142|372:230,1,180,12|2
444,342,65235,2,0,B|502:262|434:175,1,180,0|8
272,192,65774,2,0,B|304:280,1,90,2|0
240,336,66133,5,8
200,264,66313,1,0
160,336,66493,1,2
120,264,66672,1,0
80,336,66852,1,0
40,264,67031,1,8
80,192,67211,2,0,B|136:104|64:24,1,180,2|8
168,48,67750,6,0,B|256:80,1,90,0|2
168,184,68109,2,0,B|256:152,1,90
480,144,68469,1,8
480,144,68648,2,0,B|384:200|296:96,1,180,2|12
56,280,69367,5,2
56,280,69546,2,0,B|152:224|240:328,1,180,0|8
304,320,70085,2,0,B|272:224,1,90,2|0
336,152,70445,6,0,B|392:328,1,180,12|2
390,323,70984,1,0
424,168,71343,1,8
400,88,71523,1,2
320,72,71702,1,0
264,128,71882,6,0,B|184:184|80:136,1,180,8|2
32,88,72421,1,0
80,312,72780,1,8
152,280,72960,1,2
232,288,73139,1,0
296,336,73319,6,0,B|392:368|472:304,1,180,8|2
480,232,73858,1,0
480,232,74217,1,8
432,168,74397,1,2
440,88,74576,1,0
312,72,74756,6,0,B|280:168|336:264,1,180,12|2
208,136,75295,2,0,B|240:232|184:328,1,180,0|8
120,344,75834,1,2
120,344,76193,6,0,B|208:288|296:352,1,180,12|2
360,304,76732,2,0,B|424:240,2,90,0|0|8
296,256,77271,2,0,B|368:192,1,90,2|0
442,180,77630,5,8
442,180,77990,1,2
362,196,78169,1,0
282,172,78349,1,0
218,124,78528,1,8
194,44,78708,1,2
67,157,79067,6,0,B|115:245,1,90,8|0
219,125,79427,2,0,B|207:224,1,90,2|0
363,165,79786,2,0,B|296:240,1,90,0|8
459,277,80145,2,0,B|361:300,1,90,2|0
288,320,80505,6,0,B|208:272|112:312,1,180,12|2
28,192,81043,5,0
72,248,81223,1,0
136,229,81403,1,8
136,156,81582,1,2
72,136,81762,1,0
128,64,81942,6,0,B|208:112|304:72,1,180,12|2
388,192,82480,5,0
344,136,82660,1,0
280,155,82840,1,8
280,228,83019,1,2
344,248,83199,1,0
280,328,83379,6,0,B|88:320,1,180,8|2
24,160,83918,2,0,B|40:256,1,90
208,192,84277,2,0,B|192:96,2,90,8|2|0
96,64,84816,6,0,B|132:246,1,180,8|2
280,144,85355,2,0,B|256:48,1,90
208,192,85714,2,0,B|232:288,2,90,8|2|0
304,232,86253,6,0,B|376:168|488:208,2,180,12|2|0
248,288,87151,1,8
184,232,87331,1,2
240,176,87511,1,0
160,312,87690,6,0,B|16:192,1,180,12|2
112,80,88229,2,0,B|141:120|112:176,1,90
240,176,88588,2,0,B|211:136|240:80,2,90,8|2|0
304,128,89127,5,8
392,264,89487,1,2
328,320,89666,1,0
256,352,89846,1,0
184,320,90025,1,8
120,264,90204,1,8
123,250,90295,1,0
126,236,90385,1,2
129,222,90475,1,8
132,209,90564,1,8
256,192,90744,12,0,92002
256,56,100624,5,2
256,64,100984,1,2
256,72,101343,1,2
256,80,101702,1,2
184,352,103499,6,0,B|208:312|192:256,1,90
80,64,104037,1,0
144,112,104397,1,0
184,184,104756,1,0
256,120,105115,5,2
256,120,105295,1,2
256,120,105654,1,2
256,120,106014,1,2
328,352,106373,6,0,B|304:312|320:256,1,90
432,64,106911,1,0
368,112,107271,1,0
328,184,107630,1,0
256,120,107989,5,2
256,120,108169,1,2
256,120,108528,1,2
256,120,108888,1,2
72,280,109247,6,0,B|168:304,1,90
440,280,109786,1,0
440,280,109966,2,0,B|344:304,1,90
256,304,110505,1,0
256,80,110864,5,2
256,80,111043,1,2
224,264,111403,1,2
256,304,111582,1,0
288,264,111762,1,2
144,136,112121,6,0,B|112:120,3,22.5
208,80,112481,2,0,B|190:48,3,22.5
304,80,112840,2,0,B|314:60,3,22.5
368,136,113199,2,0,B|388:125,3,22.5
296,160,113558,5,0
288,160,113648,1,0
280,160,113738,1,0
272,160,113828,1,0
264,160,113918,1,0
256,160,114008,1,0
248,160,114097,1,0
240,160,114187,1,0
232,160,114277,1,0
48,296,114996,6,0,B|128:224|216:288,1,180,4|8
296,240,115534,2,0,B|379:301|459:229,1,180,0|0
392,96,116073,2,0,B|361:130|376:200,1,90,8|0
264,320,116433,5,0
168,296,116612,2,0,B|136:248|160:200,1,90,0|8
240,72,116972,2,0,B|304:144|248:240,1,180
336,280,117511,2,0,B|368:192,1,90,8|0
400,104,117870,5,0
112,104,118229,1,8
40,168,118409,2,0,B|114:245|40:344,1,180
144,336,118948,2,0,B|328:336,1,180,8|0
320,240,119487,5,0
408,288,119666,1,8
408,192,119846,1,0
408,192,119936,1,8
408,192,120025,1,0
496,152,120205,1,0
408,104,120385,1,8
320,144,120564,1,0
232,192,120744,6,0,B|160:256|48:192,1,180,0|8
208,296,121283,2,0,B|280:232|392:296,1,180,0|0
232,192,121822,1,8
232,192,122181,6,0,B|208:144|232:96,1,90
312,48,122540,2,0,B|336:96|312:144,1,90,8|0
312,296,122900,2,0,B|288:248|312:200,1,90
392,152,123259,2,0,B|416:200|392:248,1,90,8|0
224,280,123618,6,0,B|144:224|48:280,1,180,0|8
221,149,124157,2,0,B|301:205|397:149,1,180,0|0
448,72,124696,1,8
312,296,125055,5,0
144,80,125415,1,8
64,144,125594,1,0
64,144,125684,1,8
64,144,125774,1,0
64,240,125954,1,0
120,320,126133,2,0,B|160:288|216:312,1,90,8|0
432,272,126493,6,0,B|336:328|256:256,1,180,4|8
264,164,127031,2,0,B|360:108|440:180,1,180,0|0
431,172,127570,1,8
200,288,127930,6,0,B|104:312,1,90
224,200,128289,2,0,B|135:156,1,90,8|0
296,136,128648,2,0,B|255:45,1,90
384,128,129008,2,0,B|411:32,1,90,8|0
320,232,129367,5,0
184,88,129726,1,8
96,136,129906,2,0,B|24:216|96:312,1,180
87,300,130445,1,8
256,40,130804,6,0,B|360:56,1,90
224,232,131163,2,0,B|120:216,1,90,8|0
320,160,131523,2,0,B|424:176,1,90
288,352,131882,2,0,B|184:336,1,90,8|0
104,320,132241,5,0
104,320,132600,1,8
104,320,132780,2,0,B|24:232|120:144,1,180
208,88,133319,2,0,B|184:280,2,180,8|0|8
296,40,134217,2,0,B|368:112|462:45,1,180
480,144,134756,2,0,B|464:240,1,90,8|0
376,184,135115,6,0,B|304:248|304:352,1,180,0|8
400,320,135654,1,0
80,248,136014,1,0
136,184,136193,2,0,B|208:248|208:352,1,180,8|0
192,56,136912,1,8
256,128,137091,1,0
256,128,137181,1,8
256,128,137271,1,0
320,56,137451,1,0
338,182,137630,6,0,B|253:242|170:180,1,180,8|4
72,192,138169,2,0,B|112:272,1,90,0|8
168,352,138528,2,0,B|257:300|342:353|342:353,1,180
400,272,139067,2,0,B|440:191,1,90,8|0
408,96,139427,5,0
344,176,139606,1,0
272,72,139786,1,8
247,171,139965,1,0
144,104,140145,1,0
163,204,140324,1,0
36,181,140505,1,8
96,264,140684,1,0
176,328,140864,6,0,B|376:352,1,180,0|8
280,232,141403,2,0,B|376:272,1,90
376,128,141762,2,0,B|424:208,1,90,0|8
440,304,142121,1,0
440,304,142211,1,0
440,304,142301,1,0
144,152,142660,5,8
224,208,142840,1,0
160,288,143020,1,0
80,232,143199,1,0
141,131,143379,5,8
245,204,143559,1,0
162,308,143739,1,0
416,120,144097,5,8
416,120,144277,2,0,B|480:200|416:296,1,180
352,352,144816,2,0,B|288:272|352:176,2,180,8|0|8
256,344,145714,2,0,B|152:328,1,90
160,232,146073,2,0,B|264:216,2,90,0|8|0
80,288,146612,5,0
256,96,146972,1,8
256,96,147151,1,0
432,288,147511,1,0
432,288,147690,1,8
432,288,147870,1,0
432,288,148049,6,0,B|344:360|264:280,1,180,0|8
216,200,148588,1,0
216,200,148678,1,8
136,136,148858,1,8
136,136,148948,1,0
72,208,149127,1,8
144,272,149307,1,0
288,128,149487,6,0,B|392:96|464:184,1,180,4|8
480,264,150025,1,0
32,120,150385,1,0
59,213,150564,2,0,B|120:288|224:256,2,180,8|0|8
168,176,151463,2,0,B|208:144|200:88,1,90
344,176,151822,2,0,B|304:144|312:88,2,90,0|8|0
452,213,152361,6,0,B|392:288|288:256,1,180,0|8
192,224,152900,2,0,B|89:192|29:267,1,180
29,267,153439,1,8
80,56,153798,6,0,B|136:128,1,90
192,223,154157,2,0,B|256:160,1,90,8|0
256,160,154517,2,0,B|319:223,1,90
376,127,154876,2,0,B|432:56,1,90,8|0
432,56,155145,1,0
432,56,155235,1,4
448,256,155594,5,8
384,328,155774,2,0,B|304:272|208:328,1,180
192,224,156313,2,0,B|102:276|22:220,2,180,8|0|8
176,64,157211,1,0
288,184,157391,1,0
128,152,157570,1,0
272,88,157750,1,8
192,224,157930,1,0
192,224,158020,1,8
192,224,158109,1,0
440,232,158469,5,8
440,232,158648,2,0,B|400:320|288:336,1,180
211,333,159187,2,0,B|112:320|72:232,1,180,8|0
112,144,159726,1,2
400,144,160085,1,2
400,144,160265,1,2
256,296,160984,5,0
