osu file format v9

[General]
AudioFilename: haze.mp3
AudioLeadIn: 0
PreviewTime: 103499
Countdown: 0
SampleSet: Soft
StackLeniency: 0.7
Mode: 0
LetterboxInBreaks: 1

[Editor]
Bookmarks: 33053,45988,71856,90179,90449,100598,113443,115059,137964,251497,252215,253293,254461
DistanceSpacing: 0.9
BeatDivisor: 4
GridSize: 4

[Metadata]
Title:haze
Artist:07th Expansion
Creator:Shiirn
Version:Calm
Source:Umineko no Naku Koro ni
Tags:Natteke Lanttu

[Difficulty]
HPDrainRate:2
CircleSize:3
OverallDifficulty:2
ApproachRate:5
SliderMultiplier:0.9
SliderTickRate:1

[Events]
//Background and Video events
0,0,"2fccad17ba1e823c12798b19cb836495.jpg"
//Break Periods
2,92381,99424
//Storyboard Layer 0 (Background)
//Storyboard Layer 1 (Fail)
//Storyboard Layer 2 (Pass)
//Storyboard Layer 3 (Foreground)
//Storyboard Sound Samples
//Background Colour Transformations
3,100,163,162,255

[TimingPoints]
26,359.281437125748,4,2,1,50,1,0
100958,-100,4,2,1,45,0,0
101317,-100,4,2,1,30,0,0
101676,-100,4,2,1,15,0,0
103473,-100,4,2,1,60,0,0
112095,-100,4,2,1,15,0,0
112814,-100,4,2,1,30,0,0
113532,-100,4,2,1,45,0,0
114251,-100,4,2,1,60,0,0
137990,-100,4,2,1,60,0,1
160239,-100,4,2,1,60,0,0
160984,-100,4,2,1,60,0,1
161058,-100,4,2,1,60,0,0

[Colours]
Combo1 : 143,155,175
Combo2 : 132,138,60
Combo3 : 122,122,122

[HitObjects]
376,224,33079,6,0,B|216:184,2,135
368,312,34517,6,0,B|280:336,1,90,2|8
256,256,35235,2,0,B|280:160,2,90,0|8|0
184,296,36313,1,8
108,264,36672,2,0,B|96:168,1,90,0|8
176,152,37391,6,0,B|288:80,2,135,0|0|8
240,208,38828,2,0,B|320:256,1,90,0|8
384,208,39546,2,0,B|400:296,1,90,0|8
328,336,40265,5,0
244,340,40624,2,0,B|164:284,2,90,8|0|8
288,272,41702,2,0,B|320:208|392:192,2,135,0|0|8
216,232,43139,6,0,B|184:296|112:312,2,135,0|0|8
256,160,44576,2,0,B|256:64,1,90,0|8
332,108,45295,2,0,B|380:108|420:140,1,90,0|8
416,224,46014,6,0,B|376:304,1,90,0|8
296,336,46732,2,0,B|192:320,1,90,2|8
240,248,47451,1,2
320,232,47810,2,0,B|360:152,1,90,10|2
384,72,48528,1,8
304,96,48888,6,0,B|240:32,2,90,2|8|2
240,148,49966,1,0
328,176,50325,1,2
304,256,50684,2,0,B|168:280,2,135,8|2|2
328,176,52121,6,0,B|208:176,1,90,8|2
164,208,52840,2,0,B|109:192|108:143,1,90,8|2
176,112,53558,2,0,B|288:80,1,90,8|2
296,156,54277,1,8
296,156,54636,6,0,B|352:300,2,135,8|2|2
216,156,56073,2,0,B|160:300,2,135,2|2|8
256,96,57511,6,0,B|256:184,1,90,2|8
256,264,58229,2,0,B|256:352,1,90,2|8
336,328,58948,2,0,B|432:296,2,90,2|8|2
336,248,60025,1,8
360,172,60385,6,0,B|408:180|440:228,2,90,2|8|2
276,160,61463,2,0,B|196:200,1,90,8|2
120,184,62181,2,0,B|56:128|56:56,2,135,8|2|2
192,160,63618,6,0,B|107:172|68:232,2,135,8|2|2
256,108,65055,2,0,B|336:148,1,90,10|2
400,200,65774,1,10
408,280,66133,6,0,B|480:352,2,90,2|8|2
328,264,67211,2,0,B|200:252,1,90,8|2
168,216,67930,2,0,B|92:164|76:64,1,180,8|8
156,68,69008,6,0,B|248:96,1,90,2|8
256,172,69726,2,0,B|244:228|256:272,2,90,2|8|2
316,120,70804,2,0,B|408:148|460:232,1,180,8|8
388,276,71882,2,0,B|276:348,2,135,2|2|8
324,220,73319,6,0,B|252:168,1,90,2|8
180,220,74037,2,0,B|164:132,1,90,2|8
236,92,74756,1,2
324,92,75115,2,0,B|404:148,2,90,8|2|8
236,92,76193,6,0,B|100:68,2,135,2|2|8
268,172,77630,1,2
236,252,77989,2,0,B|100:276,2,135,8|2|2
268,172,79426,2,0,B|148:172,2,90,8|2|8
348,172,80505,6,0,B|440:176,1,90,2|8
412,252,81223,2,0,B|400:296|420:340,2,90,2|8|2
436,176,82301,2,8,B|420:88|316:56,1,180
236,64,83379,2,0,B|184:108|176:184,2,135,2|2|8
288,128,84816,6,0,B|257:188|279:261,2,135,2|2|8
360,166,86253,2,0,B|355:233|404:292,2,135,2|2|8
428,208,87690,2,0,B|460:176|472:132,1,90,2|8
420,68,88409,2,0,B|328:88,1,90,2|8
296,160,89127,6,0,B|204:120,2,90,2|8|2
328,236,90205,2,14,B|348:244|348:244|372:244|372:244|384:228|384:228|408:228,1,90
256,192,90744,12,2,92181
172,164,100624,6,0,B|260:216,3,90,2|2|2|2
256,56,103499,6,0,B|256:192,1,135
176,188,104397,2,0,B|156:232|160:276,2,90
240,140,105475,2,0,B|300:120|376:136,1,135
432,192,106373,6,0,B|472:252|456:320,1,135
376,324,107271,1,0
324,264,107630,2,0,B|272:238|246:289|194:264,1,135
156,192,108528,2,0,B|224:128,1,90
256,56,109247,6,0,B|332:60|384:96,1,135
428,168,110145,1,0
384,236,110505,2,0,B|332:271|256:275,1,135,0|0
180,248,111403,2,0,B|92:268,1,90
40,192,112121,6,0,B|74:40|256:131|256:131|437:40|468:192,1,540,14|14
360,312,114996,6,0,B|229:283,2,135,2|2|8
354,227,116433,2,0,B|331:136,1,90,2|8
252,125,117151,2,0,B|302:51,1,90,2|8
382,74,117870,5,2
444,136,118229,2,0,B|460:232,3,90,8|2|8|6
400,280,119666,2,0,B|476:228|492:128,1,180,8|8
412,132,120744,6,0,B|320:160,1,90,6|8
312,236,121462,2,0,B|324:292|312:336,2,90,2|8|2
248,184,122540,2,0,B|160:212|112:296,1,180,8|8
188,324,123618,6,0,B|228:249|202:182,2,135,2|10|2
264,360,125055,1,2
340,328,125415,2,0,B|359:244|317:186,2,135,8|2|2
264,288,126852,6,0,B|203:221,1,90,10|2
184,140,127571,1,10
100,137,127930,2,0,B|58:43,2,90,2|8|2
169,181,129008,2,0,B|284:238,1,90,8|2
316,176,129726,5,8
316,176,130085,1,2
316,176,130445,1,8
316,176,130804,2,0,B|364:252,1,90,2|8
444,244,131523,2,0,B|436:332,2,90,2|8|2
464,164,132600,6,0,B|384:120|292:120,1,180,8|8
256,192,133678,1,2
220,264,134037,2,0,B|128:264|48:220,1,180,8|8
72,140,135115,6,0,B|212:44,2,135,6|2|8
152,156,136552,2,0,B|260:156,1,90,0|8
196,224,137271,2,0,B|108:252,1,90,2|8
64,192,137990,6,0,B|88:128|156:100,2,135,6|2|8
140,224,139427,2,0,B|228:268,3,90,6|8|2|8
300,276,140864,6,0,B|276:340|208:368,2,135,6|2|8
348,212,142301,2,0,B|260:168,3,90,2|8|2|8
256,92,143738,6,0,B|256:232,2,135,6|2|8
332,116,145175,1,6
332,196,145534,1,8
332,276,145894,1,2
256,292,146253,1,8
256,292,146612,6,0,B|256:152,2,135,6|2|8
180,268,148049,1,2
180,188,148408,1,8
180,108,148768,1,2
180,28,149127,1,0
104,56,149487,6,0,B|44:104|36:168,2,135,6|2|8
164,108,150924,2,0,B|228:172,1,90,6|8
256,96,151642,2,0,B|256:184,1,90,2|8
336,192,152361,6,0,B|396:240|404:304,2,135,6|2|8
276,244,153798,2,0,B|212:308,1,90,6|8
184,232,154516,2,0,B|184:320,1,90,2|8
264,344,155235,6,0,B|424:296,2,135,6|2|8
256,264,156672,2,0,B|256:168,2,90,2|8|2
180,240,157750,1,8
172,160,158109,6,0,B|12:208,2,135,6|2|10
196,280,159726,2,0,B|344:320,1,135,0|2
432,192,160984,5,12
