osu file format v10

[General]
AudioFilename: dreamenddischarger.mp3
AudioLeadIn: 2000
PreviewTime: 159000
Countdown: 0
SampleSet: Normal
StackLeniency: 0.7
Mode: 0
LetterboxInBreaks: 1

[Editor]
Bookmarks: 6484,47627,159056,165913
DistanceSpacing: 1.3
BeatDivisor: 4
GridSize: 8

[Metadata]
Title:dreamenddischarger
TitleUnicode:dreamenddischarger
Artist:07th Expansion
ArtistUnicode:07th Expansion
Creator:Heatherfield
Version:yuca
Source:Umineko no Naku Koro ni
Tags:when they cry zts yuka baca y_u_c_a aiaiclala
BeatmapID:177713
BeatmapSetID:36595

[Difficulty]
HPDrainRate:5
CircleSize:4
OverallDifficulty:5
ApproachRate:7
SliderMultiplier:1.3
SliderTickRate:2

[Events]
//Background and Video events
0,0,"tsuka look look window out.jpg"
//Break Periods
//Storyboard Layer 0 (Background)
//Storyboard Layer 1 (Fail)
//Storyboard Layer 2 (Pass)
//Storyboard Layer 3 (Foreground)
//Storyboard Sound Samples
//Background Colour Transformations
3,100,163,162,255

[TimingPoints]
-372,428.571428571429,4,2,1,20,1,0
13235,-100,4,2,1,30,0,0
20092,-100,4,1,1,50,0,0
20306,-100,4,2,1,50,0,0
20949,-100,4,1,1,50,0,0
21163,-100,4,2,1,50,0,0
22663,-100,4,1,1,50,0,0
22877,-100,4,2,1,50,0,0
24163,-100,4,1,1,50,0,0
24377,-100,4,2,1,50,0,0
24806,-100,4,1,1,50,0,0
25020,-100,4,2,1,50,0,0
26092,-100,4,1,1,50,0,0
26627,-100,4,2,1,50,0,0
26735,-100,4,1,1,50,0,0
26949,-100,4,2,1,50,0,0
27592,-100,4,1,1,50,0,0
27806,-100,4,2,1,50,0,0
28235,-100,4,1,1,50,0,0
28449,-100,4,2,1,50,0,0
29520,-100,4,1,1,50,0,0
29949,-100,4,2,1,50,0,0
30163,-100,4,1,1,50,0,0
30377,-100,4,2,1,50,0,0
31020,-100,4,1,1,50,0,0
31235,-100,4,2,1,50,0,0
31663,-100,4,1,1,50,0,0
32735,-100,4,2,1,50,0,0
32949,-100,4,1,1,50,0,0
33270,-100,4,2,1,50,0,0
33485,-100,4,1,1,50,0,0
33806,-100,4,1,1,50,0,0
34020,-100,4,2,1,50,0,0
34235,-100,4,1,1,50,0,0
34877,-100,4,2,1,50,0,0
35092,-100,4,1,1,50,0,0
36163,-100,4,2,1,50,0,0
36377,-100,4,1,1,50,0,0
36592,-100,4,2,1,50,0,0
36806,-100,4,1,1,50,0,0
37449,-100,4,2,1,50,0,0
37663,-100,4,1,1,50,0,0
38306,-100,4,2,1,50,0,0
38520,-100,4,1,1,50,0,0
38735,-100,4,2,1,50,0,0
38949,-100,4,1,1,50,0,0
39163,-100,4,2,1,50,0,0
39377,-100,4,1,1,50,0,0
40020,-100,4,2,1,50,0,0
40235,-100,4,1,1,50,0,0
40877,-100,4,2,1,50,0,0
41092,-100,4,1,1,50,0,0
41306,-100,4,2,1,50,0,0
41949,-100,4,1,1,50,0,0
43020,-100,4,2,1,50,0,0
43235,-100,4,1,1,50,0,0
43449,-100,4,2,1,50,0,0
43663,-100,4,1,1,50,0,0
44735,-100,4,1,1,50,0,0
45056,-100,4,1,1,60,0,0
45377,-100,4,1,1,50,0,0
45699,-100,4,1,1,40,0,0
46020,-100,4,1,1,30,0,0
46342,-100,4,1,1,20,0,0
46663,-100,4,1,1,10,0,0
47092,-100,4,1,1,50,0,0
47627,-100,4,1,1,40,0,0
61235,-100,4,1,1,40,0,0
74949,-100,4,2,1,40,0,0
76235,-100,4,1,1,40,0,0
76449,-100,4,2,1,40,0,0
77949,-100,4,1,1,40,0,0
78163,-100,4,2,1,40,0,0
81377,-100,4,1,1,40,0,0
81592,-100,4,2,1,40,0,0
81806,-100,4,1,1,40,0,0
82020,-100,4,2,1,40,0,0
82235,-100,4,1,1,40,0,0
83092,-100,4,2,1,40,0,0
83520,-100,4,1,1,40,0,0
83735,-100,4,2,1,40,0,0
83949,-100,4,1,1,40,0,0
84592,-100,4,2,1,40,0,0
85235,-100,4,1,1,40,0,0
95520,-100,4,1,1,40,0,0
96806,-100,4,2,1,40,0,0
97235,-100,4,1,1,40,0,0
98520,-100,4,2,1,40,0,0
98949,-100,4,1,1,40,0,0
100235,-100,4,2,1,40,0,0
100449,-100,4,1,1,40,0,0
102056,-100,4,2,1,40,0,0
102485,-100,4,2,1,40,0,0
102806,-100,4,2,1,40,0,0
103020,-100,4,2,1,40,0,0
103663,-100,4,2,1,40,0,0
104092,-100,4,2,1,40,0,0
104520,-100,4,2,1,40,0,0
104735,-100,4,2,1,40,0,0
105377,-100,4,2,1,40,0,0
105592,-100,4,2,1,40,0,0
106235,-100,4,2,1,40,0,0
106449,-100,4,2,1,40,0,0
107092,-100,4,2,1,40,0,0
107342,-100,4,2,1,40,0,0
107949,-100,4,2,1,40,0,0
108163,-100,4,2,1,40,0,0
108806,-100,4,2,1,40,0,0
109020,-100,4,2,1,40,0,0
109663,-100,4,2,1,40,0,0
109877,-100,4,2,1,40,0,0
110520,-100,4,2,1,40,0,0
110735,-100,4,2,1,40,0,0
111377,-100,4,2,1,40,0,0
111592,-100,4,2,1,40,0,0
112235,-100,4,2,1,40,0,0
112449,-100,4,2,1,40,0,0
113092,-100,4,2,1,40,0,0
113306,-100,4,2,1,40,0,0
113949,-100,4,2,1,40,0,0
114163,-100,4,2,1,40,0,0
114806,-100,4,2,1,40,0,0
115020,-100,4,2,1,40,0,0
115663,-100,4,1,1,40,0,0
116199,-100,4,2,1,40,0,0
116520,-100,4,2,1,40,0,0
116735,-100,4,2,1,40,0,0
130235,-100,4,1,1,40,0,0
130342,-100,4,2,1,40,0,0
130556,-100,4,1,1,40,0,0
130663,-100,4,2,1,40,0,0
130877,-100,4,1,1,40,0,0
130985,-100,4,2,1,40,0,0
131199,-100,4,1,1,40,0,0
131306,-100,4,2,1,40,0,0
131520,-100,4,1,1,40,0,0
145342,-100,4,1,1,40,0,0
146949,-100,4,1,1,45,0,0
148663,-100,4,1,1,50,0,0
150377,-100,4,1,1,55,0,0
152092,-100,4,1,1,60,0,0
153806,-100,4,1,1,65,0,0
155520,-100,4,1,1,70,0,0
157235,-100,4,1,1,80,0,0
158949,-100,4,1,2,70,0,0
159163,-100,4,2,2,70,0,0
159377,-100,4,1,2,70,0,0
159592,-100,4,2,2,70,0,0
159806,-100,4,1,2,70,0,0
160449,-100,4,2,2,70,0,0
160663,-100,4,1,2,70,0,0
160877,-100,4,2,2,70,0,0
161092,-100,4,1,2,70,0,0
161306,-100,4,2,2,70,0,0
161520,-100,4,1,2,70,0,0
162163,-100,4,1,2,70,0,0
162377,-100,4,1,2,70,0,0
163877,-100,4,2,2,70,0,0
164092,-100,4,1,2,70,0,0
164306,-100,4,2,2,70,0,0
164520,-100,4,1,2,70,0,0
164735,-100,4,2,2,70,0,0
164949,-100,4,1,2,70,0,0
165163,-100,4,1,2,70,0,0
165485,-100,4,2,2,70,0,0
165592,-100,4,1,2,70,0,0
166020,-100,4,2,2,70,0,0
166235,-100,4,1,2,70,0,0
166449,-100,4,2,2,70,0,0
166663,-100,4,1,2,70,0,0
167306,-100,4,2,2,70,0,0
167520,-100,4,1,2,70,0,0
167735,-100,4,2,2,70,0,0
167949,-100,4,1,2,70,0,0
168163,-100,4,2,2,70,0,0
168377,-100,4,1,2,70,0,0
168913,-100,4,2,2,70,0,0
169020,-100,4,1,2,70,0,0
169235,-100,4,1,2,70,0,0
170735,-100,4,2,2,70,0,0
170949,-100,4,1,2,70,0,0
171163,-100,4,2,2,70,0,0
171377,-100,4,1,2,70,0,0
171592,-100,4,2,2,70,0,0
171806,-100,4,1,2,70,0,0
172342,-100,4,2,2,70,0,0
172449,-100,4,1,2,70,0,0
172877,-100,4,2,2,70,0,0
173092,-100,4,1,2,70,0,0
173306,-100,4,2,2,70,0,0
173520,-100,4,1,2,70,0,0
174163,-100,4,2,2,70,0,0
174377,-100,4,1,2,70,0,0
174592,-100,4,2,2,70,0,0
174806,-100,4,1,2,70,0,0
175020,-100,4,2,2,70,0,0
175235,-100,4,1,2,70,0,0
175770,-100,4,2,2,70,0,0
175877,-100,4,2,2,70,0,0
176092,-100,4,1,2,70,0,0
176735,-100,4,2,2,70,0,0
176949,-100,4,1,2,70,0,0
177592,-100,4,2,2,70,0,0
177806,-100,4,1,2,70,0,0
178020,-100,4,2,2,70,0,0
178235,-100,4,1,2,70,0,0
178449,-100,4,2,2,70,0,0
178663,-100,4,1,2,70,0,0
178877,-100,4,1,2,70,0,0
180163,-100,4,2,2,70,0,0
180377,-100,4,1,2,70,0,0
181020,-100,4,2,2,70,0,0
181235,-100,4,1,2,70,0,0
181877,-100,4,2,2,70,0,0
182092,-100,4,1,2,70,0,0
186592,-100,4,2,2,70,0,0
186806,-100,4,1,2,70,0,0
187020,-100,4,2,1,70,0,0
187235,-100,4,1,1,70,0,0
187449,-100,4,2,1,70,0,0
187663,-100,4,1,1,70,0,0
187877,-100,4,2,1,70,0,0
188092,-100,4,1,1,70,0,0
188306,-100,4,2,1,70,0,0
188520,-100,4,1,1,70,0,0
188735,-100,4,2,1,70,0,0
188949,-100,4,1,1,70,0,0
189377,-100,4,2,1,70,0,0
189592,-100,4,2,1,70,0,0
189806,-100,4,1,1,70,0,0
190449,-100,4,2,1,70,0,0
190663,-100,4,1,1,70,0,0
190877,-100,4,2,1,70,0,0
191092,-100,4,1,1,70,0,0
191306,-100,4,2,1,70,0,0
191520,-100,4,1,1,70,0,0
191735,-100,4,2,1,70,0,0
191949,-100,4,1,1,70,0,0
192163,-100,4,2,1,70,0,0
192377,-100,4,1,1,70,0,0
192806,-100,4,2,1,70,0,0
193020,-100,4,2,1,70,0,0
193235,-100,4,1,1,70,0,0
193877,-100,4,2,1,70,0,0
194092,-100,4,1,1,70,0,0
194306,-100,4,2,1,70,0,0
194520,-100,4,1,1,70,0,0
194735,-100,4,2,1,70,0,0
194949,-100,4,1,1,70,0,0
195163,-100,4,2,1,70,0,0
195377,-100,4,1,1,70,0,0
195592,-100,4,2,1,70,0,0
195806,-100,4,1,1,70,0,0
196235,-100,4,2,1,70,0,0
196449,-100,4,2,1,70,0,0
196663,-100,4,1,1,70,0,0
197306,-100,4,2,1,70,0,0
197520,-100,4,1,1,70,0,0
197735,-100,4,2,1,70,0,0
197949,-100,4,1,1,70,0,0
198163,-100,4,2,1,70,0,0
198377,-100,4,1,2,70,0,0
200520,-100,4,1,2,70,0,0

[Colours]
Combo1 : 247,242,155
Combo2 : 157,228,247
Combo3 : 247,174,231
Combo4 : 191,126,231

[HitObjects]
256,192,270,12,2,6484,0:0:0
64,64,6806,6,0,B|176:64,1,97.5,2|0,0:0|0:0,0:0:0
448,64,7770,1,0,0:0:0
360,256,8199,2,0,B|256:256,1,97.5,2|2,0:0|0:0,0:0:0
136,256,8842,1,0,0:0:0
136,256,9485,2,0,B|88:256,1,32.5,0|2,0:0|0:0,0:0:0
232,328,9913,6,0,B|344:328,1,97.5
456,328,10556,2,0,B|472:256|448:184,1,130,2|0,0:0|0:0,0:0:0
452,199,11199,1,2,0:0:0
400,40,11627,1,0,0:0:0
256,56,11949,1,0,0:0:0
112,40,12270,1,2,0:0:0
48,320,12699,1,0,0:0:0
136,320,12913,2,0,B|192:320,1,32.5,2|0,0:0|0:0,0:0:0
480,320,13342,6,0,B|368:320,1,97.5,2|2,0:0|0:0,0:0:0
256,320,13985,2,0,B|232:272|280:200|248:168,1,130
256,104,14627,1,0,0:0:0
256,104,14735,1,2,0:0:0
32,104,15056,6,0,B|144:104,1,97.5,2|2,0:0|0:0,0:0:0
256,104,15699,2,0,B|280:152|232:224|264:256,1,130
256,320,16341,1,0,0:0:0
256,320,16449,1,2,0:0:0
480,104,16770,6,0,B|368:104,1,97.5
256,104,17413,2,0,B|232:152|280:224|248:256,1,130,2|0,0:0|0:0,0:0:0
256,320,18055,1,2,0:0:0
256,320,18163,1,0,0:0:0
256,192,18270,12,0,19770,0:0:0
40,128,20199,6,0,B|184:128,1,130
256,128,20842,2,0,B|262:72|310:56,1,65
472,280,21913,2,0,B|464:344|400:352,2,97.5
400,240,22770,2,0,B|408:176|472:168,2,97.5
312,240,23627,6,0,B|184:240,1,130
96,240,24270,1,0,0:0:0
96,72,24699,2,0,B|184:72,1,65
328,72,25342,2,0,B|392:72|424:136,2,97.5
328,160,26199,2,0,B|208:160,1,97.5
192,160,26627,2,0,B|200:208|160:232,1,65
104,176,27056,6,0,B|80:202|72:240|80:280|96:320,1,130
88,299,27699,1,0,0:0:0
248,256,28127,1,0,0:0:0
264,336,28342,1,0,0:0:0
416,272,28770,2,0,B|464:240|464:160,2,97.5
384,192,29627,2,0,B|384:152|352:112,1,65
328,112,29949,2,0,B|232:72,1,97.5
232,160,30485,6,0,B|88:104,1,130
112,112,31127,1,0,0:0:0
152,280,31556,1,0,0:0:0
232,312,31770,1,0,0:0:0
280,160,32199,2,0,B|408:112,1,130
401,114,32842,1,0,0:0:0
408,200,33056,2,0,B|296:242,1,97.5
280,248,33485,2,0,B|280:280|256:320,1,65
200,256,33913,6,0,B|200:208|232:176,1,65
232,160,34235,2,0,B|344:160,1,97.5
280,320,34984,1,0,0:0:0
192,320,35199,1,0,0:0:0
208,64,35627,2,0,B|256:40|320:72,2,97.5
256,136,36485,1,0,0:0:0
304,208,36699,1,0,0:0:0
304,208,36806,2,0,B|248:232|192:200,1,97.5
128,192,37342,6,0,B|136:264,1,65
144,296,37663,2,0,B|192:280|248:312,1,97.5
376,344,38413,1,0,0:0:0
464,344,38628,1,0,0:0:0
464,344,38735,1,0,0:0:0
472,216,39056,2,0,B|400:192,1,65
392,160,39377,2,0,B|368:112|312:112,1,97.5
312,208,39913,2,0,B|296:256|256:264,1,65
230,258,40235,2,0,B|118:258,1,97.5
152,176,40770,6,0,B|72:176,1,65
64,208,41092,2,0,B|32:256|40:320,1,97.5
256,344,41841,1,0,0:0:0
256,344,42056,1,0,0:0:0
256,176,42485,2,0,B|256:296,2,97.5
256,88,43342,1,0,0:0:0
256,88,43556,1,0,0:0:0
256,88,43663,2,0,B|296:56|368:64,1,97.5
432,64,44199,5,0,0:0:0
507,167,44520,1,0,0:0:0
421,261,44842,1,0,0:0:0
295,230,45163,1,0,0:0:0
307,105,45485,1,0,0:0:0
403,79,45806,1,0,0:0:0
463,155,46127,1,0,0:0:0
406,232,46449,1,0,0:0:0
308,205,46770,1,0,0:0:0
168,72,47199,5,0,0:0:0
168,72,47306,1,0,0:0:0
168,72,47413,1,0,0:0:0
168,72,47520,1,0,0:0:0
168,72,47627,6,2,B|144:40|72:40|48:80,1,130,2|0,0:0|0:0,0:0:0
48,160,48270,2,2,B|72:192|144:192|168:152,1,130,2|0,0:0|0:0,0:0:0
240,120,48913,2,2,B|264:64|400:64|424:128,1,195,2|2,0:0|0:0,0:0:0
184,288,49985,1,0,0:0:0
184,288,50199,2,2,B|168:336|128:360|56:320,1,130,2|2,0:0|0:0,0:0:0
344,72,51056,6,2,B|368:40|440:40|464:80,1,130,2|0,0:0|0:0,0:0:0
464,160,51699,2,2,B|440:192|368:192|344:152,1,130,2|0,0:0|0:0,0:0:0
272,120,52342,2,2,B|248:64|112:64|88:128,1,195,2|2,0:0|0:0,0:0:0
328,288,53414,1,0,0:0:0
328,288,53627,2,2,B|344:336|384:360|456:320,1,130,2|2,0:0|0:0,0:0:0
424,160,54485,6,2,B|424:0,1,130,2|0,0:0|0:0,0:0:0
344,64,55127,2,2,B|344:192,1,130,2|0,0:0|0:0,0:0:0
344,280,55770,2,2,B|256:296|128:280,1,195,2|2,0:0|0:0,0:0:0
248,160,56843,1,0,0:0:0
248,160,57057,2,2,B|248:16,1,130,2|2,0:0|0:0,0:0:0
72,160,57913,6,2,B|72:0,1,130,2|0,0:0|0:0,0:0:0
152,64,58555,2,2,B|152:192,1,130,2|0,0:0|0:0,0:0:0
152,280,59198,2,2,B|240:296|368:280,1,195,2|2,0:0|0:0,0:0:0
312,128,60270,1,0,0:0:0
312,128,60484,2,2,B|248:120|168:128,1,130,2|2,0:0|0:0,0:0:0
40,216,61342,5,2,0:0:0
40,216,61556,2,2,B|40:344,1,130,2|2,0:0|0:0,0:0:0
208,344,62413,1,0,0:0:0
296,344,62627,1,2,0:0:0
384,344,62842,2,2,B|384:208,1,130,2|2,0:0|0:0,0:0:0
216,216,63699,1,0,0:0:0
184,136,63913,1,2,0:0:0
264,104,64127,1,2,0:0:0
296,184,64342,1,2,0:0:0
296,184,64770,5,2,0:0:0
296,184,64985,2,2,B|448:184,1,130,2|2,0:0|0:0,0:0:0
336,40,65842,1,0,0:0:0
248,40,66056,1,2,0:0:0
160,40,66270,2,2,B|24:40,1,130,2|2,0:0|0:0,0:0:0
96,192,67127,1,2,0:0:0
184,192,67342,2,2,B|344:192,1,130,0|2,0:0|0:0,0:0:0
480,192,68199,5,2,0:0:0
480,192,68413,2,2,B|512:256|472:336,1,130,2|2,0:0|0:0,0:0:0
312,320,69270,1,0,0:0:0
224,320,69484,1,2,0:0:0
136,320,69699,2,2,B|104:256|144:176,1,130,2|2,0:0|0:0,0:0:0
256,72,70556,1,0,0:0:0
336,40,70770,1,2,0:0:0
376,112,70984,1,2,0:0:0
296,152,71199,1,2,0:0:0
296,152,71627,5,2,0:0:0
296,152,71842,2,2,B|152:152,1,130,2|2,0:0|0:0,0:0:0
96,304,72699,1,0,0:0:0
184,304,72913,1,2,0:0:0
272,304,73127,2,2,B|408:304,1,130,2|2,0:0|0:0,0:0:0
368,136,73985,1,2,0:0:0
280,136,74199,2,2,B|120:136,1,130,2|2,0:0|0:0,0:0:0
152,136,75056,6,0,B|120:168|112:200,1,65,4|2,0:0|0:0,0:0:0
88,272,75485,2,0,B|160:320,1,65,0|2,0:0|0:0,0:0:0
224,296,75913,2,0,B|288:272|368:296,1,130,0|0,0:0|0:0,0:0:0
432,312,76556,1,2,0:0:0
432,312,76663,1,2,0:0:0
432,312,76770,2,0,B|464:248,1,65,0|2,0:0|0:0,0:0:0
464,168,77199,2,0,B|416:120|336:120,2,130,0|2|0,0:0|0:0|0:0,0:0:0
416,240,78270,1,2,0:0:0
416,240,78377,1,2,0:0:0
416,240,78485,6,0,B|360:208|288:208,1,130,2|0,0:0|0:0,0:0:0
96,240,79342,2,0,B|152:208|224:208,2,130,0|2|0,0:0|0:0|0:0,0:0:0
48,168,80413,1,2,0:0:0
64,88,80627,1,0,0:0:0
144,64,80842,1,0,0:0:0
144,64,80949,1,2,0:0:0
144,64,81056,2,0,B|176:96|176:144,1,65,2|2,0:0|0:0,0:0:0
368,64,81485,2,0,B|336:96|336:144,1,65,0|2,0:0|0:0,0:0:0
256,136,81913,6,0,B|256:200,1,65,0|2,0:0|0:0,0:0:0
288,232,82235,2,0,B|344:240|360:304,1,97.5,0|0,0:0|0:0,0:0:0
200,336,82985,1,0,0:0:0
112,336,83199,1,2,0:0:0
112,248,83413,1,2,0:0:0
200,248,83627,6,0,B|200:184,1,65,0|2,0:0|0:0,0:0:0
168,152,83949,2,0,B|112:144|96:80,1,97.5
264,48,84699,1,2,0:0:0
264,136,84913,1,2,0:0:0
352,136,85127,1,2,0:0:0
352,48,85342,6,0,B|464:48,2,97.5
264,192,86413,1,0,0:0:0
264,280,86627,1,0,0:0:0
176,280,86841,1,0,0:0:0
176,192,87056,6,0,B|64:192,2,97.5
256,344,88127,2,2,B|256:272,1,65,2|0,0:0|0:0,0:0:0
256,240,88449,1,0,0:0:0
256,200,88556,1,0,0:0:0
256,160,88663,1,0,0:0:0
256,120,88770,5,0,0:0:0
320,64,88985,1,0,0:0:0
408,64,89199,2,0,B|472:64|504:128|480:176,1,130,8|0,0:0|0:0,0:0:0
400,152,89842,1,0,0:0:0
392,232,90056,2,0,B|328:232|296:168|320:120,1,130,8|0,0:0|0:0,0:0:0
264,80,90699,1,0,0:0:0
184,48,90913,2,0,B|112:88,1,65,8|0,0:0|0:0,0:0:0
136,168,91342,2,0,B|216:120,1,65
208,216,91770,2,0,B|88:288,1,130,8|0,0:0|0:0,0:0:0
304,216,92627,6,0,B|432:296,1,130,8|0,0:0|0:0,0:0:0
488,240,93270,1,0,0:0:0
480,152,93485,2,0,B|456:80|360:56,1,130,8|0,0:0|0:0,0:0:0
312,104,94127,1,0,0:0:0
296,184,94341,1,8,0:0:0
328,264,94556,1,0,0:0:0
328,264,94663,1,0,0:0:0
328,264,94770,2,0,B|360:280|368:336,1,65
184,264,95199,2,0,B|152:280|144:336,1,65
72,280,95627,6,0,B|64:224|24:168,1,97.5
96,80,96270,1,0,0:0:0
256,144,96699,2,0,B|256:216,1,65,0|2,0:0|0:0,0:0:0
440,280,97342,2,0,B|448:224|488:168,1,97.5
416,80,97985,1,0,0:0:0
256,208,98413,2,0,B|256:136,1,65,0|2,0:0|0:0,0:0:0
256,144,99056,6,0,B|208:120|136:136,2,97.5
256,312,100127,1,0,0:0:0
176,336,100342,1,10,0:0:0
96,312,100556,1,0,0:0:0
48,240,100770,2,0,B|48:128,1,97.5,0|0,0:0|0:0,0:0:0
88,136,101199,2,0,B|144:128|192:72,1,97.5,0|0,0:0|0:0,0:0:0
216,80,101627,6,0,B|216:184,1,97.5,0|0,0:0|0:0,0:0:0
216,177,102056,1,2,0:0:0
312,176,102270,1,2,0:0:0
312,176,102377,1,2,0:0:0
312,176,102485,5,4,0:0:0
328,80,102699,1,0,0:0:0
416,40,102913,1,2,0:0:0
488,104,103127,1,0,0:0:0
488,200,103342,2,0,B|488:280,1,65,2|0,0:0|0:0,0:0:0
416,328,103770,1,2,0:0:0
320,304,103985,2,0,B|320:272,2,32.5,0|0|2,0:0|0:0|0:0,0:0:0
232,336,104413,5,0,0:0:0
192,248,104627,1,2,0:0:0
96,248,104842,2,0,B|32:248,2,65,0|2|0,0:0|0:0|0:0,0:0:0
96,152,105485,1,2,0:0:0
168,80,105699,2,0,B|216:80,1,32.5
248,80,105913,2,0,B|272:48|320:40,1,65,2|0,0:0|0:0,0:0:0
400,40,106342,1,2,0:0:0
456,120,106556,2,0,B|464:160|456:200,1,65,0|2,0:0|0:0,0:0:0
408,272,106985,1,0,0:0:0
312,296,107199,6,0,B|304:352,2,43.3333333333333,2|0|2,0:0|0:0|0:0,0:0:0
320,240,107627,2,0,B|288:208|240:192|192:200,1,130,0|2,0:0|0:0,0:0:0
104,208,108270,1,0,0:0:0
72,304,108485,1,2,0:0:0
160,344,108699,1,0,0:0:0
200,256,108913,2,0,B|240:224|296:232,1,97.5,2|0,0:0|0:0,0:0:0
291,231,109342,5,2,0:0:0
480,264,109770,1,2,0:0:0
448,72,110199,1,2,0:0:0
256,24,110627,2,0,B|256:120,1,97.5,2|0,0:0|0:0,0:0:0
256,168,111056,2,0,B|216:184|208:224,1,65,2|0,0:0|0:0,0:0:0
184,304,111485,1,2,0:0:0
88,304,111699,2,0,B|56:312|16:304,2,65,0|2|0,0:0|0:0|0:0,0:0:0
184,328,112342,1,2,0:0:0
272,280,112556,1,0,0:0:0
272,280,112663,1,0,0:0:0
272,280,112770,5,2,0:0:0
432,176,113199,1,2,0:0:0
320,16,113627,1,2,0:0:0
160,128,114056,1,2,0:0:0
88,192,114270,2,0,B|56:232,1,32.5
96,256,114485,2,0,B|144:248|168:280,1,65,2|0,0:0|0:0,0:0:0
256,288,114913,2,0,B|256:144,1,130,2|2,0:0|0:0,0:0:0
448,112,115770,2,0,B|456:88,7,16.25
448,112,116199,6,0,B|448:248,1,130,6|2,0:0|0:0,0:0:0
144,312,117056,2,0,B|144:240,1,65,2|0,0:0|0:0,0:0:0
144,247,117485,1,2,0:0:0
48,208,117699,1,0,0:0:0
48,160,117806,1,0,0:0:0
48,112,117913,2,0,B|48:24,1,65,2|0,0:0|0:0,0:0:0
48,47,118342,1,2,0:0:0
344,88,118770,2,0,B|343:160,1,65,2|0,0:0|0:0,0:0:0
343,152,119199,1,2,0:0:0
176,296,119627,6,0,B|176:224,1,65,2|0,0:0|0:0,0:0:0
176,231,120056,1,2,0:0:0
432,160,120485,2,0,B|432:240,1,65,2|0,0:0|0:0,0:0:0
432,320,120913,2,0,B|488:320,2,43.3333333333333,2|0|2,0:0|0:0|0:0,0:0:0
432,320,121342,1,2,0:0:0
336,336,121556,1,0,0:0:0
242,307,121770,2,0,B|202:315|162:347,1,65,2|0,0:0|0:0,0:0:0
97,284,122199,1,2,0:0:0
107,187,122413,1,0,0:0:0
201,162,122627,2,0,B|257:146|321:162,1,97.5,2|0,0:0|0:0,0:0:0
297,157,123056,5,2,0:0:0
464,160,123485,1,2,0:0:0
464,160,123699,2,0,B|464:240,1,65,0|2,0:0|0:0,0:0:0
40,184,124342,1,2,0:0:0
40,184,124556,1,0,0:0:0
40,184,124770,2,0,B|40:256,1,65,2|0,0:0|0:0,0:0:0
40,249,125199,1,2,0:0:0
256,328,125627,2,0,B|256:248,1,65,2|0,0:0|0:0,0:0:0
256,263,126056,1,2,0:0:0
256,48,126485,5,2,0:0:0
448,48,126913,1,2,0:0:0
448,240,127342,2,0,B|448:304,1,65,2|0,0:0|0:0,0:0:0
320,328,127770,2,0,B|320:248,1,65,2|0,0:0|0:0,0:0:0
320,144,128199,1,2,0:0:0
256,48,128413,1,0,0:0:0
136,40,128627,1,2,0:0:0
40,104,128842,1,0,0:0:0
48,224,129056,1,2,0:0:0
144,288,129270,2,0,B|144:344,6,32.5,2|2|2|2|2|2|0,0:0|0:0|0:0|0:0|0:0|0:0|0:0,0:0:0
256,249,130127,6,0,B|256:192,1,32.5,2|0,0:0|0:0,0:0:0
176,200,130449,2,0,B|176:152,1,32.5,2|0,0:0|0:0,0:0:0
280,128,130770,6,0,B|280:71,1,32.5,2|0,0:0|0:0,0:0:0
360,80,131092,2,0,B|360:31,1,32.5,2|0,0:0|0:0,0:0:0
440,32,131413,1,2,0:0:0
440,128,131627,6,2,B|440:328,1,195,2|2,0:0|0:0,0:0:0
72,128,132913,2,2,B|72:328,1,195,2|2,0:0|0:0,0:0:0
256,56,133985,1,2,0:0:0
256,144,134199,2,2,B|256:280,1,130,2|2,0:0|0:0,0:0:0
416,192,135056,2,2,B|480:160|480:56|392:16,3,195,2|2|2|2,0:0|0:0|0:0|0:0,0:0:0
256,104,137414,1,2,0:0:0
256,184,137627,2,2,B|256:320,1,130,2|2,0:0|0:0,0:0:0
72,320,138485,6,2,B|72:120,1,195,2|2,0:0|0:0,0:0:0
440,320,139771,2,2,B|440:120,1,195,2|2,0:0|0:0,0:0:0
256,168,140843,1,2,0:0:0
256,168,141057,2,2,B|256:304,1,130,2|2,0:0|0:0,0:0:0
96,192,141914,2,2,B|32:224|32:328|120:368,3,195,2|2|2|2,0:0|0:0|0:0|0:0,0:0:0
256,280,144270,1,2,0:0:0
256,200,144485,2,2,B|256:64,1,130,2|2,0:0|0:0,0:0:0
88,72,145342,6,2,B|40:176,1,97.5,2|2,0:0|0:0,0:0:0
104,272,145985,2,2,B|160:144,1,130,2|2,0:0|0:0,0:0:0
156,152,146627,1,2,0:0:0
328,152,147056,2,2,B|408:152,1,65,2|0,0:0|0:0,0:0:0
432,152,147377,2,2,B|432:216|504:248,1,97.5,2|2,0:0|0:0,0:0:0
368,328,148127,1,2,0:0:0
368,328,148342,1,2,0:0:0
256,200,148770,6,2,B|256:88,1,97.5,2|2,0:0|0:0,0:0:0
120,152,149413,2,2,B|120:280,1,130,2|2,0:0|0:0,0:0:0
120,282,150055,1,2,0:0:0
315,282,150484,2,2,B|395:282,1,65,2|0,0:0|0:0,0:0:0
424,280,150806,2,2,B|424:224|472:192,1,97.5,2|2,0:0|0:0,0:0:0
336,48,151556,1,2,0:0:0
240,48,151770,1,2,0:0:0
144,48,151985,1,2,0:0:0
48,48,152199,6,2,B|32:96|48:160,1,97.5,2|2,0:0|0:0,0:0:0
80,304,152842,2,2,B|208:304,1,130,2|2,0:0|0:0,0:0:0
320,304,153484,1,2,0:0:0
432,112,153913,2,2,B|352:112,1,65,2|0,0:0|0:0,0:0:0
328,112,154235,2,2,B|312:64|256:48,1,97.5,2|2,0:0|0:0,0:0:0
40,48,154985,1,2,0:0:0
40,48,155199,1,2,0:0:0
40,48,155627,6,2,B|40:144,1,97.5,2|2,0:0|0:0,0:0:0
256,192,156270,2,2,B|256:320,1,130,2|2,0:0|0:0,0:0:0
256,320,156912,1,2,0:0:0
256,320,157342,1,2,0:0:0
112,192,157663,1,2,0:0:0
256,64,157985,1,2,0:0:0
400,192,158413,6,0,B|400:256,1,65,2|2,0:0|0:0,0:0:0
232,352,159056,6,0,B|232:272,1,65,4|2,0:0|0:0,0:0:0
88,288,159485,2,0,B|88:368,1,65,0|2,0:0|0:0,0:0:0
160,288,159913,2,0,B|160:184,1,97.5,0|0,0:0|0:0,0:0:0
160,192,160342,1,0,0:0:0
160,96,160556,1,2,0:0:0
248,48,160770,5,0,0:0:0
408,152,161199,1,0,0:0:0
272,296,161627,2,0,B|168:296,1,97.5
144,256,162056,2,0,B|136:224|96:200,1,65,2|0,0:0|0:0,0:0:0
40,128,162485,2,0,B|0:104|0:40|72:16,3,130
136,72,163985,1,2,0:0:0
224,40,164199,6,0,B|256:112,1,65,0|2,0:0|0:0,0:0:0
344,120,164627,1,0,0:0:0
440,104,164842,2,0,B|480:184,1,65,2|0,0:0|0:0,0:0:0
496,256,165270,2,0,B|520:312,2,32.5,0|0|2,0:0|0:0|0:0,0:0:0
408,304,165699,1,0,0:0:0
312,296,165913,6,0,B|280:336|216:336|184:280,1,130
104,304,166556,1,2,0:0:0
56,216,166770,2,0,B|56:120,1,97.5
56,120,167199,1,0,0:0:0
136,64,167413,1,2,0:0:0
232,88,167627,5,0,0:0:0
424,56,168056,1,0,0:0:0
432,248,168485,2,0,B|432:368,1,97.5
432,345,168913,1,2,0:0:0
344,312,169127,1,0,0:0:0
256,352,169342,2,0,B|240:304|272:272|256:216,3,130
256,128,170842,1,2,0:0:0
248,32,171056,6,0,B|168:32,1,65,0|2,0:0|0:0,0:0:0
88,32,171484,1,0,0:0:0
24,112,171699,2,0,B|112:112,1,65,2|0,0:0|0:0,0:0:0
184,112,172127,1,2,0:0:0
184,112,172234,1,0,0:0:0
184,112,172342,1,2,0:0:0
280,112,172556,1,0,0:0:0
376,112,172770,6,0,B|376:184,1,65,4|2,0:0|0:0,0:0:0
496,168,173199,2,0,B|496:88,1,65,0|2,0:0|0:0,0:0:0
440,216,173627,2,0,B|440:336,1,97.5
440,312,174056,1,0,0:0:0
352,352,174270,1,2,0:0:0
264,320,174484,5,0,0:0:0
256,224,174699,2,0,B|304:224,2,32.5,2|0|0,0:0|0:0|0:0,0:0:0
256,128,175127,1,2,0:0:0
160,128,175342,2,0,B|120:128|88:144|80:208,1,97.5
86,179,175770,1,0,0:0:0
64,272,175984,1,2,0:0:0
128,344,176199,6,0,B|240:344,1,97.5
248,304,176627,2,0,B|256:272|312:264,1,65,2|0,0:0|0:0,0:0:0
360,344,177056,2,0,B|424:320|424:264,1,97.5
424,224,177485,2,0,B|424:152,1,65,2|0,0:0|0:0,0:0:0
424,64,177913,5,0,0:0:0
344,16,178127,1,2,0:0:0
256,64,178342,1,0,0:0:0
256,160,178556,2,0,B|256:248,1,65
256,320,178985,2,0,B|256:368,4,32.5,0|0|2|0|0,0:0|0:0|0:0|0:0|0:0,0:0:0
176,232,179627,5,4,0:0:0
256,144,179842,2,0,B|304:128,2,32.5,0|0|2,0:0|0:0|0:0,0:0:0
176,56,180270,1,0,0:0:0
64,96,180485,2,0,B|24:136|48:208,1,97.5
42,186,180913,1,2,0:0:0
64,304,181127,1,0,0:0:0
184,304,181342,5,0,0:0:0
264,216,181556,2,0,B|296:216,2,32.5,0|0|2,0:0|0:0|0:0,0:0:0
192,120,181984,1,0,0:0:0
304,72,182199,2,0,B|352:48|408:48,1,97.5
397,48,182627,1,2,0:0:0
496,112,182841,1,2,0:0:0
464,224,183056,5,0,0:0:0
464,224,183270,1,0,0:0:0
192,328,183913,5,0,0:0:0
192,328,184127,1,0,0:0:0
64,64,184770,5,0,0:0:0
64,64,184984,1,2,0:0:0
176,32,185199,1,0,0:0:0
288,72,185413,1,0,0:0:0
296,192,185627,1,0,0:0:0
184,232,185842,1,0,0:0:0
72,200,186056,1,0,0:0:0
32,224,186163,1,0,0:0:0
16,272,186270,1,0,0:0:0
32,320,186377,1,0,0:0:0
80,336,186485,5,0,0:0:0
176,328,186699,1,2,0:0:0
272,344,186913,1,0,0:0:0
368,328,187127,2,0,B|400:352,5,32.5,2|0|0|0|2|0,0:0|0:0|0:0|0:0|0:0|0:0,0:0:0
368,304,187770,2,0,B|368:232,1,65
288,184,188199,6,0,B|288:272,1,65,0|2,0:0|0:0,0:0:0
216,312,188627,1,0,0:0:0
120,312,188842,1,2,0:0:0
40,256,189056,2,0,B|40:104,1,130,0|2,0:0|0:0,0:0:0
40,126,189699,1,0,0:0:0
128,80,189913,6,0,B|168:56|248:56,1,97.5
221,56,190342,1,0,0:0:0
318,56,190556,1,2,0:0:0
318,56,190663,1,0,0:0:0
318,56,190770,1,0,0:0:0
416,80,190985,1,2,0:0:0
464,168,191199,1,0,0:0:0
400,240,191413,1,2,0:0:0
304,208,191627,5,0,0:0:0
216,256,191842,2,0,B|216:320,2,65,2|0|2,0:0|0:0|0:0,0:0:0
120,232,192485,2,0,B|120:72,1,130,0|2,0:0|0:0,0:0:0
120,102,193127,1,0,0:0:0
24,79,193342,6,0,B|24:183,1,97.5
24,176,193770,1,0,0:0:0
24,272,193985,1,2,0:0:0
112,312,194199,1,0,0:0:0
192,256,194413,1,2,0:0:0
192,160,194627,1,0,0:0:0
192,160,194735,1,0,0:0:0
192,160,194842,1,0,0:0:0
104,112,195056,6,0,B|104:184,1,65,0|2,0:0|0:0,0:0:0
112,272,195485,1,0,0:0:0
200,312,195699,1,2,0:0:0
256,232,195913,2,0,B|256:88,1,130,0|2,0:0|0:0,0:0:0
256,102,196556,1,0,0:0:0
352,72,196770,6,0,B|352:184,1,97.5
352,169,197199,1,0,0:0:0
352,264,197413,1,2,0:0:0
440,312,197627,1,0,0:0:0
496,232,197842,1,2,0:0:0
464,144,198056,1,0,0:0:0
440,104,198163,1,0,0:0:0
400,80,198270,1,2,0:0:0
352,72,198377,1,0,0:0:0
304,72,198485,6,0,B|216:72,1,65,0|2,0:0|0:0,0:0:0
152,224,198913,2,0,B|232:224,1,65,0|2,0:0|0:0,0:0:0
352,168,199342,2,0,B|272:168,1,65,0|2,0:0|0:0,0:0:0
256,288,199770,2,0,B|312:288,3,43.3333333333333,0|0|0|0,0:0|0:0|0:0|0:0,0:0:0
299,288,200627,5,4,0:0:0
