osu file format v10

[General]
AudioFilename: dreamenddischarger.mp3
AudioLeadIn: 2000
PreviewTime: 159000
Countdown: 0
SampleSet: Soft
StackLeniency: 0.7
Mode: 0
LetterboxInBreaks: 1

[Editor]
Bookmarks: 6484,33913,47627,75056
DistanceSpacing: 1.3
BeatDivisor: 4
GridSize: 4

[Metadata]
Title:dreamenddischarger
TitleUnicode:dreamenddischarger
Artist:07th Expansion
ArtistUnicode:07th Expansion
Creator:Heatherfield
Version:Normal
Source:Umineko no Naku Koro ni
Tags:when they cry zts yuka baca y_u_c_a aiaiclala
BeatmapID:173522
BeatmapSetID:36595

[Difficulty]
HPDrainRate:3
CircleSize:4
OverallDifficulty:3
ApproachRate:4
SliderMultiplier:0.8
SliderTickRate:2

[Events]
//Background and Video events
0,0,"tsuka look look window out.jpg"
//Break Periods
2,47827,59379
2,131827,137165
2,141913,144022
2,148770,150879
//Storyboard Layer 0 (Background)
//Storyboard Layer 1 (Fail)
//Storyboard Layer 2 (Pass)
//Storyboard Layer 3 (Foreground)
//Storyboard Sound Samples
Sample,44842,0,"370.ogg",53
//Background Colour Transformations
3,100,163,162,255

[TimingPoints]
-372,428.571428571429,4,2,1,5,1,0
1128,-100,4,2,1,10,0,0
1985,-100,4,2,1,15,0,0
2842,-100,4,2,1,20,0,0
3699,-100,4,2,1,25,0,0
4556,-100,4,2,1,30,0,0
5413,-100,4,2,1,40,0,0
6056,-100,4,2,1,45,0,0
6485,-100,4,2,1,50,0,0
21913,-100,4,2,1,50,0,0
23627,-100,4,2,1,60,0,0
25342,-100,4,2,1,70,0,0
27056,-100,4,2,1,40,0,0
28770,-100,4,2,1,50,0,0
30485,-100,4,2,1,60,0,0
32199,-100,4,2,1,70,0,0
33485,-100,4,1,1,40,0,0
44199,-100,4,1,1,30,0,0
47627,-100,4,1,1,50,0,0
60699,-100,4,1,1,30,0,0
61556,-100,4,2,1,50,0,0
71627,-100,4,1,1,30,0,0
75056,-100,4,1,1,50,0,0
115770,-100,4,1,1,60,0,1
116199,-100,4,1,1,50,0,0
126485,-100,4,1,1,30,0,0
127342,-100,4,1,1,40,0,0
128199,-100,4,1,1,50,0,0
129056,-100,4,1,1,60,0,0
129913,-100,4,1,1,60,0,1
131628,-100,4,1,1,60,0,0
138485,-100,4,2,1,50,0,0
157342,-100,4,1,1,50,0,0
159056,-100,4,1,1,50,0,1
200628,-100,4,1,1,50,0,0
204056,-100,4,1,1,5,0,0

[Colours]
Combo1 : 247,242,155
Combo2 : 157,228,247
Combo3 : 247,174,231
Combo4 : 191,126,231

[HitObjects]
256,192,270,12,2,6056,0:0:0
348,96,6484,6,0,B|408:96,2,60,2|2|2,0:0|0:0|0:0,0:0:0
384,192,7556,2,0,B|392:248,1,40,0|2,0:0|0:0,0:0:0
296,280,8199,2,0,B|253:322,2,60,2|2|2,0:0|0:0|0:0,0:0:0
202,237,9271,2,0,B|156:203,1,40,0|2,0:0|0:0,0:0:0
184,112,9913,6,0,B|141:69,2,60,2|2|2,0:0|0:0|0:0,0:0:0
90,154,10985,2,0,B|44:187,1,40,0|2,0:0|0:0,0:0:0
90,278,11627,2,0,B|90:337,2,60,2|2|2,0:0|0:0|0:0,0:0:0
187,314,12700,2,0,B|243:321,1,40,0|2,0:0|0:0,0:0:0
328,328,13342,5,2,0:0:0
368,264,13663,1,2,0:0:0
408,200,13985,2,0,B|408:72,1,120,2|2,0:0|0:0,0:0:0
312,112,15056,1,2,0:0:0
248,72,15377,1,2,0:0:0
184,32,15699,2,0,B|56:32,1,120,2|2,0:0|0:0,0:0:0
128,112,16770,5,2,0:0:0
88,176,17091,1,2,0:0:0
48,240,17413,2,0,B|48:368,1,120,2|2,0:0|0:0,0:0:0
256,192,18485,12,4,20199,0:0:0
96,112,21056,5,2,0:0:0
152,200,21485,1,0,0:0:0
208,112,21913,2,0,B|360:56,1,160,2|0,0:0|0:0,0:0:0
448,104,23199,1,0,0:0:0
448,104,23627,6,0,B|297:159,1,160,2|0,0:0|0:0,0:0:0
248,256,24913,1,0,0:0:0
248,256,25341,2,0,B|398:200,1,160,2|0,0:0|0:0,0:0:0
488,248,26627,1,0,0:0:0
488,248,27055,6,0,B|337:303,1,160,2|0,0:0|0:0,0:0:0
256,368,28342,1,0,0:0:0
174,303,28770,2,0,B|24:248,1,160,2|0,0:0|0:0,0:0:0
112,200,30056,1,0,0:0:0
112,200,30485,6,0,B|262:255,1,160,2|0,0:0|0:0,0:0:0
216,160,31770,1,0,0:0:0
216,160,32198,2,0,B|65:104,1,160,2|0,0:0|0:0,0:0:0
148,40,33485,1,0,0:0:0
148,40,33699,1,0,0:0:0
148,40,33913,6,0,B|244:48,1,80,4|8,0:0|0:0,0:0:0
324,88,34770,2,0,B|420:96,1,80,0|8,0:0|0:0,0:0:0
388,200,35627,2,0,B|308:193,1,80,0|8,0:0|0:0,0:0:0
212,152,36484,2,0,B|132:145,1,80,0|8,0:0|0:0,0:0:0
28,128,37342,6,0,B|12:208,1,80,0|8,0:0|0:0,0:0:0
36,304,38199,2,0,B|20:384,1,80,0|8,0:0|0:0,0:0:0
124,360,39056,2,0,B|139:281,1,80,0|8,0:0|0:0,0:0:0
116,184,39913,2,0,B|131:105,1,80,0|8,0:0|0:0,0:0:0
232,124,40770,5,0,0:0:0
336,116,41199,1,8,0:0:0
440,108,41627,2,0,B|454:70,2,40,0|0|8,0:0|0:0|0:0,0:3:0
392,212,42485,5,0,0:0:0
288,212,42913,1,8,0:0:0
184,212,43342,2,0,B|169:249,2,40,0|0|8,0:0|0:0|0:0,0:0:0
96,156,44199,6,2,B|32:136,6,60
256,192,46342,12,4,47627,0:0:0
256,192,60699,6,2,B|256:64,1,120
256,16,61556,2,0,B|328:48,1,80,2|0,0:0|0:0,0:0:0
408,112,62413,2,0,B|480:144,1,80,2|2,0:0|0:0,0:0:0
472,248,63270,2,0,B|398:215,1,80,0|2,0:0|0:0,0:0:0
320,152,64127,2,0,B|246:119,1,80,0|2,0:0|0:0,0:0:0
152,80,64985,6,0,B|136:168,1,80,0|2,0:0|0:0,0:0:0
136,264,65842,2,0,B|120:352,1,80,2|0,0:0|0:0,0:0:0
224,344,66699,2,0,B|238:265,1,80,2|0,0:0|0:0,0:0:0
240,160,67556,2,0,B|254:81,1,80,2|0,0:0|0:0,0:0:0
352,56,68413,6,0,B|448:56,1,80,0|2,0:0|0:0,0:0:0
360,128,69270,2,0,B|456:128,1,80,0|2,0:0|0:0,0:0:0
368,200,70127,2,0,B|464:200,1,80,0|2,0:0|0:0,0:0:0
376,272,70985,2,0,B|472:272,1,80
464,320,71627,6,2,B|488:152,2,160,2|0|2,0:0|0:0|0:0,0:0:0
360,320,73770,5,8,0:0:0
256,320,74199,1,8,0:0:0
152,320,74627,1,8,0:0:0
256,320,75056,6,0,B|256:232,1,80,4|8,0:0|0:0,0:0:0
256,136,75913,2,0,B|256:48,2,80,0|8|0,0:0|0:0|0:0,0:0:0
360,112,77199,1,8,0:0:0
440,40,77627,1,0,0:0:0
464,140,78056,2,0,B|464:228,1,80,8|4,0:0|0:0,0:0:0
440,328,78913,5,8,0:0:0
336,320,79342,1,0,0:0:0
232,312,79770,1,8,0:0:0
128,296,80199,2,0,B|56:248|72:152,1,160
104,64,81485,1,8,0:0:0
104,64,81913,1,4,0:0:0
312,80,82770,6,0,B|400:48,1,80,0|8,0:0|0:0,0:0:0
464,128,83627,1,0,0:0:0
464,128,84056,1,8,0:0:0
424,224,84485,1,0,0:0:0
424,224,84913,1,8,0:0:0
376,320,85342,6,0,B|296:264|216:328,1,160,4|0,0:0|0:0,0:0:0
176,312,86413,2,0,B|128:280,3,40,0|8|0|0,0:0|0:0|0:0|0:0,0:0:0
48,256,87485,2,0,B|48:88,1,160,8|0,0:0|0:0,0:0:0
144,64,88770,6,0,B|144:152,1,80,4|8,0:0|0:0,0:0:0
240,192,89627,2,0,B|328:160,2,80,0|8|0,0:0|0:0|0:0,0:0:0
160,264,90913,1,8,0:0:0
80,336,91341,1,0,0:0:0
60,232,91770,2,0,B|28:148,1,80,8|0,0:0|0:0,0:0:0
72,56,92627,5,8,0:0:0
176,64,93056,1,0,0:0:0
280,72,93484,1,8,0:0:0
384,88,93913,2,0,B|456:136|440:232,1,160
408,320,95199,1,8,0:0:0
408,320,95627,1,0,0:0:0
200,304,96485,6,0,B|112:336,1,80,0|8,0:0|0:0,0:0:0
48,256,97342,1,0,0:0:0
48,256,97771,1,8,0:0:0
88,160,98200,1,0,0:0:0
88,160,98628,1,8,0:0:0
136,64,99057,2,0,B|216:120|296:56,1,160
336,72,100128,2,0,B|384:104,3,40,0|8|0|0,0:0|0:0|0:0|0:0,0:0:0
464,56,101199,2,0,B|464:136,2,80,8|0|8,0:0|0:0|0:0,0:0:0
360,40,102485,6,0,B|272:48,1,80,4|8,0:0|0:0,0:0:0
224,136,103342,2,0,B|303:128,1,80,0|8,0:0|0:0,0:0:0
376,208,104199,2,0,B|296:215,1,80,0|8,0:0|0:0,0:0:0
240,304,105056,2,0,B|319:296,1,80,0|8,0:0|0:0,0:0:0
416,336,105913,2,0,B|464:176,1,160
456,80,107199,2,0,B|424:48,3,26.6666666666667,8|0|0|0,0:0|0:0|0:0|0:0,0:0:0
336,80,108056,6,0,B|240:72,1,80,8|0,0:0|0:0,0:0:0
152,88,108913,1,8,0:0:0
152,88,109342,2,0,B|80:136|88:240,1,160
120,320,110627,1,8,0:0:0
224,344,111056,5,0,0:0:0
288,264,111485,1,8,0:0:0
352,184,111913,1,0,0:0:0
416,104,112342,1,8,0:0:0
416,104,112770,6,0,B|352:48|256:48,1,160
168,80,114056,1,8,0:0:0
120,176,114485,1,0,0:0:0
120,176,114913,1,8,0:0:0
168,264,115342,1,0,0:0:0
216,176,115770,1,8,0:0:0
264,272,116199,6,0,B|328:320|424:304,1,160,4|0,0:0|0:0,0:0:0
456,208,117485,1,8,0:0:0
456,208,117913,2,0,B|392:160|303:174,1,160
288,72,119199,1,8,0:0:0
288,72,119627,6,0,B|128:56,1,160
80,152,120913,2,0,B|32:168,3,26.6666666666667,8|0|0|0,0:0|0:0|0:0|0:0,0:0:0
120,240,121770,6,0,B|64:304,1,80,8|0,0:0|0:0,0:0:0
168,320,122627,1,8,0:0:0
168,320,123056,2,0,B|256:344|320:288,1,160
408,232,124342,1,8,0:0:0
368,136,124770,1,0,0:0:0
312,48,125199,1,8,0:0:0
200,48,125627,1,0,0:0:0
144,136,126056,1,8,0:0:0
232,216,126485,6,2,B|104:216,1,120
88,264,127342,2,2,B|216:264,1,120
176,304,128199,2,2,B|48:304,1,120
32,352,129056,2,2,B|160:352,1,120
224,352,129913,6,0,B|288:352,4,60
256,312,131413,2,0,B|256:260,1,40
200,80,138485,6,0,B|144:144,1,80
148,244,139342,2,0,B|200:304,1,80,0|0,0:0|0:0,0:0:0
311,304,140199,2,0,B|364:244,1,80,0|0,0:0|0:0,0:0:0
368,140,141056,2,0,B|315:79,1,80
128,244,145342,6,0,B|216:276,1,80,4|0,0:0|0:0,0:0:0
308,272,146199,2,0,B|383:244,1,80
384,140,147056,2,0,B|308:112,1,80
204,113,147913,2,0,B|128:140,1,80
200,72,152199,5,4,0:0:0
120,136,152627,1,0,0:0:0
120,248,153056,1,0,0:0:0
200,312,153485,1,0,0:0:0
312,312,153913,1,0,0:0:0
392,248,154341,1,0,0:0:0
392,136,154770,1,0,0:0:0
312,72,155199,1,0,0:0:0
256,160,155627,6,0,B|256:224,2,60
256,56,156699,2,0,B|256:96,1,40
360,120,157342,5,0,0:0:0
416,64,157663,1,0,0:0:0
439,138,157985,2,2,B|487:218|431:306,1,160,2|0,0:0|0:0,0:0:0
392,328,159056,6,0,B|304:328,1,80,4|8,0:0|0:0,0:0:0
208,328,159913,2,0,B|128:328,1,80,0|8,0:0|0:0,0:0:0
80,240,160770,2,0,B|64:152,3,80,0|8|0|8,0:0|0:0|0:0|0:0,0:0:0
88,56,162485,6,0,B|176:56,1,80,0|8,0:0|0:0,0:0:0
272,56,163342,2,0,B|368:56,1,80,0|8,0:0|0:0,0:0:0
432,120,164199,2,0,B|448:80,4,40,0|0|8|0|0,0:0|0:0|0:0|0:0|0:0,0:0:0
480,208,165485,1,8,0:0:0
392,272,165913,6,0,B|352:192,1,80,0|8,0:0|0:0,0:0:0
256,176,166770,2,0,B|291:247,1,80,0|8,0:0|0:0,0:0:0
192,232,167627,2,0,B|152:152,3,80,0|8|0|8,0:0|0:0|0:0|0:0,0:0:0
96,72,169342,6,0,B|64:144,1,80,0|8,0:0|0:0,0:0:0
56,248,170199,2,0,B|24:320,1,80,0|8,0:0|0:0,0:0:0
128,336,171056,2,0,B|160:312,4,40,0|0|8|0|0,0:0|0:0|0:0|0:0|0:0,0:0:0
144,232,172342,1,8,0:0:0
200,144,172770,5,0,0:0:0
256,56,173199,1,8,0:0:0
312,144,173627,1,0,0:0:0
256,232,174056,1,8,0:0:0
256,336,174485,2,0,B|344:336,1,80,0|8,0:0|0:0,0:0:0
440,336,175342,2,0,B|440:256,1,80,0|8,0:0|0:0,0:0:0
440,152,176199,5,0,0:0:0
416,48,176627,1,8,0:0:0
320,80,177056,1,0,0:0:0
344,184,177485,1,8,0:0:0
256,240,177913,2,0,B|256:280,4,40,0|0|8|0|0,0:0|0:0|0:0|0:0|0:0,0:0:0
256,136,179199,1,8,0:0:0
256,136,179413,1,0,0:0:0
256,136,179627,5,4,0:0:0
160,104,180056,1,8,0:0:0
136,208,180485,1,0,0:0:0
232,240,180913,1,8,0:0:0
256,344,181342,2,0,B|160:344,1,80,0|8,0:0|0:0,0:0:0
72,344,182199,2,0,B|72:256,1,80,0|8,0:0|0:0,0:0:0
40,168,183056,5,4,0:0:0
40,168,183270,1,0,0:0:0
136,40,183913,5,4,0:0:0
136,40,184127,1,0,0:0:0
288,88,184770,5,4,0:0:0
288,88,184985,2,0,B|368:80,3,80
416,72,186485,6,0,B|464:152,1,80,0|8,0:0|0:0,0:0:0
416,240,187342,2,0,B|374:171,1,80,0|8,0:0|0:0,0:0:0
296,240,188199,5,0,0:0:0
256,336,188627,1,8,0:0:0
216,240,189056,1,0,0:0:0
256,144,189485,1,8,0:0:0
192,64,189913,5,0,0:0:0
88,64,190342,1,8,0:0:0
80,168,190770,1,0,0:0:0
184,168,191199,1,8,0:0:0
168,272,191627,6,0,B|72:280,1,80,0|8,0:0|0:0,0:0:0
40,368,192485,2,0,B|119:361,1,80,0|8,0:0|0:0,0:0:0
224,336,193342,5,0,0:0:0
312,288,193770,1,8,0:0:0
400,232,194199,1,0,0:0:0
488,176,194627,1,8,0:0:0
456,80,195056,5,0,0:0:0
456,80,195270,1,0,0:0:0
456,80,195485,1,8,0:0:0
368,136,195913,1,0,0:0:0
280,184,196342,1,8,0:0:0
216,104,196770,5,0,0:0:0
120,72,197199,1,8,0:0:0
144,176,197627,1,0,0:0:0
112,272,198056,1,8,0:0:0
216,256,198485,5,0,0:0:0
312,288,198914,1,8,0:0:0
296,184,199342,1,0,0:0:0
328,88,199770,2,0,B|338:52,3,26.6666666666667,8|0|0|0,0:0|0:0|0:0|0:0,0:0:0
256,192,200627,12,0,204056,0:0:0
