osu file format v10

[General]
AudioFilename: dreamenddischarger.mp3
AudioLeadIn: 2000
PreviewTime: 159000
Countdown: 0
SampleSet: Normal
StackLeniency: 0.7
Mode: 0
LetterboxInBreaks: 1

[Editor]
Bookmarks: 6484,33913,47627,75056
DistanceSpacing: 1
BeatDivisor: 4
GridSize: 4

[Metadata]
Title:dreamenddischarger
TitleUnicode:dreamenddischarger
Artist:07th Expansion
ArtistUnicode:07th Expansion
Creator:Heatherfield
Version:Dream End
Source:Umineko no Naku Koro ni
Tags:when they cry zts yuka baca y_u_c_a aiaiclala
BeatmapID:169393
BeatmapSetID:36595

[Difficulty]
HPDrainRate:7
CircleSize:4
OverallDifficulty:7
ApproachRate:8
SliderMultiplier:1.6
SliderTickRate:1

[Events]
//Background and Video events
0,0,"tsuka look look window out.jpg"
//Break Periods
2,47827,59949
//Storyboard Layer 0 (Background)
//Storyboard Layer 1 (Fail)
//Storyboard Layer 2 (Pass)
//Storyboard Layer 3 (Foreground)
//Storyboard Sound Samples
Sample,44842,0,"370.ogg",73
//Background Colour Transformations
3,100,163,162,255

[TimingPoints]
-372,428.571428571429,4,2,1,5,1,0
1128,-100,4,2,1,10,0,0
1985,-100,4,2,1,15,0,0
2842,-100,4,2,1,20,0,0
3699,-100,4,2,1,25,0,0
4556,-100,4,2,1,30,0,0
5413,-100,4,2,1,40,0,0
6056,-100,4,2,1,45,0,0
6485,-100,4,2,1,50,0,0
20092,-100,4,1,1,75,0,0
20306,-100,4,2,1,50,0,0
33485,-100,4,1,1,50,0,0
60699,-66.6666666666667,4,1,1,50,0,0
61342,-100,4,1,1,50,0,0
111485,-90.9090909090909,4,1,1,50,0,0
111913,-83.3333333333333,4,1,1,50,0,0
112342,-76.9230769230769,4,1,1,50,0,0
112770,-100,4,1,1,50,0,0
115770,-100,4,1,1,50,0,1
116199,-100,4,1,1,50,0,0
129913,-50,4,1,1,70,0,1
130127,-50,4,1,1,50,0,1
130235,-50,4,1,1,70,0,1
130449,-50,4,1,1,50,0,1
130556,-50,4,1,1,70,0,1
130770,-50,4,1,1,50,0,1
130877,-50,4,1,1,70,0,1
131092,-50,4,1,1,50,0,1
131199,-50,4,1,1,70,0,1
131413,-50,4,1,1,50,0,1
131628,-100,4,1,2,50,0,0
157342,-100,4,1,1,70,0,0
159056,-76.9230769230769,4,1,1,50,0,1
200628,-76.9230769230769,4,1,1,50,0,0

[Colours]
Combo1 : 247,242,155
Combo2 : 157,228,247
Combo3 : 247,174,231
Combo4 : 191,126,231

[HitObjects]
256,192,270,12,2,6484,0:0:0
192,80,6806,5,2,0:0:0
192,80,7127,2,0,B|264:88|352:72,1,160
376,152,7770,1,0,0:0:0
376,152,7877,1,2,0:0:0
232,328,8199,5,2,0:0:0
112,304,8520,1,2,0:0:0
40,208,8842,2,0,B|48:120|80:48,1,160
160,48,9485,1,0,0:0:0
160,48,9592,1,2,0:0:0
376,48,9913,5,2,0:0:0
440,144,10235,1,2,0:0:0
480,256,10556,2,0,B|392:276|312:212,1,160,2|0,0:0|0:0,0:0:0
264,288,11199,1,2,0:0:0
264,288,11306,1,0,0:0:0
184,72,11627,5,2,0:0:0
64,96,11949,1,2,0:0:0
12,204,12270,2,0,B|28:288|92:340,1,160
184,324,12913,1,0,0:0:0
184,324,13020,1,2,0:0:0
432,296,13342,5,2,0:0:0
384,176,13663,1,2,0:0:0
476,80,13985,2,0,B|444:32|444:32|388:112|328:56|348:-20,1,160,2|0,0:0|0:0,0:0:0
264,56,14627,1,0,0:0:0
264,56,14735,1,2,0:0:0
64,48,15056,5,2,0:0:0
184,152,15377,1,2,0:0:0
40,216,15699,2,0,B|56:264|96:272|96:272|144:224|200:260,1,160,2|0,0:0|0:0,0:0:0
248,348,16341,1,0,0:0:0
248,348,16449,1,2,0:0:0
384,288,16770,5,2,0:0:0
440,232,16984,1,0,0:0:0
440,232,17091,1,2,0:0:0
408,120,17413,2,0,B|448:48|312:160|280:72,1,160,2|0,0:0|0:0,0:0:0
344,32,18055,1,0,0:0:0
344,32,18163,1,2,0:0:0
176,168,18485,5,2,0:0:0
248,192,18699,1,0,0:0:0
248,192,18806,1,2,0:0:0
320,288,19128,2,0,B|368:280|384:228|384:228|348:196|360:144,1,160,2|0,0:0|0:0,0:0:0
336,72,19770,1,0,0:0:0
336,72,19878,1,2,0:0:0
104,32,20199,6,0,B|72:104|88:208,1,160,4|0,0:0|0:0,0:0:0
152,232,20842,1,0,0:0:0
232,240,21056,1,0,0:0:0
240,320,21270,1,0,0:0:0
168,352,21485,1,0,0:0:0
168,352,21592,1,2,0:0:0
416,336,21913,6,0,B|432:248|368:184,1,160,2|0,0:0|0:0,0:0:0
304,152,22556,1,0,0:0:0
320,72,22770,1,0,0:0:0
304,152,22985,1,0,0:0:0
224,168,23199,1,0,0:0:0
224,168,23306,1,2,0:0:0
96,40,23627,6,0,B|48:40|48:104,1,80
96,120,23949,2,0,B|16:224,1,120
56,312,24485,2,0,B|144:296,1,80,2|0,0:0|0:0,0:0:0
224,344,24913,1,0,0:0:0
224,344,25020,1,2,0:0:0
440,240,25342,6,0,B|384:224|400:160,1,80
440,160,25663,2,0,B|464:32,1,120
368,88,26199,2,0,B|288:112,1,80
224,56,26627,1,0,0:0:0
224,56,26735,1,2,0:0:0
76,248,27056,5,2,0:0:0
144,312,27270,1,0,0:0:0
144,312,27377,1,2,0:0:0
144,312,27485,2,0,B|196:301|196:301|296:340,1,160
336,272,28127,1,0,0:0:0
400,320,28342,2,0,B|456:296,1,40,0|2,0:0|0:0,0:0:0
256,56,28770,5,2,0:0:0
200,112,28985,1,0,0:0:0
200,112,29092,1,2,0:0:0
200,112,29199,2,0,B|96:136|96:136|40:112,1,160
0,184,29842,1,0,0:0:0
48,248,30056,2,0,B|40:288,1,40,0|2,0:0|0:0,0:0:0
272,320,30485,5,2,0:0:0
336,280,30699,1,0,0:0:0
336,280,30806,1,2,0:0:0
336,280,30913,1,0,0:0:0
392,336,31127,1,2,0:0:0
464,304,31342,1,0,0:0:0
448,224,31556,1,0,0:0:0
368,200,31770,2,0,B|384:144,1,40,2|0,0:0|0:0,0:0:0
176,64,32199,5,2,0:0:0
112,104,32413,1,0,0:0:0
112,104,32520,1,2,0:0:0
112,104,32627,1,0,0:0:0
176,144,32842,2,2,B|192:208|192:208|168:256|168:256|184:312,1,160
256,328,33485,6,0,B|304:368,3,40
296,312,33913,2,2,B|344:248|344:152,1,160,0|10,0:0|0:0,0:0:0
288,80,34556,1,0,0:0:0
192,104,34770,1,0,0:0:0
184,200,34985,1,2,0:0:0
104,152,35199,1,0,0:0:0
104,152,35306,1,2,0:0:0
56,336,35627,5,2,0:0:0
128,272,35842,1,0,0:0:0
128,272,35949,1,2,0:0:0
128,272,36056,1,8,0:0:0
200,336,36270,1,2,0:0:0
272,272,36485,2,2,B|352:272,1,80,0|2,0:0|0:0,0:0:0
424,208,36913,1,0,0:0:0
424,208,37020,1,2,0:0:0
296,44,37342,6,2,B|276:40|276:40|216:52,1,80,2|0,0:0|0:0,0:0:0
176,48,37663,2,2,B|108:40,1,40,0|10,0:0|0:0,0:0:0
40,108,37985,1,2,0:0:0
40,108,38199,2,0,B|152:124,1,80,0|2,0:0|0:0,0:0:0
196,188,38627,1,2,0:0:0
196,188,38735,1,0,0:0:0
448,272,39056,5,2,0:0:0
496,180,39270,2,2,B|447:134,1,40,0|2,0:0|0:0,0:0:0
440,128,39485,1,8,0:0:0
344,56,39699,1,0,0:0:0
344,56,39913,2,2,B|256:32,1,80,0|2,0:0|0:0,0:0:0
272,204,40342,2,2,B|349:225,1,80,0|2,0:0|0:0,0:0:0
196,336,40770,6,2,B|108:312,1,80,0|0,0:0|0:0,0:0:0
52,148,41199,1,10,0:0:0
52,148,41413,2,0,B|129:169,1,80,2|0,0:0|0:0,0:0:0
224,96,41842,1,2,0:0:0
312,32,42056,1,0,0:0:0
312,32,42163,1,2,0:0:0
420,76,42377,1,0,0:0:0
420,76,42485,6,2,B|484:148,1,80,2|2,0:0|0:0,0:0:0
448,224,42913,1,8,0:0:0
400,304,43127,2,2,B|344:272|256:280,1,120,2|0,0:0|0:0,0:0:0
212,272,43556,2,0,B|188:168,1,80,2|0,0:0|0:0,0:0:0
252,140,43877,2,0,B|164:92,1,80,2|0,0:0|0:0,0:0:0
152,32,44199,6,2,B|48:112,1,120,0|2,0:0|0:0,0:0:0
44,232,44842,6,2,B|55:348,1,80,2|0,0:0|0:0,0:0:0
261,312,45163,6,2,B|253:232,1,80,2|0,0:0|0:0,0:0:0
118,256,45485,6,2,B|129:372,1,80,2|0,0:0|0:0,0:0:0
335,336,45806,6,2,B|327:256,1,80,2|0,0:0|0:0,0:0:0
189,274,46127,6,2,B|200:390,1,80,2|0,0:0|0:0,0:0:0
406,354,46448,6,2,B|398:274,1,80,2|0,0:0|0:0,0:0:0
452,217,46770,6,0,B|428:153,1,40,8|0,0:0|0:0,0:0:0
376,136,46985,2,2,B|272:136,1,80,0|8,0:0|0:0,0:0:0
224,160,47306,1,0,0:0:0
176,232,47413,2,0,B|144:184,1,40,8|0,0:0|0:0,0:0:0
72,160,47627,5,4,0:0:0
69,354,60699,6,0,B|72:338|69:322|69:322|77:302|77:302|61:302|61:302|77:286|77:286|61:286|61:286|77:270|77:270|61:270|61:270|77:254|77:254|61:254|61:254|69:235|69:235|66:217|69:200,1,240.000009155274
128,120,61342,6,0,B|232:96,1,80,2|0,0:0|0:0,0:0:0
308,84,61770,1,0,0:0:0
403,89,61985,1,2,0:0:0
428,181,62199,1,0,0:0:0
348,234,62413,1,0,0:0:0
273,173,62627,1,2,0:0:0
273,173,62842,1,2,0:0:0
64,320,63270,5,0,0:0:0
64,320,63377,2,2,B|128:248,1,80,2|0,0:0|0:0,0:0:0
104,200,63699,2,2,B|208:152,1,80,0|0,0:0|0:0,0:0:0
248,96,64127,2,2,B|344:160,1,80,0|2,0:0|0:0,0:0:0
408,104,64556,1,2,0:0:0
384,312,64985,5,0,0:0:0
384,312,65092,2,0,B|272:336,1,80,2|0,0:0|0:0,0:0:0
256,312,65413,1,2,0:0:0
168,280,65627,5,0,0:0:0
80,248,65842,1,2,0:0:0
80,72,66056,5,2,0:0:0
168,104,66270,1,0,0:0:0
344,344,66485,5,2,0:0:0
256,312,66699,1,2,0:0:0
264,144,66913,5,0,0:0:0
352,176,67127,1,2,0:0:0
432,64,67342,5,0,0:0:0
456,88,67449,1,0,0:0:0
480,112,67556,1,0,0:0:0
456,136,67663,1,0,0:0:0
432,160,67770,1,2,0:0:0
352,112,67985,5,0,0:0:0
352,112,68199,1,0,0:0:0
272,64,68413,5,0,0:0:0
224,112,68520,1,0,0:0:0
272,160,68627,1,2,0:0:0
128,296,68842,5,0,0:0:0
208,248,69056,5,2,0:0:0
232,272,69163,1,0,0:0:0
256,296,69270,1,0,0:0:0
232,320,69377,1,2,0:0:0
208,344,69484,1,0,0:0:0
128,296,69699,5,2,0:0:0
128,296,69913,1,2,0:0:0
48,248,70127,5,0,0:0:0
0,296,70234,1,0,0:0:0
48,344,70341,1,2,0:0:0
64,80,70770,5,2,0:0:0
96,72,70877,1,0,0:0:0
128,64,70985,1,0,0:0:0
160,56,71092,1,2,0:0:0
192,48,71199,2,2,B|304:24,1,80,0|2,0:0|0:0,0:0:0
368,40,71627,5,2,0:0:0
408,128,71842,1,0,0:0:0
408,128,71949,2,2,B|472:144,1,40,0|2,0:0|0:0,0:0:0
352,208,72270,1,0,0:0:0
352,208,72377,2,2,B|392:256,1,40,0|2,0:0|0:0,0:0:0
248,280,72699,1,0,0:0:0
248,280,72806,2,2,B|256:344,1,40,0|2,0:0|0:0,0:0:0
72,272,73235,5,0,0:0:0
72,272,73342,1,2,0:0:0
192,32,73663,5,0,0:0:0
192,32,73770,1,0,0:0:0
356,332,74092,5,0,0:0:0
356,332,74199,1,2,0:0:0
496,80,74520,5,0,0:0:0
496,80,74627,1,0,0:0:0
456,168,74842,1,0,0:0:0
456,168,74949,1,0,0:0:0
456,168,75056,6,2,B|400:240|304:248,1,160,6|2,0:0|0:0,0:0:0
216,240,75699,1,2,0:0:0
112,216,75913,2,2,B|56:208|32:152,1,80,0|2,0:0|0:0,0:0:0
120,104,76342,2,2,B|96:64|104:8,1,80,0|0,0:0|0:0,0:0:0
328,32,76770,2,2,B|352:120|336:200,1,160,2|0,0:0|0:0,0:0:0
296,288,77413,1,0,0:0:0
424,288,77627,1,2,0:0:0
472,168,77842,1,2,0:0:0
344,168,78056,1,0,0:0:0
296,288,78270,6,2,B|240:256,1,40,2|0,0:0|0:0,0:0:0
216,288,78485,2,2,B|56:240,1,160,0|2,0:0|0:0,0:0:0
40,136,79127,1,0,0:0:0
112,56,79342,2,2,B|176:120,1,80,0|2,0:0|0:0,0:0:0
368,160,79770,2,2,B|311:103,1,80,2|0,0:0|0:0,0:0:0
48,272,80199,6,0,B|80:328|176:328,2,120,0|2|0,0:0|0:0|0:0,0:0:0
32,224,80949,1,0,0:0:0
40,176,81056,2,2,B|104:96,1,80,2|0,0:0|0:0,0:0:0
192,128,81485,2,2,B|264:80,1,80
392,184,81913,6,0,B|456:116|400:16,1,160
444,280,82556,5,2,0:0:0
444,280,82663,1,0,0:0:0
444,280,82770,2,2,B|352:316|292:228,1,160,2|0,0:0|0:0,0:0:0
240,120,83413,1,2,0:0:0
240,120,83627,6,2,B|144:80,1,80,2|0,0:0|0:0,0:0:0
8,112,84056,2,2,B|81:142,1,80,2|0,0:0|0:0,0:0:0
64,248,84485,1,0,0:0:0
160,296,84699,1,0,0:0:0
192,336,84806,1,0,0:0:0
240,344,84913,1,2,0:0:0
288,256,85127,1,0,0:0:0
336,232,85235,1,0,0:0:0
360,184,85342,6,2,B|432:72,2,120,2|2|2,0:0|0:0|0:0,0:0:0
256,168,86199,2,0,B|264:120|248:72,1,80,0|2,0:0|0:0,0:0:0
152,128,86627,2,2,B|152:80|112:48,1,80,0|2,0:0|0:0,0:0:0
72,48,86949,2,0,B|32:64,1,40,0|2,0:0|0:0,0:0:0
40,168,87270,5,0,0:0:0
256,344,87699,1,0,0:0:0
472,168,88127,2,2,B|376:112,1,80,2|0,0:0|0:0,0:0:0
328,168,88449,2,0,B|304:112,1,40
288,64,88663,1,0,0:0:0
216,80,88770,6,2,B|56:96,1,160,8|0,0:0|0:0,0:0:0
56,200,89413,2,2,B|152:192,1,80,8|2,0:0|0:0,0:0:0
48,296,89842,2,10,B|144:288,1,80,8|8,0:0|0:0,0:0:0
256,288,90270,1,0,0:0:0
464,296,90485,2,2,B|368:288,1,80,2|0,0:0|0:0,0:0:0
456,200,90913,2,2,B|360:192,1,80,2|8,0:0|0:0,0:0:0
280,152,91342,5,2,0:0:0
208,24,91556,1,10,0:0:0
80,96,91770,1,8,0:0:0
152,224,91985,1,2,0:0:0
280,152,92199,5,0,0:0:0
175,48,92413,1,2,0:0:0
72,153,92627,1,0,0:0:0
176,256,92842,1,10,0:0:0
272,336,93056,6,2,B|352:296,1,80,0|8,0:0|0:0,0:0:0
448,168,93485,2,0,B|376:203,1,80,8|2,0:0|0:0,0:0:0
328,216,93806,2,2,B|272:144,1,80,0|2,0:0|0:0,0:0:0
232,136,94127,2,0,B|136:128,1,80
80,208,94556,1,8,0:0:0
80,208,94663,1,0,0:0:0
80,208,94770,1,2,0:0:0
104,312,94985,2,2,B|192:328,1,80,8|8,0:0|0:0,0:0:0
288,336,95413,1,2,0:0:0
456,336,95627,6,2,B|416:256|496:160,1,160,2|0,0:0|0:0,0:0:0
448,88,96270,1,8,0:0:0
448,88,96377,1,0,0:0:0
448,88,96485,1,2,0:0:0
352,64,96699,1,2,0:0:0
48,320,97127,2,0,B|112:344,1,40,0|0,0:0|0:0,0:0:0
136,344,97342,6,2,B|312:296,1,160,8|0,0:0|0:0,0:0:0
392,336,97985,1,8,0:0:0
440,248,98199,2,2,B|368:176,1,80,2|8,0:0|0:0,0:0:0
176,216,98627,2,2,B|216:120,1,80,8|0,0:0|0:0,0:0:0
168,104,98949,6,0,B|152:32,1,40
464,80,99270,2,0,B|360:48,1,80,2|0,0:0|0:0,0:0:0
40,136,99699,2,0,B|136:168,1,80,10|0,0:0|0:0,0:0:0
464,264,100127,2,0,B|360:232,1,80,10|8,0:0|0:0,0:0:0
40,320,100556,1,2,0:0:0
40,320,100663,1,0,0:0:0
40,320,100770,6,2,B|184:352,1,120,0|2,0:0|0:0,0:0:0
208,352,101199,2,0,B|272:288,1,80,0|8,0:0|0:0,0:0:0
432,320,101627,6,2,B|400:256|440:168,1,120,0|2,0:0|0:0,0:0:0
384,176,102056,2,0,B|320:96,1,80
264,136,102377,1,0,0:0:0
240,64,102485,6,2,B|144:72,1,80,12|0,0:0|0:0,0:0:0
16,152,102913,2,2,B|112:184,1,80,2|8,0:0|0:0,0:0:0
240,272,103342,2,2,B|144:280,1,80,0|8,0:0|0:0,0:0:0
16,336,103770,1,8,0:0:0
16,336,103985,5,0,0:0:0
16,336,104092,1,0,0:0:0
16,336,104199,1,2,0:0:0
112,280,104413,1,2,0:0:0
208,320,104627,1,0,0:0:0
296,272,104842,1,10,0:0:0
472,200,105056,5,0,0:0:0
376,144,105270,1,10,0:0:0
280,184,105484,1,8,0:0:0
192,136,105699,1,10,0:0:0
192,136,105806,1,0,0:0:0
192,136,105913,1,8,0:0:0
96,104,106127,1,2,0:0:0
24,176,106342,2,2,B|16:232|32:280,1,80,2|10,0:0|0:0,0:0:0
120,280,106770,2,0,B|128:336|112:368,1,80,0|8,0:0|0:0,0:0:0
256,352,107199,5,2,0:0:0
316,336,107342,1,0,0:0:0
368,304,107485,1,2,0:0:0
404,256,107627,2,2,B|420:184|356:120,2,120,8|2|10,0:0|0:0|0:0,0:0:0
288,176,108485,2,0,B|200:104,1,80,0|8,0:0|0:0,0:0:0
128,104,108913,1,8,0:0:0
104,72,109020,1,0,0:0:0
56,176,109235,1,8,0:0:0
80,208,109342,6,2,B|40:304,1,80,0|2,0:0|0:0,0:0:0
128,344,109770,2,2,B|216:320|320:328,1,160,10|0,0:0|0:0,0:0:0
296,224,110413,2,10,B|288:168|320:112,1,80,8|8,0:0|0:0,0:0:0
440,144,110842,2,0,B|408:96,1,40,8|0,0:0|0:0,0:0:0
416,40,111056,6,2,B|320:16,1,80
224,144,111485,2,2,B|112:128,1,88.000002685547,0|2,0:0|0:0,0:0:0
144,264,111913,2,2,B|32:328,1,95.9999970703126,10|0,0:0|0:0,0:0:0
80,128,112342,2,2,B|8:40,1,103.999995239258,2|10,0:0|0:0,0:0:0
14,49,112663,1,0,0:0:0
14,49,112770,5,0,0:0:0
120,48,112985,1,8,0:0:0
180,132,113199,1,8,0:0:0
232,44,113413,1,2,0:0:0
448,216,113842,1,2,0:0:0
424,320,114056,1,0,0:0:0
344,248,114270,1,8,0:0:0
344,248,114377,1,0,0:0:0
264,320,114592,1,8,0:0:0
264,320,114699,6,0,B|176:288,1,80,2|0,0:0|0:0,0:0:0
84,132,115128,1,0,0:0:0
84,132,115342,2,2,B|52:196|56:260,1,120,0|0,0:0|0:0,0:0:0
88,300,115770,5,2,0:0:0
96,300,115842,1,0,0:0:0
104,300,115913,1,0,0:0:0
112,300,115985,1,0,0:0:0
120,300,116056,1,0,0:0:0
128,300,116127,1,0,0:0:0
136,300,116199,6,2,B|224:340,1,80,4|8,0:0|0:0,0:0:0
280,268,116627,1,8,0:0:0
352,336,116842,2,2,B|456:200,1,160,0|8,0:0|0:0,0:0:0
400,32,117485,2,2,B|302:159,1,160,2|0,0:0|0:0,0:0:0
192,188,118127,5,2,0:0:0
160,44,118342,1,0,0:0:0
16,76,118556,1,10,0:0:0
48,224,118770,1,0,0:0:0
156,348,118985,1,10,0:0:0
156,348,119092,2,0,B|188:300,1,40,0|8,0:0|0:0,0:0:0
356,348,119413,1,2,0:0:0
356,348,119520,2,0,B|324:300,1,40
255,222,119842,5,8,0:0:0
276,120,120056,1,8,0:0:0
186,68,120271,1,0,0:0:0
186,68,120377,1,2,0:0:0
109,137,120592,1,0,0:0:0
109,137,120699,1,2,0:0:0
151,233,120913,5,0,0:0:0
156,296,121056,1,0,0:0:0
216,316,121199,1,0,0:0:0
272,284,121342,6,2,B|288:356|376:388,1,120
444,264,121770,2,2,B|348:304,1,80,2|0,0:0|0:0,0:0:0
264,180,122199,2,2,B|192:196|120:172,1,120
104,56,122627,2,2,B|168:112,1,80,2|0,0:0|0:0,0:0:0
64,264,123056,6,0,B|176:264,1,80,10|0,0:0|0:0,0:0:0
344,336,123485,2,0,B|248:336,1,80,2|8,0:0|0:0,0:0:0
464,272,123913,2,0,B|432:200|424:80,1,160,10|0,0:0|0:0,0:0:0
344,56,124556,1,0,0:0:0
206,44,124770,5,0,0:0:0
206,44,124985,1,2,0:0:0
64,119,125199,1,8,0:0:0
64,119,125413,1,2,0:0:0
92,276,125627,1,0,0:0:0
92,276,125842,1,2,0:0:0
250,298,126056,1,8,0:0:0
250,298,126270,1,2,0:0:0
321,156,126484,6,2,B|369:220|465:228,1,160,2|0,0:0|0:0,0:0:0
321,340,127127,1,0,0:0:0
329,140,127342,6,2,B|377:204|473:212,1,160,2|0,0:0|0:0,0:0:0
321,340,127985,1,0,0:0:0
345,116,128199,6,2,B|393:180|489:188,1,160,2|0,0:0|0:0,0:0:0
321,340,128842,1,0,0:0:0
361,84,129056,6,2,B|409:148|505:156,1,160,2|0,0:0|0:0,0:0:0
222,22,129913,6,0,B|205:197,1,160
232,40,130235,6,0,B|215:215,1,160
240,64,130556,6,0,B|223:239,1,160
248,88,130877,6,0,B|231:263,1,160
256,112,131199,6,0,B|239:287,1,160
152,56,131628,5,2,0:0:0
64,120,131842,2,0,B|48:208,1,80
72,296,132270,1,0,0:0:0
168,336,132485,1,2,0:0:0
264,336,132699,1,2,0:0:0
272,320,132770,1,2,0:0:0
280,304,132842,1,2,0:0:0
288,288,132913,2,0,B|360:248,1,80,2|0,0:0|0:0,0:0:0
400,96,133342,5,2,0:0:0
288,48,133556,1,2,0:0:0
272,56,133627,1,2,0:0:0
256,64,133699,1,2,0:0:0
240,72,133770,2,0,B|136:72,1,80,2|0,0:0|0:0,0:0:0
48,128,134199,1,2,0:0:0
64,232,134413,1,2,0:0:0
56,248,134485,1,2,0:0:0
48,264,134556,1,2,0:0:0
40,280,134627,6,0,B|176:272,2,120,2|0|0,0:0|0:0|0:0,0:0:0
348,80,135485,2,0,B|308:212,2,120
128,96,136342,2,0,B|24:24,2,120
144,224,137199,5,0,0:0:0
240,184,137413,1,0,0:0:0
232,288,137627,1,0,0:0:0
336,304,137842,1,0,0:0:0
360,324,137949,1,0,0:0:0
384,344,138056,1,0,0:0:0
468,292,138270,1,0,0:0:0
444,192,138485,5,2,0:0:0
416,88,138699,2,0,B|336:48,1,80
240,72,139127,1,0,0:0:0
136,88,139342,1,2,0:0:0
64,160,139556,1,2,0:0:0
72,176,139627,1,2,0:0:0
80,192,139699,1,2,0:0:0
88,208,139770,2,0,B|184:240,1,80,2|0,0:0|0:0,0:0:0
232,344,140199,6,0,B|328:312,1,80,2|0,0:0|0:0,0:0:0
404,276,140627,1,0,0:0:0
472,220,140842,1,0,0:0:0
440,138,141056,1,2,0:0:0
352,143,141270,1,2,0:0:0
330,228,141485,6,0,B|298:284|322:356,2,120,2|0|0,0:0|0:0|0:0,0:0:0
152,120,142342,2,0,B|216:88|232:0,2,120
120,328,143199,2,0,B|77:294|5:302,2,120
256,316,144056,5,0,0:0:0
240,284,144163,1,0,0:0:0
308,228,144377,1,0,0:0:0
324,260,144484,1,0,0:0:0
392,200,144699,1,0,0:0:0
376,168,144806,1,0,0:0:0
360,132,144913,1,0,0:0:0
324,44,145127,1,0,0:0:0
224,48,145342,6,0,B|168:104,1,80,6|0,0:0|0:0,0:0:0
112,192,145770,1,0,0:0:0
120,296,145985,1,0,0:0:0
208,352,146199,1,2,0:0:0
312,336,146413,1,2,0:0:0
312,336,146485,1,2,0:0:0
312,336,146556,1,2,0:0:0
312,336,146627,2,0,B|408:304,1,80,2|0,0:0|0:0,0:0:0
448,112,147056,6,0,B|352:144,1,80,2|0,0:0|0:0,0:0:0
372,137,147485,2,0,B|288:88,1,80,2|0,0:0|0:0,0:0:0
208,136,147913,1,2,0:0:0
120,192,148127,1,2,0:0:0
120,192,148199,1,2,0:0:0
120,192,148270,1,2,0:0:0
120,192,148342,1,2,0:0:0
416,320,148770,6,0,B|432:264|408:176,2,120
320,312,149627,1,0,0:0:0
288,308,149735,1,0,0:0:0
256,304,149842,1,0,0:0:0
224,300,149949,1,0,0:0:0
192,296,150056,1,0,0:0:0
104,284,150270,1,0,0:0:0
124,128,150485,6,0,B|84:96|76:0,2,120
220,112,151342,1,0,0:0:0
252,108,151450,1,0,0:0:0
284,104,151557,1,0,0:0:0
316,100,151664,1,0,0:0:0
348,96,151771,1,0,0:0:0
352,304,152199,6,0,B|264:352,1,80,6|0,0:0|0:0,0:0:0
184,312,152627,1,0,0:0:0
96,256,152842,1,0,0:0:0
96,152,153056,1,2,0:0:0
184,96,153270,2,0,B|176:64,3,26.6666666666667,2|2|2|2,0:0|0:0|0:0|0:0,0:0:0
272,152,153699,1,0,0:0:0
272,256,153913,5,2,0:0:0
368,296,154127,1,0,0:0:0
440,216,154342,1,0,0:0:0
376,136,154556,1,0,0:0:0
272,152,154770,2,0,B|224:72|136:40,1,160,2|0,0:0|0:0,0:0:0
80,120,155413,5,0,0:0:0
80,120,155520,1,0,0:0:0
80,120,155627,2,0,B|48:208,1,80
112,280,156056,1,0,0:0:0
216,304,156270,1,0,0:0:0
239,304,156377,1,0,0:0:0
263,304,156485,1,0,0:0:0
286,304,156592,1,0,0:0:0
309,304,156699,1,0,0:0:0
332,304,156806,1,0,0:0:0
355,304,156913,1,0,0:0:0
378,304,157020,1,0,0:0:0
401,304,157127,1,0,0:0:0
425,304,157235,1,0,0:0:0
448,304,157342,5,0,0:0:0
448,152,157663,1,0,0:0:0
304,96,157985,2,2,B|112:64,1,160,0|2,0:0|0:0,0:0:0
56,88,158520,1,0,0:0:0
56,88,158627,2,0,B|32:48,1,40
48,184,158842,2,0,B|104:176,1,40,0|0,0:0|0:0,0:0:0
136,264,159056,6,2,B|264:200,1,103.999998140335
352,152,159485,1,0,0:0:0
440,24,159699,2,2,B|432:96|496:152,1,103.999998140335,2|0,0:0|0:0,0:0:0
440,256,160127,1,0,0:0:0
440,256,160235,1,0,0:0:0
440,256,160342,2,2,B|320:304,1,103.999998140335
128,336,160770,6,2,B|16:208,1,155.999997210503,2|2,0:0|0:0,0:0:0
168,232,161199,2,2,B|160:144|240:64,1,155.999997210503,8|2,0:0|0:0,0:0:0
272,168,161627,2,2,B|424:160,1,103.999998140335,2|0,0:0|0:0,0:0:0
440,48,162056,1,8,0:0:0
488,176,162270,1,0,0:0:0
408,352,162485,6,2,B|240:304,1,155.999997210503
172,344,162913,2,2,B|4:296,1,155.999997210503,8|2,0:0|0:0,0:0:0
184,240,163342,2,2,B|280:192,1,103.999998140335,8|0,0:0|0:0,0:0:0
384,40,163770,1,10,0:0:0
384,40,163877,1,0,0:0:0
384,40,163985,1,0,0:0:0
384,40,164092,1,2,0:0:0
384,40,164199,6,0,B|392:104|448:168,1,103.999998140335,0|2,0:0|0:0,0:0:0
408,352,164627,2,2,B|368:312|352:240,1,103.999998140335
176,104,165056,1,0,0:0:0
248,352,165270,1,2,0:0:0
248,352,165377,1,0,0:0:0
248,352,165485,1,2,0:0:0
248,352,165592,1,0,0:0:0
248,352,165699,1,0,0:0:0
112,344,165913,6,2,B|64:224,1,103.999998140335
112,120,166342,1,8,0:0:0
240,72,166556,1,0,0:0:0
236,208,166770,2,0,B|348:228,1,103.999995239258,2|0,0:0|0:0,0:0:0
368,212,167092,1,0,0:0:0
368,212,167199,1,10,0:0:0
472,144,167413,1,2,0:0:0
368,64,167627,6,2,B|176:40,1,155.999997210503
56,40,168056,2,2,B|210:59,1,155.999997210503,8|2,0:0|0:0,0:0:0
152,144,168485,2,2,B|200:248,1,103.999998140335,8|2,0:0|0:0,0:0:0
304,320,168913,1,8,0:0:0
304,320,169127,1,2,0:0:0
440,200,169342,6,2,B|480:352,1,155.999997210503
424,204,169770,2,2,B|384:53,1,155.999997210503,8|2,0:0|0:0,0:0:0
320,200,170199,2,2,B|232:272,1,103.999998140335,8|2,0:0|0:0,0:0:0
104,264,170627,1,10,0:0:0
88,224,170735,1,0,0:0:0
104,184,170842,1,0,0:0:0
120,144,170949,1,0,0:0:0
100,108,171056,5,2,0:0:0
278,24,171270,1,2,0:0:0
413,168,171485,1,2,0:0:0
316,340,171699,1,2,0:0:0
123,303,171913,1,0,0:0:0
64,180,172127,1,2,0:0:0
64,180,172235,1,0,0:0:0
64,180,172342,1,0,0:0:0
64,180,172449,1,0,0:0:0
64,180,172556,1,2,0:0:0
64,180,172663,1,0,0:0:0
64,180,172770,6,2,B|8:44,1,103.999995239258
240,184,173199,1,8,0:0:0
240,184,173413,2,2,B|288:296,1,103.999998140335,0|2,0:0|0:0,0:0:0
448,296,173842,1,2,0:0:0
448,296,173949,1,0,0:0:0
448,296,174056,1,8,0:0:0
440,80,174270,6,2,B|368:104|304:48,1,103.999998140335,0|2,0:0|0:0,0:0:0
176,40,174699,1,0,0:0:0
176,40,174806,1,0,0:0:0
176,40,174913,1,10,0:0:0
64,152,175127,1,0,0:0:0
64,152,175235,1,2,0:0:0
64,152,175342,1,8,0:0:0
144,288,175556,1,2,0:0:0
144,288,175663,1,0,0:0:0
144,288,175770,1,10,0:0:0
144,288,175877,1,0,0:0:0
144,288,175985,1,0,0:0:0
144,288,176092,1,0,0:0:0
144,288,176199,5,2,0:0:0
292,152,176413,1,2,0:0:0
192,304,176627,1,8,0:0:0
260,120,176842,1,2,0:0:0
232,320,177056,1,8,0:0:0
232,88,177270,1,2,0:0:0
364,60,177485,1,8,0:0:0
364,60,177592,1,0,0:0:0
364,60,177699,1,2,0:0:0
232,88,177913,5,2,0:0:0
112,56,178127,1,0,0:0:0
80,96,178235,1,0,0:0:0
88,144,178342,1,2,0:0:0
208,208,178556,1,2,0:0:0
104,288,178770,1,0,0:0:0
224,344,178985,1,2,0:0:0
256,320,179092,1,0,0:0:0
296,320,179199,1,0,0:0:0
328,296,179306,1,2,0:0:0
368,296,179413,1,0,0:0:0
400,272,179520,1,0,0:0:0
440,272,179627,6,2,B|464:224|464:120,1,103.999998140335,2|0,0:0|0:0,0:0:0
368,152,180056,2,2,B|392:104|392:0,1,103.999998140335,8|2,0:0|0:0,0:0:0
264,40,180485,2,2,B|152:56|72:40,1,155.999997210503
136,112,180913,2,2,B|80:216,1,103.999998140335,10|0,0:0|0:0,0:0:0
152,360,181342,6,2,B|208:320|312:328,1,155.999997210503
360,368,181770,2,2,B|424:264,1,103.999998140335,10|0,0:0|0:0,0:0:0
400,144,182199,2,0,B|368:80,1,51.9999990701676,2|0,0:0|0:0,0:0:0
308,124,182413,2,0,B|252:132,1,51.9999990701676
208,76,182627,2,2,B|96:60,1,103.999998140335,10|2,0:0|0:0,0:0:0
72,240,183056,6,2,B|104:304|192:336,1,155.999997210503
272,360,183485,2,0,B|304:304,1,51.9999990701676,2|0,0:0|0:0,0:0:0
376,312,183699,2,0,B|408:240,1,51.999997619629,2|0,0:0|0:0,0:0:0
432,176,183913,5,0,0:0:0
432,176,184127,1,0,0:0:0
304,104,184342,2,0,B|256:56,1,51.9999990701676,2|0,0:0|0:0,0:0:0
212,160,184556,2,0,B|140:184,1,51.9999990701676
64,228,184770,5,0,0:0:0
64,228,184985,2,2,B|92:280|172:264,1,103.999995239258,0|2,0:0|0:0,0:0:0
380,272,185413,2,0,B|248:280|212:156,1,207.999990478516,2|2,0:0|0:0,0:0:0
120,64,186056,1,0,0:0:0
80,72,186163,1,2,0:0:0
52,100,186270,1,0,0:0:0
48,140,186377,1,0,0:0:0
68,176,186485,5,2,0:0:0
100,284,186699,1,0,0:0:0
148,276,186806,1,0,0:0:0
188,300,186913,1,2,0:0:0
292,292,187127,1,0,0:0:0
332,261,187235,1,0,0:0:0
383,262,187342,1,2,0:0:0
393,216,187449,1,0,0:0:0
436,194,187556,1,0,0:0:0
422,148,187663,1,2,0:0:0
450,105,187770,1,0,0:0:0
368,44,187985,1,2,0:0:0
200,52,188199,5,2,0:0:0
224,252,188413,1,2,0:0:0
432,320,188627,1,2,0:0:0
456,184,188842,5,0,0:0:0
456,184,188913,1,0,0:0:0
456,184,188985,1,0,0:0:0
456,184,189056,1,2,0:0:0
384,72,189270,1,0,0:0:0
384,72,189377,1,0,0:0:0
384,72,189485,1,2,0:0:0
248,56,189699,1,2,0:0:0
72,128,189913,5,2,0:0:0
96,264,190127,1,0,0:0:0
128,288,190235,1,0,0:0:0
168,280,190342,1,2,0:0:0
304,288,190556,2,0,B|352:288,1,34.6666650797527
304,288,190699,2,0,B|280:240,1,34.6666650797527,0|2,0:0|0:0,0:0:0
424,168,190985,1,0,0:0:0
464,36,191199,1,2,0:0:0
324,68,191413,1,2,0:0:0
324,68,191627,5,0,0:0:0
404,264,191842,1,2,0:0:0
228,344,192056,1,2,0:0:0
136,160,192270,1,2,0:0:0
8,128,192485,5,0,0:0:0
48,248,192699,1,0,0:0:0
48,248,192770,1,0,0:0:0
48,248,192842,1,0,0:0:0
48,248,192913,2,0,B|160:296,1,103.999998140335,2|0,0:0|0:0,0:0:0
352,344,193342,5,2,0:0:0
400,216,193556,1,0,0:0:0
376,184,193663,1,0,0:0:0
336,168,193770,1,2,0:0:0
240,72,193985,1,2,0:0:0
200,80,194092,1,0,0:0:0
168,104,194199,1,0,0:0:0
200,272,194413,1,2,0:0:0
168,296,194520,1,0,0:0:0
152,336,194627,1,0,0:0:0
48,256,194842,1,2,0:0:0
68,124,195056,5,2,0:0:0
292,60,195270,1,2,0:0:0
496,208,195485,1,2,0:0:0
448,336,195699,1,0,0:0:0
448,336,195770,1,0,0:0:0
448,336,195842,1,0,0:0:0
448,336,195913,1,2,0:0:0
312,336,196127,1,0,0:0:0
312,336,196235,1,0,0:0:0
312,336,196342,1,2,0:0:0
176,328,196556,1,2,0:0:0
80,160,196770,5,2,0:0:0
176,112,196985,2,0,B|200:88,1,34.6666650797527
176,112,197127,2,0,B|192:144,1,34.6666650797527,0|2,0:0|0:0,0:0:0
264,224,197413,6,0,B|216:232,2,34.6666660467784,2|0|0,0:0|0:0|0:0,0:0:0
296,248,197627,5,2,0:0:0
336,248,197735,1,0,0:0:0
368,216,197842,1,2,0:0:0
408,216,197949,1,0,0:0:0
424,176,198056,5,0,0:0:0
448,144,198163,1,0,0:0:0
432,104,198270,1,2,0:0:0
464,80,198377,1,0,0:0:0
440,40,198484,5,2,0:0:0
269,92,198699,1,0,0:0:0
321,261,198913,1,2,0:0:0
491,209,199127,1,2,0:0:0
320,260,199342,1,0,0:0:0
184,300,199556,1,0,0:0:0
184,300,199627,1,0,0:0:0
184,300,199699,1,0,0:0:0
184,300,199770,5,2,0:0:0
132,348,199913,2,0,B|60:356,1,69.3333301595054
16,304,200199,1,0,0:0:0
16,304,200306,6,0,B|72:156,1,155.999992858887,0|4,0:0|0:0,0:0:0
