osu file format v7

[General]
AudioFilename: dreamenddischarger.mp3
AudioLeadIn: 0
PreviewTime: 159056
Countdown: 1
SampleSet: Soft
StackLeniency: 0.7
Mode: 0
LetterboxInBreaks: 1

[Editor]
DistanceSpacing: 0.300000011920929
BeatDivisor: 4
GridSize: 8

[Metadata]
Title:dreamenddischarger
Artist:07th Expansion
Creator:[DBF]
Version:Normal
Source:Umineko no Naku Koro ni
Tags:visual novel when they cry

[Difficulty]
HPDrainRate:5
CircleSize:4
OverallDifficulty:5
SliderMultiplier:1.4
SliderTickRate:2

[Events]
//Background and Video events
0,0,"Konachan.com - 42591 beatrice butterfly umineko_no_naku_koro_ni.jpg"
//Break Periods
2,75256,87570
2,135255,137284
//Storyboard Layer 0 (Background)
//Storyboard Layer 1 (Fail)
//Storyboard Layer 2 (Pass)
//Storyboard Layer 3 (Foreground)
//Storyboard Sound Samples
Sample,164413,0,"normal-hitwhistle.wav",70
Sample,164627,0,"normal-hitwhistle.wav",70
Sample,164842,0,"normal-hitwhistle.wav",70
Sample,171270,0,"normal-hitwhistle.wav",70
Sample,171699,0,"normal-hitwhistle.wav",70
Sample,171485,0,"normal-hitwhistle.wav",70
Sample,177699,0,"normal-hitwhistle.wav",70
Sample,177913,0,"normal-hitwhistle.wav",70
Sample,178127,0,"normal-hitwhistle.wav",70
Sample,178342,0,"normal-hitwhistle.wav",70
Sample,178556,0,"normal-hitwhistle.wav",70
//Background Colour Transformations
3,100,0,0,0

[TimingPoints]
6485,428.571428571429,4,2,0,100,1,0
18485,-200,4,2,0,100,0,0
25127,-200,4,1,0,40,0,0
33806,-100,4,2,0,70,0,0
47413,-200,4,1,0,70,0,0
130020,-100,4,1,0,4,0,0
131842,-200,4,2,0,70,0,1
145548,-200,4,1,0,70,0,0
201056,-100,4,2,0,70,0,0
203632,857.142857142857,4,1,0,70,1,0
203855,-200,4,2,0,70,0,0
222498,-200,4,2,0,50,0,0
227855,-200,4,2,0,30,0,0
231069,-200,4,2,0,5,0,0

[Colours]
Combo1 : 60,157,255
Combo2 : 255,182,121
Combo3 : 174,87,0

[HitObjects]
168,144,20199,2,0,B|208:200|232:288,1,140,0|2
288,176,21485,1,0
288,176,21913,6,0,B|344:128|416:104,1,140,0|2
320,240,23199,1,0
320,240,23627,6,0,B|272:280|184:296,1,140,0|2
120,272,24913,1,0
120,272,25342,6,0,B|112:216|80:160,2,105
184,240,27056,6,0,B|232:192|312:168,1,140,4|0
328,240,28342,1,0
328,240,28770,6,0,B|272:200|232:128,1,140
304,168,30056,1,0
304,168,30485,6,0,B|264:216|176:248,2,140
208,96,32627,5,0
88,104,33056,1,0
176,192,33485,1,0
80,248,33913,6,0,B|144:296,1,70,8|0
208,312,34342,2,0,B|272:264,1,70,0|8
288,200,34770,2,0,B|312:272|296:352,2,140,0|8|8
216,216,35842,1,0
112,136,36270,1,8
112,136,36485,1,0
224,80,36913,6,8,B|304:80|384:96,1,140
363,92,37556,1,0
360,216,37985,1,8
360,216,38199,2,0,B|288:224|208:208,1,140,0|8
432,216,39056,6,0,B|440:288,1,70,8|0
440,128,39699,2,0,B|368:120,1,70,8|0
224,120,40342,2,0,B|208:192|216:280,1,140,8|2
224,120,41199,2,0,B|296:128|376:120,1,140,0|2
240,48,42056,2,0,B|168:40|88:48,1,140,0|2
100,46,42699,1,8
96,168,43127,1,2
96,168,43342,2,0,B|168:184|256:168,1,140,8|0
368,160,44199,6,0,B|400:232,1,70,8|0
336,264,44627,2,8,B|296:336,1,70
232,304,45056,2,0,B|184:240,1,70,0|8
208,176,45484,2,0,B|272:136,1,70
336,112,45913,2,4,B|360:192|344:328,2,210
128,112,47627,6,0,B|208:112,1,70
416,112,48484,2,0,B|344:112,1,70
416,328,49342,2,0,B|416:256,1,70
272,328,50199,2,0,B|192:328,1,70
160,200,51056,6,0,B|240:200,1,70
408,200,51913,1,0
408,200,52127,2,0,B|368:200,1,35
152,192,52770,2,0,B|224:192,1,70,0|0
360,152,53627,2,0,B|416:208,1,70
416,336,54484,6,0,B|368:320,1,35
312,304,54913,2,0,B|264:312,1,35
208,288,55342,2,4,B|192:240|192:168,2,105
264,240,57056,6,4,B|216:224|144:232,2,105
328,200,58770,6,4,B|312:144|320:80,2,105
344,272,60484,1,0
280,72,61342,5,4
200,160,61770,6,0,B|168:192,1,35,2|2
152,256,62199,2,0,B|184:280,1,35
248,248,62627,2,0,B|288:232,1,35,2|0
352,216,63056,2,2,B|360:248|360:296,1,70,0|2
432,272,63699,5,2
432,200,63913,2,0,B|408:160,1,35
352,128,64342,2,0,B|312:136,1,35,2|0
248,152,64770,2,2,B|240:192|248:232,1,70,0|2
280,288,65413,5,2
208,304,65627,2,0,B|168:312,1,35,0|0
112,272,66056,2,2,B|80:248,1,35,2|0
56,184,66484,2,2,B|96:176|136:176,1,70,0|2
200,176,67127,5,2
200,176,67342,2,2,B|232:168|272:168,1,70,0|2
320,280,68199,6,2,B|280:288|240:280,1,70,0|2
176,280,68842,1,2
176,280,69056,2,2,B|160:248|160:200,1,70,0|2
272,168,69913,6,2,B|288:200|288:240,1,70,0|2
264,304,70556,1,2
192,312,70770,1,0
120,312,70984,1,2
120,312,71199,1,2
120,200,71627,6,2,B|160:192|200:200,1,70,0|2
264,200,72270,1,2
264,200,72484,2,2,B|272:168|272:120,1,70,0|2
256,192,73342,12,4,75056
248,168,88770,5,0
232,240,89199,1,8
232,312,89627,1,0
304,304,90056,6,0,B|376:280,1,70,8|0
368,208,90913,6,0,B|312:160,1,70,8|8
240,160,91770,6,0,B|224:200|224:240,2,70,8|0|8
192,104,93056,6,0,B|160:88|120:88,2,70,8|0|8
256,144,94342,2,2,B|240:216|208:280,1,140,0|8
168,216,95627,6,2,B|232:224|312:256,1,140,0|8
376,232,96913,6,0,B|344:160,2,70,0|8|0
320,280,98199,5,8
320,280,98627,2,2,B|256:288|176:280,1,140,0|0
160,208,99913,2,2,B|232:200|312:208,1,140,0|0
256,192,100877,12,8,102484
264,88,102913,6,0,B|272:112|256:136,1,35,8|0
200,160,103342,2,0,B|192:184|208:208,1,35,0|8
272,208,103770,2,0,B|288:248|320:272,1,70,8|0
384,248,104413,6,0,B|384:224|400:200,1,35,0|8
448,168,104842,2,0,B|456:152|440:128,1,35
384,88,105270,1,8
384,88,105484,2,0,B|344:96|304:96,1,70,8|0
192,112,106342,6,0,B|184:160|192:192,1,70,8|0
304,208,107199,2,0,B|312:248|304:288,2,70,8|0|8
176,200,108484,2,8,B|216:200|256:208,1,70,8|8
360,224,109342,6,0,B|360:272|336:336,2,105,8|2|8
240,240,111056,6,0,B|224:184|232:128,2,105,8|2|8
272,344,112770,1,8
256,192,112877,12,0,114484
256,104,114913,6,0,B|176:128,1,70,8|0
160,192,115770,2,0,B|232:208,1,70,8|8
288,256,116627,5,8
288,256,116842,2,0,B|352:200,1,70,0|8
368,192,117484,2,8,B|336:160|296:144,1,70,8|0
208,104,118342,5,8
208,104,118556,2,0,B|176:128|160:168,1,70,0|8
144,184,119199,2,0,B|168:208|216:232,1,70,8|0
320,264,120056,2,0,B|360:248,1,35,8|0
400,192,120484,2,0,B|368:152,1,35
328,112,120913,1,8
296,104,121127,1,0
264,112,121342,2,0,B|192:144,1,70,0|8
160,200,121984,5,0
152,232,122199,1,0
152,264,122413,1,8
160,296,122627,1,8
176,328,122842,1,0
176,328,123056,2,0,B|256:304,1,70,0|8
352,200,123913,6,0,B|272:176,1,70,0|8
120,192,124770,6,0,B|104:224|104:272,2,70,0|8|0
192,176,126056,2,0,B|208:144|208:104,1,70,8|0
384,264,127342,6,0,B|376:296|384:336,1,70,8|0
312,336,128199,2,0,B|248:328|168:336,2,140,8|8|0
256,192,130020,12,0,131627
128,112,132056,6,0,B|152:144,1,35
216,168,132484,2,0,B|256:160,1,35
320,136,132913,2,0,B|336:168|328:216,1,70
256,304,133770,6,0,B|208:296,1,35
176,240,134199,2,0,B|200:208,1,35
240,152,134627,2,0,B|208:136|160:144,1,70
320,160,138484,6,0,B|304:200,1,35
240,224,138913,2,0,B|192:216,1,35
144,176,139342,2,0,B|160:144,1,35
128,80,139770,2,0,B|160:72|200:80,1,70
336,144,140627,6,0,B|352:184,1,35
312,240,141056,2,0,B|304:280,1,35
232,288,141484,2,0,B|192:296|152:288,1,70
256,136,143627,5,2
240,168,143842,1,0
240,200,144056,1,2
248,232,144270,1,0
256,264,144484,1,0
240,296,144699,1,2
216,312,144913,2,0,B|184:320|136:304,1,70,2|4
72,192,145770,6,0,B|104:184|152:192,1,70
208,216,146413,1,0
208,216,146627,2,0,B|232:192|232:144,1,70
304,144,147270,1,0
304,144,147485,2,0,B|312:184|336:208,1,70
328,280,148127,1,0
328,280,148342,2,0,B|280:288|216:272,2,105
264,168,150056,6,0,B|320:152|384:160,2,105
136,208,151770,6,0,B|128:248|128:288,1,70
184,328,152413,1,0
184,328,152627,1,0
240,280,152842,1,0
240,280,153056,1,0
224,208,153270,1,0
224,208,153485,2,0,B|216:168|192:144,1,70
328,128,154342,6,0,B|312:176,1,35
352,224,154770,2,0,B|368:264,1,35
432,288,155199,2,0,B|448:256|440:208,1,70
256,192,157342,5,0
256,192,157985,1,0
256,192,158092,12,0,159056
128,112,159485,6,2,B|120:152,1,35,2|0
184,184,159913,2,0,B|192:224,1,35,2|0
128,256,160342,2,2,B|120:296,1,35
192,304,160770,2,2,B|224:312|272:312,2,70
224,240,161842,2,0,B|232:200,1,35,0|2
168,168,162270,2,0,B|152:136,1,35,0|2
376,128,162913,6,0,B|392:160,1,35,2|0
336,208,163342,2,0,B|328:248,1,35,2|0
392,280,163770,2,0,B|416:248,1,35,2|2
384,184,164199,2,2,B|336:176|240:184,1,140
304,80,165485,6,2,B|320:112,1,35
312,184,165913,2,0,B|304:232,1,35,2|0
248,264,166342,2,2,B|216:240,1,35,2|2
192,176,166770,2,0,B|200:136,1,35,2|0
136,104,167199,2,2,B|88:96,1,35
80,168,167627,2,2,B|72:200|80:248,2,70
264,160,168913,6,0,B|256:200,1,35,2|0
328,216,169342,2,0,B|344:184,1,35,2|0
352,112,169770,2,2,B|320:96|280:96,2,70
400,168,170842,1,2
400,168,171056,2,2,B|392:240|360:304,1,140
208,232,172342,6,0,B|168:200,1,35,2|0
184,136,172770,2,2,B|216:120,1,35,2|0
288,128,173199,2,2,B|320:144,1,35
376,192,173627,2,0,B|360:224,1,35,2|0
304,272,174056,2,0,B|264:288,1,35,2|2
200,264,174485,2,2,B|208:224|200:184,2,70
320,176,175770,6,2,B|328:136,1,35
256,136,176199,2,0,B|232:104,1,35,2|0
168,136,176627,2,0,B|152:176,1,35,2|0
216,208,177056,2,0,B|208:248,1,35,2|0
200,312,177485,2,2,B|312:336|424:312,1,210,2|2
352,184,179199,5,2
352,184,179413,1,2
352,184,179627,2,2,B|288:152,1,70
216,168,180270,1,2
216,168,180485,2,2,B|184:200|168:240,1,70,2|2
192,296,181127,1,2
192,296,181342,2,2,B|232:312|272:304,2,70
320,144,182627,6,2,B|312:184,1,35
248,216,183056,6,8,B|216:248,1,35
272,56,183913,6,8,B|264:96,1,35
424,152,184770,6,8,B|456:184,1,35
328,144,185413,5,8
216,120,185842,1,8
216,120,186056,1,0
216,120,186270,1,8
216,120,186485,6,8,B|152:96|72:96,1,140
272,168,187770,1,0
272,168,188199,6,8,B|336:192|424:192,2,140
112,120,190342,6,2,B|104:192|112:264,1,140,0|0
264,296,191627,6,2,B|328:256|376:200,1,140,0|8
256,128,192913,6,8,B|208:120,1,35,8|0
152,112,193342,2,0,B|136:160,1,35,8|0
128,216,193770,2,0,B|144:264,1,35,0|8
176,312,194199,2,8,B|216:320|256:312,1,70
304,272,194842,5,0
304,272,195056,2,0,B|288:240,1,35,8|0
296,168,195485,2,0,B|288:128,1,35,0|8
240,80,195913,2,0,B|200:80|168:88,1,70,8|0
144,208,196770,6,0,B|184:216|216:208,1,70,8|0
280,176,197413,2,8,B|296:144,1,35
368,128,197842,2,0,B|376:168,1,35,0|8
352,232,198270,1,0
352,232,198485,6,8,B|296:256|208:248,1,140
88,240,199770,5,0
88,240,200199,5,0
88,240,200627,5,0
256,192,200735,12,2,203199
360,136,204060,6,0,B|312:216|208:288,1,210,2|2
160,120,207489,6,0,B|192:136|224:168,1,70,2|0
336,120,210060,5,2
336,120,210917,2,0,B|328:152|336:192,1,70,2|0
368,304,212631,5,0
272,248,213489,5,2
200,232,213917,1,0
128,216,214346,1,2
296,96,215631,6,0,B|304:104,4,8.75
192,200,216917,5,2
208,272,217346,1,0
240,336,217774,2,0,B|320:320|376:272,1,140,0|2
328,216,219917,5,0
344,144,220346,1,0
328,72,220774,1,2
256,96,221203,2,0,B|240:168,1,70,2|0
208,288,222917,5,2
176,224,223346,1,0
168,152,223774,1,0
200,88,224203,1,2
272,72,224631,1,2
376,256,225917,5,0
304,272,226346,2,0,B|264:280|224:280,1,70
160,280,227631,5,0
136,208,228060,2,0,B|240:176|360:192,1,210
352,304,231489,6,0,B|288:312|200:304,1,140
