osu file format v7

[General]
AudioFilename: dreamenddischarger.mp3
AudioLeadIn: 0
PreviewTime: 159056
Countdown: 1
SampleSet: Soft
StackLeniency: 0.7
Mode: 0
LetterboxInBreaks: 1

[Editor]
DistanceSpacing: 0.200000002980232
BeatDivisor: 4
GridSize: 8

[Metadata]
Title:dreamenddischarger
Artist:07th Expansion
Creator:[DBF]
Version:Hard
Source:Umineko no Naku Koro ni
Tags:visual novel when they cry

[Difficulty]
HPDrainRate:7
CircleSize:4
OverallDifficulty:7
SliderMultiplier:1.4
SliderTickRate:2

[Events]
//Background and Video events
0,0,"Konachan.com - 42591 beatrice butterfly umineko_no_naku_koro_ni.jpg"
//Break Periods
2,116398,129013
//Storyboard Layer 0 (Background)
//Storyboard Layer 1 (Fail)
//Storyboard Layer 2 (Pass)
//Storyboard Layer 3 (Foreground)
//Storyboard Sound Samples
//Background Colour Transformations
3,100,0,0,0

[TimingPoints]
6485,428.571428571429,4,2,0,100,1,0
18485,-200,4,2,0,100,0,0
25127,-200,4,1,0,40,0,0
33806,-100,4,2,0,70,0,0
44735,-100,4,1,0,70,0,0
45592,-100,4,2,0,70,0,0
47842,-100,4,1,0,70,0,0
129485,-100,4,1,0,80,0,0
131842,-200,4,2,0,70,0,1
135806,-100,4,2,0,70,0,1
145449,-100,4,1,0,70,0,0
186592,-100,4,2,0,70,0,0
203632,857.142857142857,4,2,0,70,1,0
203842,-200,4,2,0,70,0,0
227632,-200,4,2,0,30,0,0
231060,-200,4,2,0,5,0,0

[Colours]
Combo1 : 60,157,255
Combo2 : 255,182,121
Combo3 : 174,87,0

[HitObjects]
160,152,20199,6,0,B|184:216|248:264,1,140,0|2
296,168,21485,1,0
296,168,21913,2,0,B|344:112|408:72,2,140,0|2|0
248,248,23949,5,0
168,208,24270,1,2
80,176,24592,2,0,B|72:200|80:240,1,52.5,0|4
400,88,25342,6,0,B|352:96,1,35
328,208,25770,2,0,B|320:256,1,35
216,120,26199,2,0,B|176:104,1,35
168,240,26627,2,0,B|128:256,1,35
264,328,27056,5,4
352,120,27485,2,0,B|408:176,1,70
104,248,28342,2,0,B|96:176,1,70
288,72,29199,2,0,B|280:120|288:192,2,105
312,280,30913,6,0,B|240:304,1,70
208,72,31770,2,0,B|288:88,1,70
176,272,32627,2,0,B|144:248,1,35
408,256,33056,2,0,B|360:272,1,35
104,152,33485,2,0,B|120:184,1,35
384,184,33913,6,0,B|320:184|240:168,1,140,0|2
400,112,34556,1,0
400,112,34770,2,0,B|408:200|400:280,1,140,0|2
248,272,35627,2,0,B|176:304,1,70
256,112,36056,2,0,B|296:176,1,70,2|2
96,200,36485,2,0,B|120:128|168:56,2,140,0|2|0
168,240,37556,1,0
248,272,37770,2,0,B|320:288|400:280,1,140,2|0
192,208,38627,2,0,B|104:200|32:208,1,140,2|0
368,208,39270,2,2,B|376:168|376:120,1,70,0|2
240,136,39699,2,0,B|232:176|248:224,2,70,0|0|2
256,64,40342,2,0,B|304:56|352:64,1,70,2|0
368,288,40770,6,0,B|304:304|216:288,1,140,0|2
168,192,41413,1,0
288,88,41627,2,0,B|312:152|304:240,1,140,0|2
144,192,42270,1,0
288,88,42485,2,0,B|312:152|304:240,1,140,0|2
120,192,43127,2,0,B|96:120,1,70
216,144,43556,2,2,B|200:64,1,70,2|2
320,136,43984,1,2
320,136,44199,2,0,B|336:208|328:296,1,140,0|2
216,320,44842,2,0,B|160:320|96:304,2,105
256,192,45913,12,0,46770
256,192,46877,12,0,47627
136,128,48056,6,2,B|128:192|136:280,1,140,2|0
376,216,48699,2,2,B|304:176,1,70,0|2
232,136,49127,1,0
232,136,49342,2,2,B|224:192|232:288,1,140,0|2
272,336,49984,2,0,B|304:320|336:288,2,70,0|0|2
200,328,50627,2,2,B|192:256|152:168,1,140,2|0
288,264,51484,6,2,B|352:232|432:216,1,140,2|0
312,192,52127,1,2
288,264,52342,2,2,B|224:232|144:224,1,140,2|0
216,184,52984,1,0
152,152,53199,2,2,B|104:152|40:136,2,105,2|2|0
224,136,54056,2,2,B|240:208|248:296,1,140,2|0
216,104,54913,6,2,B|288:88|368:88,1,140,0|0
296,184,55556,1,0
376,264,55770,2,2,B|304:288|216:288,2,140,0|2|2
416,200,56842,2,2,B|344:168,1,70,2|0
280,192,57270,2,2,B|208:216,1,70
152,88,57699,2,0,B|168:168,1,70,0|2
432,104,58127,6,0,B|352:96,1,70,0|2
208,288,58556,2,0,B|288:296,1,70,2|0
160,232,58984,2,2,B|88:240,1,70
192,168,59413,2,0,B|272:176,1,70,0|2
144,112,59842,6,0,B|56:128,1,70,0|2
336,184,60270,1,2
336,184,60484,1,0
408,208,60699,2,2,B|416:272|408:336,2,105
184,320,61770,6,2,B|120:280|72:224,1,140,2|0
128,176,62413,1,0
128,176,62627,2,2,B|184:136|272:96,1,140,2|0
312,144,63270,1,0
312,144,63484,2,2,B|320:192|312:272,2,105,2|2|0
240,128,64342,2,2,B|136:224,1,140,2|0
232,120,65199,6,2,B|128:216,1,140,2|0
272,288,66056,2,2,B|360:304,1,70,2|0
392,248,66484,2,0,B|376:160,1,70,0|2
312,152,66913,2,0,B|240:168,1,70,2|0
176,136,67342,2,2,B|168:216|208:288,2,140,0|2|0
224,80,68413,6,2,B|296:88,1,70
368,96,68842,1,0
368,96,69056,2,0,B|384:168,1,70,0|2
328,216,69484,2,2,B|328:272|312:328,2,105
264,176,70342,2,2,B|192:168|104:176,1,140,2|0
328,216,70984,5,2
328,216,71199,2,2,B|328:272|312:328,2,105
400,240,72056,2,2,B|416:160|408:96,1,140,2|0
280,280,72913,5,8
280,280,73234,1,8
280,280,73342,1,0
72,280,73663,1,8
72,280,73770,1,0
200,144,74092,1,8
200,144,74199,1,0
376,104,74520,1,8
376,104,74627,1,0
376,104,74734,1,0
376,104,74842,1,0
376,104,74949,1,0
376,104,75056,6,8,B|352:128|296:152,1,70,8|2
288,208,75484,2,2,B|296:240|320:280,1,70,0|2
176,328,75913,2,2,B|168:288|144:248,1,70,0|2
112,200,76342,2,2,B|160:160|240:136,1,140,2|0
416,200,76984,6,2,B|376:272,1,70,2|0
216,232,77413,2,2,B|200:160,1,70,2|0
296,64,77842,2,2,B|376:72,1,70,2|2
224,304,78484,6,2,B|152:264,1,70,0|2
128,152,78913,2,2,B|192:112,1,70
304,144,79342,2,0,B|320:224,1,70,0|2
328,288,79770,2,0,B|264:312|176:304,2,140,2|8|2
112,104,81056,6,8,B|184:88|272:96,2,140,8|2|8
360,184,82342,2,0,B|368:216|368:280,1,70,10|0
296,144,82770,2,8,B|256:136|224:144,1,70,0|8
160,176,83199,2,8,B|176:232|168:328,1,140,10|8
296,144,84056,6,8,B|288:176|296:224,1,70,10|0
296,288,84484,2,2,B|256:288|224:272,1,70,2|8
216,200,84913,2,8,B|224:168|216:128,1,70,10|0
264,72,85342,2,0,B|336:72|416:88,1,140,0|10
400,160,85984,5,8
400,160,86092,1,0
400,160,86199,2,0,B|400:232|384:304,1,140,0|10
328,184,86842,5,8
328,184,86949,1,0
328,184,87056,2,2,B|272:144|200:104,2,140,0|2|0
272,232,88127,2,2,B|224:232|152:256,2,105
408,224,88984,5,0
400,104,89199,1,8
272,112,89413,1,0
272,232,89627,1,0
432,248,89842,1,8
424,80,90056,1,8
248,88,90270,1,0
248,264,90484,6,0,B|184:288|104:280,1,140,0|8
112,128,91127,2,0,B|200:144,1,70,8|0
392,176,91556,2,8,B|408:256,1,70
112,208,91984,2,0,B|200:224,1,70
312,184,92413,6,0,B|328:272,1,70,0|8
296,320,92842,2,8,B|240:320|176:288,1,105
408,128,93484,2,0,B|424:192|432:280,2,140,8|0|8
344,160,94556,6,8,B|296:176|208:168,1,105
48,88,95199,2,0,B|40:152|56:240,2,140,8|0|8
416,120,96270,2,0,B|344:128,1,70
72,160,96699,2,0,B|152:168,1,70,8|8
416,240,97127,2,0,B|328:232,1,70
88,264,97556,6,0,B|168:248,1,70,0|8
216,296,97984,1,8
216,296,98199,2,0,B|232:232|232:144,2,140,0|8|0
280,264,99270,1,0
280,264,99484,6,0,B|296:232|280:176,1,70,8|0
320,128,99913,2,0,B|304:96|272:72,1,70,8|0
200,80,100342,2,0,B|152:128|112:208,1,140,8|0
312,312,101199,6,0,B|336:280|344:232,1,70,8|0
264,96,101627,2,0,B|224:88|176:104,1,70,8|0
96,240,102056,2,0,B|96:288|120:320,1,70,8|0
184,288,102484,6,0,B|192:208|168:136,1,140,0|8
232,104,103127,1,0
232,104,103342,2,0,B|288:88|360:96,2,105,8|0|0
248,176,104199,6,0,B|192:184|136:176,2,105,8|0|0
320,176,105056,2,8,B|344:208|352:248,1,70,8|0
256,336,105484,2,8,B|216:344|184:336,1,70,8|0
72,256,105913,6,10,B|56:184|64:112,1,140,2|8
136,136,106556,1,2
136,136,106770,2,0,B|216:120,1,70,2|0
204,122,107199,2,0,B|272:144,1,70,8|0
271,143,107627,6,2,B|344:128|432:144,2,140,2|10|2
224,200,108699,1,0
152,192,108913,2,2,B|144:264|160:344,1,140,10|0
224,288,109556,1,2
288,328,109770,2,2,B|368:312|432:264,2,140,10|2|10
224,288,110842,5,0
224,288,111056,2,0,B|256:280|312:288,1,70,8|2
432,256,111484,2,0,B|440:216|432:184,1,70,8|2
144,96,111913,2,0,B|136:128|144:168,1,70,0|2
408,256,112342,6,2,B|416:176|400:104,2,140,10|2|10
336,232,113413,1,0
336,232,113627,1,0
264,256,113842,1,2
264,256,114056,1,10
192,232,114270,1,0
192,232,114484,6,2,B|168:160,1,70,2|0
240,48,114913,2,2,B|248:128,1,70,10|0
296,256,115342,2,2,B|312:184,1,70,0|2
360,56,115770,2,0,B|368:72,8,17.5,2|0|0|0|0|0|0|0|0
128,152,129913,5,0
184,296,130127,6,0,B|192:248,1,35
200,152,130449,6,0,B|208:192,1,35
256,296,130770,6,0,B|264:248,1,35
272,152,131092,6,0,B|280:192,1,35
328,296,131413,6,0,B|336:248,2,35,0|0|4
272,64,132056,6,0,B|240:96,1,35
256,320,132484,2,0,B|208:304,1,35,0|0
64,200,132913,2,0,B|104:176,1,35,0|0
344,192,133342,2,0,B|304:184,1,35,0|0
88,80,133770,2,0,B|136:88,1,35,0|0
144,304,134199,2,0,B|160:272,1,35,0|0
192,104,134627,2,0,B|200:144,1,35,0|0
232,280,135056,6,0,B|248:232,1,35
264,168,135484,2,0,B|296:192,1,35
320,256,135913,2,0,B|392:248|448:192,1,140
384,152,136556,1,0
384,152,136770,2,0,B|312:128,1,70
317,129,137199,2,0,B|248:160,1,70
253,157,137627,2,0,B|184:128,1,70
189,130,138056,2,0,B|120:160,1,70
328,320,138484,6,0,B|352:256|344:176,1,140
312,248,139127,1,0
312,248,139342,2,0,B|240:256|168:232,1,140,0|0
240,200,139984,1,0
240,200,140199,2,0,B|256:128|248:56,2,140
80,112,141484,2,0,B|64:176|72:256,2,140,0|0|0
152,128,142556,5,0
224,104,142770,1,0
296,120,142984,1,0
368,104,143199,1,0
440,120,143413,1,0
440,120,143627,2,0,B|416:192,1,70
336,288,144056,2,0,B|312:216,1,70
224,104,144484,2,0,B|208:176,1,70
120,256,144913,2,0,B|184:296|264:272,1,140,0|4
312,224,145556,6,0,B|320:176|320:136,1,70
248,136,145985,1,0
248,136,146199,1,0
248,136,146413,2,0,B|224:144|192:136,2,35
304,88,146842,1,0
304,88,147056,2,0,B|320:152|320:240,2,140
248,136,148127,2,0,B|224:136|208:128,2,35
232,208,148556,6,0,B|224:248|200:296,1,70
304,200,148985,2,0,B|296:168|296:120,1,70
376,208,149413,2,0,B|368:248|376:288,1,70
312,320,149842,1,0
312,320,150056,2,0,B|248:328|160:312,1,140,0|8
120,264,150699,2,0,B|144:192,1,70,0|8
142,197,151127,2,0,B|120:128,1,70
120,130,151556,2,8,B|192:104,1,70
186,106,151985,2,0,B|256:136,1,70,0|4
368,208,152627,6,0,B|344:272|288:328,1,140
216,312,153270,1,0
216,312,153377,1,0
216,312,153485,1,0
144,288,153699,2,0,B|128:256|128:208,1,70
192,184,154127,2,0,B|200:144|192:104,1,70
120,112,154556,1,0
193,114,154770,1,0
264,96,154985,2,0,B|280:80|304:80,2,35
280,168,155413,5,0
272,240,155627,2,0,B|184:232,1,70
280,312,156056,2,0,B|352:304,1,70
176,232,156485,2,0,B|104:224,1,70
144,288,156913,2,0,B|160:216|192:152,1,140,0|0
256,192,157985,12,4,159056
176,176,159270,6,0,B|144:152,2,35,0|0|2
224,232,159699,2,2,B|264:224|320:232,1,70,0|2
344,176,160127,2,0,B|352:136,2,35,0|0|2
408,208,160556,2,2,B|408:248|392:304,1,70
328,296,160985,2,2,B|288:288|248:288,1,70,0|2
184,280,161413,1,0
192,208,161627,1,2
184,200,161735,1,0
192,192,161842,1,0
184,184,161949,1,0
192,176,162056,1,2
184,168,162163,1,0
192,160,162270,1,0
184,152,162377,1,0
192,144,162485,6,2,B|224:136|272:136,1,70,2|0
360,304,162913,6,2,B|320:312|272:304,1,70,2|0
336,128,163342,6,2,B|376:120|432:128,1,70,2|0
216,296,163770,5,2
208,288,163877,1,0
200,296,163985,1,2
192,288,164092,1,0
184,296,164199,1,2
176,288,164306,1,0
168,296,164413,1,2
160,288,164520,1,0
152,296,164627,1,2
144,288,164735,1,0
136,296,164842,1,2
128,288,164949,1,0
120,296,165056,2,2,B|104:240|112:144,1,140,2|2
152,216,165699,1,0
152,216,165913,6,2,B|192:224|240:216,1,70,2|0
376,112,166342,2,2,B|384:160|376:192,1,70,2|0
344,248,166770,2,2,B|288:280|208:296,1,140
376,112,167413,1,0
376,112,167627,2,2,B|312:96|232:88,2,140
384,184,168699,1,0
376,256,168913,1,2
384,328,169127,1,0
384,328,169342,6,2,B|320:336|240:328,2,140
168,328,170627,5,2
160,256,170842,1,0
160,184,171056,2,2,B|144:152|96:120,1,70
232,176,171485,2,2,B|256:208|296:232,1,70,0|2
296,144,171913,2,2,B|296:104|304:56,1,70,2|8
304,64,172235,1,0
304,56,172342,1,2
376,88,172556,1,2
376,160,172770,6,2,B|368:232|376:312,1,140,0|2
328,240,173413,2,2,B|296:248|240:248,1,70
40,192,173842,2,2,B|88:184|128:192,1,70,0|2
184,192,174270,1,0
184,192,174485,2,2,B|200:120|200:48,2,140
160,312,175556,1,0
296,320,175770,1,2
320,200,175985,1,0
184,192,176199,6,2,B|120:200|32:192,2,140
320,200,177270,1,0
304,88,177485,5,2
296,96,177592,1,0
288,88,177699,1,2
280,96,177806,1,0
272,88,177913,1,2
264,96,178020,1,0
256,88,178127,1,2
248,96,178235,1,0
240,88,178342,1,2
232,96,178449,1,0
224,88,178556,1,2
216,96,178663,1,0
208,88,178770,1,2
128,184,178985,1,0
120,192,179092,1,0
128,200,179199,1,2
120,208,179306,1,0
128,216,179413,1,0
120,224,179520,1,0
128,232,179627,6,2,B|208:248|288:240,1,140
208,200,180270,1,0
208,200,180485,2,2,B|296:192|368:200,1,140
128,200,181127,1,0
128,200,181342,2,2,B|144:272|136:344,2,140,2|2|2
104,128,182413,1,0
104,128,182520,1,0
104,128,182627,1,2
176,112,182842,1,0
176,112,182949,1,0
176,112,183056,5,8
248,104,183270,1,8
368,296,183913,5,8
296,304,184127,1,8
368,88,184770,5,8
384,160,184985,1,8
280,232,185413,1,8
144,216,185842,1,8
104,152,186056,2,0,B|96:136|72:136,4,35
256,160,186699,6,0,B|264:136|288:128,2,35,0|0|2
352,248,187127,1,0
344,256,187235,1,0
336,248,187342,1,2
328,256,187449,1,0
320,248,187556,1,0
312,256,187663,1,0
304,248,187770,1,2
296,256,187877,1,0
288,248,187985,1,2
280,256,188092,1,0
272,248,188199,2,0,B|232:240|184:248,1,70,2|0
352,88,188627,6,0,B|360:128|352:176,1,70,2|0
352,168,188949,1,0
352,176,189056,1,2
392,304,189270,1,0
392,312,189377,1,0
392,320,189485,2,2,B|320:320|248:304,2,140
296,264,190556,5,0
288,256,190663,1,0
280,264,190770,1,2
272,256,190877,1,0
264,264,190985,1,2
256,256,191092,1,0
248,264,191199,1,2
280,168,191413,5,2
280,176,191520,1,0
280,184,191627,2,0,B|352:192|408:184,2,105,2|2|2
208,168,192485,2,0,B|152:160|96:168,2,105,2|2|2
216,96,193342,5,2
392,152,193556,2,0,B|400:168|400:192,2,35,0|0|2
216,240,193985,2,0,B|208:216|216:192,2,35,0|0|2
424,256,194413,2,0,B|432:272|432:296,2,35,0|0|2
224,312,194842,2,0,B|200:320|176:312,2,35,0|0|2
152,144,195270,2,0,B|168:136|200:144,2,35,2|0|2
296,304,195699,2,0,B|320:312|344:296,6,35,2|0|2|0|2|0|2
256,120,196556,6,0,B|280:104|312:112,2,35,2|0|2
400,280,196985,5,0
400,288,197092,1,0
400,296,197199,1,2
280,192,197413,5,2
272,192,197520,1,0
264,192,197627,1,2
256,192,197735,1,0
248,192,197842,1,2
240,192,197949,1,0
232,192,198056,1,2
224,192,198163,1,0
216,192,198270,1,2
208,192,198377,1,0
200,192,198485,1,2
256,192,198699,12,0,200627
256,192,200735,12,2,203199
168,88,204060,6,0,B|160:152|184:240,1,140,2|0
304,144,206203,1,0
352,256,206631,5,2
224,288,207060,1,0
184,168,207489,6,0,B|144:184,1,35,2|0
352,256,208346,6,0,B|392:264,1,35,2|0
304,144,209203,2,0,B|312:112|304:80,2,52.5
184,176,210917,6,0,B|160:240|176:320,1,140,2|2
208,104,213489,5,2
264,152,213917,1,0
280,224,214346,2,2,B|296:256|296:304,1,70
136,88,215631,6,0,B|152:88,4,8.75
200,336,216917,5,2
192,264,217346,1,0
192,192,217774,2,2,B|200:152|216:120,1,70
176,312,219489,5,2
232,264,219917,1,0
248,192,220346,1,0
208,128,220774,2,2,B|168:120,1,35
360,176,222060,5,2
328,312,222917,5,2
256,288,223346,1,0
184,296,223774,1,0
112,280,224203,1,2
144,216,224631,2,0,B|160:168|160:104,1,105,2|2
152,40,226346,1,2
312,240,227203,5,0
312,240,228060,6,0,B|208:256|96:240,1,210
96,112,231489,6,0,B|168:96|240:104,1,140
