osu file format v7

[General]
AudioFilename: dreamenddischarger.mp3
AudioLeadIn: 0
PreviewTime: 159056
Countdown: 1
SampleSet: Soft
StackLeniency: 0.7
Mode: 0
LetterboxInBreaks: 1

[Editor]
DistanceSpacing: 0.300000011920929
BeatDivisor: 4
GridSize: 8

[Metadata]
Title:dreamenddischarger
Artist:07th Expansion
Creator:[DBF]
Version:Easy
Source:Umineko no Naku Koro ni
Tags:visual novel when they cry

[Difficulty]
HPDrainRate:3
CircleSize:4
OverallDifficulty:4
SliderMultiplier:1.1
SliderTickRate:1

[Events]
//Background and Video events
0,0,"Konachan.com - 42591 beatrice butterfly umineko_no_naku_koro_ni.jpg"
//Break Periods
2,61541,71593
2,116398,127736
//Storyboard Layer 0 (Background)
//Storyboard Layer 1 (Fail)
//Storyboard Layer 2 (Pass)
//Storyboard Layer 3 (Foreground)
//Storyboard Sound Samples
//Background Colour Transformations
3,100,0,0,0

[TimingPoints]
6485,428.571428571429,4,2,0,100,1,0
18485,-200,4,2,0,100,0,0
25127,-200,4,1,0,50,0,0
33699,-200,4,1,0,50,0,1
33913,-200,4,1,0,50,0,0
40556,-200,4,1,0,50,0,1
40770,-200,4,1,0,50,0,0
131842,-200,4,2,0,50,0,1
145556,-200,4,1,0,50,0,0
159270,-200,4,1,0,70,0,0

[Colours]
Combo1 : 60,157,255
Combo2 : 255,182,121
Combo3 : 174,87,0

[HitObjects]
272,128,20199,6,0,B|240:168|184:200,1,110,2|0
120,232,21485,1,0
120,232,21913,6,0,B|168:264|192:320,2,110,2|0|2
120,184,23949,2,0,B|168:176,1,41.25
392,136,25342,5,0
368,208,25770,1,0
360,280,26199,1,0
288,256,26627,6,0,B|232:248,1,55,0|4
120,112,28342,6,0,B|184:104,1,55
352,160,30056,6,0,B|368:216,1,55
152,272,31770,6,0,B|160:208,1,55
136,144,32627,1,0
200,104,33056,2,0,B|256:120,1,55
296,184,33913,6,0,B|280:232|232:288,1,110,0|8
168,312,35199,1,0
168,312,35627,6,0,B|144:256|144:192,1,110,0|8
184,136,36913,1,0
184,136,37342,6,0,B|248:128|304:136,2,110,0|8|0
144,256,39913,2,0,B|200:272|256:264,1,110,8|0
296,200,41199,5,0
240,144,41627,2,0,B|184:152|128:144,1,110,8|0
184,88,42913,5,0
256,64,43342,2,0,B|320:72|360:120,1,110,8|0
328,184,44627,5,0
328,184,45056,2,0,B|304:232|240:264,1,110,8|4
256,192,46342,12,4,47627
184,128,48056,6,4,B|192:184|184:248,1,110
256,112,49770,6,4,B|320:104|376:112,1,110
256,240,51485,6,4,B|320:248|376:240,1,110
176,240,53199,6,4,B|168:184|168:128,1,110
320,120,54913,6,4,B|336:176|336:240,2,110
168,128,57485,5,4
248,216,58342,5,4
336,136,59199,5,4
392,240,60056,6,0,B|328:288|232:296,1,165,4|4
256,192,72913,12,0,75056
176,128,75913,6,0,B|154:175|152:248,1,110,8|0
216,288,77199,5,8
288,256,77627,1,8
344,200,78056,1,0
312,128,78485,2,0,B|264:120|192:128,2,110,0|8|0
200,256,81056,6,0,B|256:264|320:256,2,110,8|0|8
144,200,83199,5,0
112,128,83627,1,8
184,96,84056,1,0
256,128,84485,1,8
328,104,84913,2,8,B|360:152,1,55
256,304,86413,6,0,B|240:328,3,27.5,0|0|0|8
272,88,88127,6,0,B|240:80,3,27.5,0|0|0|8
192,136,89199,1,0
224,208,89627,1,8
176,272,90056,2,0,B|232:296|296:288,1,110,8|8
312,168,91770,6,8,B|264:136|208:120,1,110
128,208,93485,2,8,B|120:264|128:328,1,110
200,288,94770,5,0
280,304,95199,1,8
352,272,95627,2,2,B|360:224|344:160,1,110,2|0
272,136,96913,5,0
200,168,97342,2,2,B|144:176|80:176,2,110,2|0|2
328,208,99913,6,2,B|384:192|448:184,2,110,0|2|2
256,240,102056,1,0
176,232,102485,6,0,B|128:272,1,55,2|0
168,336,103342,2,0,B|232:336,1,55,2|0
304,336,104199,2,2,B|360:336,1,55,2|2
360,256,105056,2,2,B|304:256,1,55,2|0
224,256,105913,6,2,B|184:216|160:152,1,110,2|0
184,88,107199,1,2
184,88,107627,6,2,B|248:96,1,55
288,152,108485,6,2,B|280:208,1,55
216,248,109342,6,2,B|160:240|96:248,2,110,2|0|2
280,144,111913,2,2,B|336:136|400:144,1,110,0|2
256,192,112877,12,0,114485
256,80,114913,5,0
232,152,115342,1,0
264,224,115770,2,0,B|224:264,1,55
256,192,129056,6,0,B|256:304,1,110
256,192,130020,12,0,131627
160,120,132485,6,0,B|152:176|160:240,1,110
296,200,134199,2,0,B|296:256|288:312,2,110
256,192,136770,12,0,138485
376,240,139342,6,0,B|328:256|256:240,1,110
280,120,141056,2,0,B|224:112|160:128,2,110
256,192,143627,12,0,145342
256,112,145770,5,0
208,176,146199,1,0
264,232,146627,1,0
208,288,147056,1,0
136,256,147485,1,0
168,184,147913,1,0
120,120,148342,2,0,B|176:96,1,55
256,192,149199,12,0,151770
384,120,152199,6,0,B|344:168,1,55
312,232,153056,2,0,B|352:288,1,55
272,312,153913,2,0,B|208:320,1,55
144,288,154770,2,0,B|136:232|144:168,1,110
280,200,156485,2,0,B|288:136|280:80,1,110
256,192,157449,12,0,159056
184,144,159485,5,2
184,144,159913,2,2,B|128:176,1,55
224,264,160770,2,2,B|280:288,1,55,2|2
336,176,161627,2,2,B|328:112,2,55
320,296,162913,2,2,B|288:296|264:320,1,55
128,264,163770,1,2
128,264,163985,1,2
128,264,164199,2,2,B|104:208|104:152,1,110
208,96,165485,5,2
256,192,165913,2,2,B|256:248,1,55
376,192,166770,2,2,B|376:256,1,55
256,192,167627,2,2,B|256:248,2,55
288,88,168913,1,2
192,144,169342,1,2
168,248,169770,2,2,B|208:304,2,55
128,232,170842,1,2
96,208,171056,2,2,B|80:152|88:96,1,110
152,144,172342,5,2
192,80,172770,6,2,B|256:80,1,55
304,136,173627,2,2,B|304:200,1,55
248,248,174485,2,2,B|216:256|184:240,2,55
328,240,175770,1,2
376,176,176199,2,2,B|384:112,1,55
304,104,177056,1,2
304,104,177485,2,2,B|224:120|128:104,1,165,2|2
80,160,179199,5,2
144,208,179627,6,2,B|128:272,1,55
176,320,180485,2,2,B|240:312,1,55
272,248,181342,2,2,B|280:224|280:192,2,55
328,304,182627,6,2,B|384:320,1,55,2|10
380,319,183270,1,8
176,256,183913,2,0,B|136:264,1,27.5,8|8
288,160,184770,2,8,B|320:168,1,27.5
176,144,185413,2,8,B|120:160,2,55
176,144,186485,1,12
