osu file format v9

[General]
AudioFilename: 22_discolor.mp3
AudioLeadIn: 0
PreviewTime: 119836
Countdown: 0
SampleSet: Soft
StackLeniency: 0.7
Mode: 0
LetterboxInBreaks: 0

[Editor]
DistanceSpacing: 1
BeatDivisor: 4
GridSize: 16

[Metadata]
Title:discolor
Artist:07th Expansion
Creator:Azure_Kyte
Version:Red Truth
Source:Umineko no Naku Koro ni Chiru
Tags:zts

[Difficulty]
HPDrainRate:3
CircleSize:4
OverallDifficulty:3
ApproachRate:3
SliderMultiplier:1
SliderTickRate:1

[Events]
//Background and Video events
0,0,"maria2.jpg"
//Break Periods
2,75428,82788
//Storyboard Layer 0 (Background)
//Storyboard Layer 1 (Fail)
//Storyboard Layer 2 (Pass)
//Storyboard Layer 3 (Foreground)
//Storyboard Sound Samples
//Background Colour Transformations
3,100,255,0,0

[TimingPoints]
228,375,4,2,0,50,1,0
60117,-100,4,1,0,50,0,0
60304,-100,4,2,0,50,0,0
82711,-200,4,2,0,50,0,0
92836,-200,4,2,0,50,0,0
96117,-200,4,1,0,50,0,0
96228,-100,4,1,0,70,0,1
96398,-200,4,2,1,50,0,1
120117,-200,4,2,2,81,0,0
120228,-100,4,2,2,70,0,1
144117,-100,4,2,0,90,0,0
144228,-100,4,2,2,90,0,1
168040,-200,4,2,0,0,0,0

[Colours]
Combo1 : 255,0,0
Combo2 : 187,0,0
Combo3 : 255,91,91
Combo4 : 108,0,0

[HitObjects]
96,64,24228,6,0,B|256:64,1,150,2|2
400,192,25540,2,0,B|176:192,2,200,2|2|2
256,320,27790,6,0,B|48:320,2,200
48,192,30228,6,4,B|48:16,1,150
224,144,31540,1,2
416,144,32290,2,0,B|416:208|384:256|320:272,1,150,2|2
256,320,33228,2,0,B|83:320,1,150,4|0
64,96,34540,6,0,B|224:96,1,150,2|0
314,96,35478,2,0,B|384:112|400:176,2,100,0|2|4
176,176,36790,5,2
336,304,37540,1,2
176,176,38290,1,2
320,176,38853,1,0
320,176,39228,6,4,B|384:112|336:32,1,150
192,208,40540,2,0,B|128:272|176:368|256:368,2,200,4|4|2
256,192,42228,6,4,B|416:192,1,150
256,64,43540,2,0,B|96:64,1,150,4|0
106,164,44478,5,2
256,304,45228,2,4,B|386:313|448:176|374:46|233:65,2,400,0|4|4
176,256,48603,6,0,B|112:256,2,50,0|0|2
256,192,49353,2,0,B|368:192,1,100
400,192,49915,2,0,B|400:128,1,50,0|4
400,48,50478,6,0,B|288:48,1,100,4|0
256,48,51040,2,0,B|256:112,1,50,0|4
256,192,51603,1,4
256,288,51978,6,0,B|320:288,4,50,0|0|0|0|2
160,288,53103,2,0,B|96:288,4,50,0|0|2|0|0
160,192,54228,1,4
224,112,54603,6,0,B|272:64,2,50,0|0|2
320,160,55353,2,0,B|432:160,2,100
256,240,56478,1,4
256,336,56853,6,0,B|320:336,2,50,0|0|2
160,336,57603,2,0,B|48:336,1,100
60,286,58165,2,0,B|60:227,3,50,0|0|0|4
60,135,59103,2,0,B|60:72,4,50,0|0|4|0|0
160,135,60228,1,4
256,176,60603,6,0,B|256:240,2,50
352,176,61353,1,4
448,176,61728,6,0,B|448:240,2,50
448,80,62478,1,4
352,80,62853,6,0,B|352:16,2,50
256,80,63603,1,2
160,80,63978,6,0,B|160:16,2,50
160,176,64728,1,2
160,272,65103,2,0,B|160:336,4,50
256,272,66228,1,4
256,176,66603,6,0,B|320:176,4,50,0|0|0|0|2
256,272,67728,2,0,B|192:272,4,50,0|0|2|0|4
160,272,68853,1,0
160,176,69228,1,0
256,192,69603,12,2,72228
256,192,72603,12,4,75228
256,192,84228,5,0
256,288,84978,2,0,B|192:343|96:256|160:192,1,200,2|0
256,192,87228,5,0
256,96,87978,2,0,B|320:41|416:128|352:192,1,200,2|0
256,192,90228,5,0
256,288,90978,2,0,B|320:343|416:256|352:192,1,200,2|0
256,192,93228,6,0,B|256:136,3,50,2|0|0|0
160,192,94728,2,0,B|160:136,3,50,2|0|0|0
256,192,96228,5,4
256,240,96603,1,0
256,288,96978,1,2
160,288,97728,5,0
112,288,98103,1,0
64,288,98478,1,8
64,192,99228,6,0,B|64:136,2,50,0|0|2
164,192,100728,6,0,B|220:192,2,50,0|0|8
112,192,101853,1,0
64,192,102228,5,0
64,144,102603,1,0
64,96,102978,1,2
160,96,103728,5,0
208,96,104103,1,0
256,96,104478,1,8
256,144,104853,5,0
256,192,105228,1,0
304,192,105603,1,0
352,192,105978,1,2
352,96,106728,5,0
304,96,107103,1,0
256,96,107478,1,8
256,144,107853,6,0,B|199:144,3,50,0|0|0|2
256,240,109728,6,0,B|256:301,2,50,0|0|8
256,192,110853,5,0
208,192,111228,1,4
160,192,111603,1,4
112,192,111978,1,2
160,96,112728,5,4
208,96,113103,1,4
256,96,113478,1,8
256,144,113853,6,0,B|288:144,2,25,0|0|4
256,192,114603,1,4
256,240,114978,1,2
256,288,115353,6,0,B|256:320,2,25,0|0|4
208,288,116103,1,4
160,288,116478,1,8
256,192,117228,12,2,119478
256,192,120228,5,8
256,288,120603,1,4
160,288,120978,1,2
160,96,121728,5,4
256,96,122103,1,4
256,192,122478,1,8
64,192,123228,5,4
160,192,123603,1,4
256,192,123978,1,2
352,192,124353,1,0
256,192,124728,5,4
352,192,125103,1,4
448,192,125478,1,8
256,272,126228,6,0,B|144:272,2,100,4|4|2
256,112,127728,6,0,B|368:112,2,100,4|4|8
256,304,129228,5,4
256,208,129603,1,4
256,112,129978,1,2
176,160,130353,5,0
176,256,130728,1,4
176,352,131103,1,4
96,304,131478,1,8
96,208,131853,6,0,B|96:144,2,50,0|0|4
192,208,132603,1,4
192,112,132978,1,2
272,160,133353,6,0,B|336:160,2,50,0|0|4
272,256,134103,1,4
368,256,134478,1,8
368,160,134853,6,0,B|304:160,1,50
272,160,135228,2,0,B|272:48,2,100,4|4|2
176,160,136353,6,0,B|176:224,1,50
176,256,136728,2,0,B|224:288|272:256,2,100,4|4|8
256,64,138228,5,4
192,144,138603,1,4
256,224,138978,1,2
320,144,139353,6,0,B|384:144,2,50,0|0|4
256,224,140103,1,4
192,144,140478,1,8
256,192,141228,12,2,143478
256,192,144228,5,8
256,288,144603,2,0,B|137:288,1,100,4|2
160,192,145353,6,0,B|160:128,2,50,0|0|4
256,192,146103,1,4
256,96,146478,1,8
352,96,146853,6,0,B|416:96,2,50,0|0|4
352,192,147603,1,4
256,192,147978,2,0,B|208:224|143:187,1,100,2|0
160,288,148728,2,0,B|214:321|273:283,2,100,4|4|8
80,224,149853,6,0,B|16:224,1,50
32,176,150228,2,0,B|48:144|96:128|128:128,2,100,4|4|2
96,256,151353,6,0,B|160:256,1,50
192,256,151728,2,0,B|240:208|304:208,2,100,4|4|8
176,160,152853,6,0,B|144:112,2,50,0|0|4
96,224,153603,2,0,B|32:192,2,50,4|0|2
96,320,154353,6,0,B|48:336,2,50,0|0|4
176,272,155103,2,0,B|240:272,2,50,4|0|8
256,192,155853,5,0
256,192,156228,1,4
256,192,156603,1,4
256,192,156978,1,2
64,192,157728,5,4
64,192,158103,1,4
64,192,158478,1,8
256,336,159228,5,4
256,336,159603,1,4
256,336,159978,1,8
448,192,160728,5,4
448,192,161103,1,4
448,192,161478,1,8
256,48,162228,5,4
256,48,162603,1,4
256,48,162978,1,8
160,192,163728,5,4
256,192,164103,1,4
352,192,164478,1,8
256,192,165228,5,0
256,192,165978,1,0
256,192,166728,1,0
256,192,167478,1,0
256,192,168228,5,0
