osu file format v9

[General]
AudioFilename: 22_discolor.mp3
AudioLeadIn: 0
PreviewTime: 119836
Countdown: 0
SampleSet: Soft
StackLeniency: 0.7
Mode: 0
LetterboxInBreaks: 0
EpilepsyWarning: 1

[Editor]
DistanceSpacing: 1.6
BeatDivisor: 4
GridSize: 8

[Metadata]
Title:discolor
Artist:07th Expansion
Creator:Azure_Kyte
Version:Gold Truth
Source:Umineko no Naku Koro ni Chiru
Tags:zts

[Difficulty]
HPDrainRate:7
CircleSize:5
OverallDifficulty:8
ApproachRate:8
SliderMultiplier:1.4
SliderTickRate:1

[Events]
//Background and Video events
0,0,"maria3.jpg"
//Break Periods
//Storyboard Layer 0 (Background)
//Storyboard Layer 1 (Fail)
//Storyboard Layer 2 (Pass)
//Storyboard Layer 3 (Foreground)
//Storyboard Sound Samples
//Background Colour Transformations
3,100,255,255,0

[TimingPoints]
228,375,4,2,0,0,1,0
24023,-100,4,2,0,60,0,0
60117,-100,4,1,0,50,0,0
60304,-100,4,2,0,50,0,0
72228,-100,4,1,0,48,0,0
72321,-100,4,2,0,51,0,0
96228,-100,4,1,0,70,0,1
96398,-100,4,2,2,80,0,1
96884,-200,4,2,2,81,0,1
97821,-100,4,2,2,81,0,1
98384,-200,4,2,2,81,0,1
99321,-100,4,2,2,80,0,1
99884,-200,4,2,2,80,0,1
100821,-100,4,2,2,80,0,1
101384,-200,4,2,2,80,0,1
102321,-100,4,2,2,100,0,1
102884,-200,4,2,2,81,0,1
103634,-100,4,2,2,100,0,1
104196,-100,4,2,2,80,0,1
113384,-200,4,2,0,81,0,1
114228,-100,4,2,2,81,0,1
120117,-100,4,2,2,81,0,0
120228,-100,4,2,2,80,0,1
144117,-100,4,2,0,90,0,0
144211,-100,4,2,2,90,0,1
164853,-100,4,2,2,31,0,1
168134,-100,4,2,0,50,0,0

[Colours]
Combo1 : 251,216,96
Combo2 : 215,215,0
Combo3 : 255,255,17

[HitObjects]
256,192,24228,5,2
208,136,24415,1,0
256,80,24603,1,0
304,136,24790,2,0,B|344:144|384:176|368:248,1,140,2|0
344,312,25353,5,0
272,344,25540,1,2
200,352,25728,1,0
200,280,25915,1,0
256,240,26103,1,0
320,208,26290,2,2,B|376:168|336:104|288:112,1,140
224,128,26853,1,0
152,128,27040,6,2,B|152:184|208:216|256:192,1,140
304,152,27603,1,0
288,80,27790,6,2,B|240:80|200:152|248:192,1,140
296,224,28353,1,4
256,280,28540,1,0
192,312,28728,1,2
192,240,28915,1,0
160,176,29103,1,2
136,112,29290,6,2,B|128:72|160:16|224:28|240:40,1,140
208,104,29853,1,0
200,176,30040,1,0
264,192,30228,5,4
304,136,30415,1,0
328,200,30603,1,0
392,216,30790,2,0,B|448:256|424:336|360:336,1,140,4|0
352,272,31353,1,2
288,240,31540,6,0,B|248:208|192:208|152:240,1,140,4|0
200,296,32103,1,2
128,296,32290,1,2
156,235,32478,1,0
225,235,32665,1,0
272,184,32853,1,2
320,232,33040,1,0
336,160,33228,6,0,B|344:128|328:96|304:88,1,70,4|0
256,64,33603,1,0
192,32,33790,2,0,B|208:96|120:96|136:160,1,140,4|0
200,184,34353,1,0
192,256,34540,2,0,B|190:307|120:336|78:291,1,140,4|0
128,248,35103,1,2
72,216,35290,6,0,B|80:192|128:168|156:199,1,70,2|0
192,200,35665,1,0
256,168,35853,1,2
256,240,36040,1,2
192,272,36228,6,0,B|144:312|64:248|96:208,2,140,4|2|0
256,240,37165,1,0
200,200,37353,1,2
192,272,37540,2,0,B|176:320|256:352|296:304,1,140,4|0
328,248,38103,1,2
336,176,38290,2,0,B|368:128|312:72|256:96,1,140,6|0
200,104,38853,1,2
152,152,39040,1,2
184,216,39228,6,0,B|240:288|336:272,2,140,4|2|0
232,168,40165,1,0
280,112,40353,1,2
320,56,40540,2,0,B|288:32|240:16|184:32,1,140,4|2
128,72,41103,1,0
120,136,41290,6,0,B|152:176|224:168|248:112,1,140,4|2
248,56,41853,1,2
312,80,42040,1,2
256,128,42228,6,0,B|240:192|320:232|360:216,1,140,4|2
401,248,42790,2,0,B|384:296|320:304|275:268,1,140,4|0
224,224,43353,1,2
192,160,43540,2,0,B|176:136|208:64|280:88,1,140,4|0
344,96,44103,1,0
376,160,44290,1,2
424,208,44478,6,0,B|464:232|472:280|448:328|368:328|370:257|370:257|344:304|280:304,1,280,4|4
256,192,45415,12,2,46728
256,192,47103,12,4,48228
440,192,48603,5,0
392,144,48790,1,0
328,120,48978,2,0,B|288:192|200:192,1,140,2|2
176,128,49540,5,0
120,88,49728,2,2,B|88:128|120:176,1,70
160,200,50103,2,4,B|208:208|240:264|208:312,1,140
152,272,50665,1,0
80,280,50853,2,0,B|48:248|72:192,1,70,2|0
72,144,51228,2,0,B|112:160|144:136,1,70,2|0
112,80,51603,2,0,B|144:56|200:72|216:112|208:152,1,140,2|2
208,208,52165,5,0
144,240,52353,2,0,B|160:280|192:288|224:272,1,70,2|2
264,256,52728,2,0,B|288:328|376:328,1,140,2|2
372,257,53290,1,2
440,232,53478,2,0,B|432:200|384:184,1,70,2|0
320,200,53853,1,2
344,136,54040,1,0
273,149,54228,6,0,B|223:185|247:265|293:265|303:273,1,140,4|0
320,200,54790,1,2
366,149,54978,2,4,B|416:185|392:265|346:265|336:273,1,140,4|4
288,296,55540,1,0
248,240,55728,2,0,B|200:272|224:328,1,70,2|0
146,298,56103,2,4,B|145:232|184:192|226:173,1,140
264,136,56665,6,0,B|280:152|280:176|280:176|304:184|320:216,1,70,0|2
344,136,57040,1,0
392,192,57228,6,0,B|448:160|416:64|360:72,1,140,4|4
344,136,57790,1,0
304,80,57978,1,2
264,136,58165,1,0
304,192,58353,5,2
328,256,58540,1,2
304,320,58728,2,0,B|272:352|200:352|168:312,1,140,4|2
128,264,59290,1,2
80,208,59478,2,0,B|108:188|128:184|168:200,1,70,4|0
200,232,59853,1,2
185,300,60040,1,0
128,264,60228,1,4
104,128,60603,5,2
152,80,60790,1,0
168,144,60978,2,0,B|152:192|184:256|264:256,1,140,4|4
256,192,61540,5,0
312,152,61728,1,2
256,104,61915,1,0
200,152,62103,2,4,B|152:192|168:248|192:280,1,140
256,264,62665,5,0
320,280,62853,1,2
352,216,63040,1,0
312,152,63228,2,4,B|296:104|216:104|200:152,1,140
256,192,63790,5,0
296,256,63978,1,2
216,256,64165,1,0
256,320,64353,2,4,B|272:336|336:344|368:304|368:256,1,140
432,256,64915,5,0
400,192,65103,1,2
344,152,65290,1,0
288,192,65478,5,2
232,152,65665,1,0
184,104,65853,1,2
136,56,66040,1,2
88,104,66228,6,0,B|32:136|64:224|144:192,1,140,4|0
184,196,66790,1,2
254,196,66978,2,4,B|310:228|280:320|198:284,1,140
157,288,67540,1,0
104,240,67728,5,2
56,192,67915,1,0
104,144,68103,2,4,B|168:96|240:144,1,140
280,192,68665,1,0
240,248,68853,1,2
280,304,69040,1,0
240,360,69228,6,4,B|128:336|112:272|128:176|208:160,1,280
264,144,70165,1,0
328,168,70353,2,0,B|408:176|416:272|400:296,1,140,4|2
376,328,70915,1,0
320,368,71103,5,2
264,328,71290,1,0
312,280,71478,1,2
264,232,71665,1,2
312,184,71853,2,0,B|264:128|192:144|168:184,1,140,2|4
72,240,72603,5,0
128,288,72790,1,0
192,320,72978,2,0,B|213:328|248:336|288:312,1,70,2|0
288,256,73353,2,0,B|216:272|176:256|152:224,1,140,2|0
112,176,73915,5,0
104,104,74103,1,2
152,56,74290,1,0
216,40,74478,2,0,B|264:24|328:40|360:88,1,140,2|0
384,128,75040,1,0
416,192,75228,2,0,B|432:248|376:320|320:296,1,140,2|2
256,192,75978,6,0,B|200:112,1,70,2|0
256,192,76353,1,2
293,251,76540,1,2
256,192,76728,2,4,B|216:128|288:64|336:80,1,140
368,64,77290,1,0
424,128,77478,5,4
368,192,77665,1,0
416,256,77853,1,2
368,192,78040,1,2
320,256,78228,2,0,B|288:304|208:296|200:232,1,140,4|0
128,216,78790,5,0
200,168,78978,2,0,B|264:128|336:168,1,140,2|2
368,224,79540,1,0
416,168,79728,5,2
440,104,79915,1,0
416,40,80103,2,4,B|352:88|272:80,1,140
312,144,80665,1,0
264,200,80853,5,2
216,144,81040,1,0
226,80,81228,2,0,B|160:88|96:40,1,140,4|4
72,176,81978,5,2
152,232,82165,1,0
256,200,82353,1,2
368,232,82540,1,2
440,176,82728,2,0,B|376:120|296:152,1,140,4|0
256,80,83290,1,2
202,147,83478,6,0,B|136:120|72:176,1,140,4|0
24,224,84040,1,2
64,280,84228,6,0,B|120:336|192:336|216:328,1,140,4|0
256,312,84790,1,2
328,328,84978,2,0,B|472:296|472:200|456:144|392:120,1,280,4|0
344,112,85915,1,0
337,181,86103,1,0
331,251,86290,1,0
328,328,86478,6,0,B|184:296|184:200|200:144|264:120,1,280,4|0
304,104,87415,1,0
372,90,87603,1,0
439,72,87790,1,0
507,55,87978,6,0,B|510:161|414:209|334:193|286:145,1,280,4|0
262,216,88915,1,0
214,267,89103,1,0
166,318,89290,1,0
114,366,89478,6,0,B|43:287|86:189|158:150|225:155,1,280,4|0
269,156,90415,1,0
339,154,90603,1,0
408,152,90790,1,0
478,148,90978,6,0,B|481:42|385:-5|305:10|257:58,1,280,4|0
228,89,91915,1,0
203,154,92103,1,0
182,220,92290,1,0
164,287,92478,6,0,B|58:290|10:194|26:114|74:66,1,280,4|0
256,192,93415,12,4,96228
112,136,96415,5,0
152,72,96603,1,4
216,40,96790,1,0
296,40,96978,2,0,B|360:48|408:112|384:152,1,140,2|4
328,160,97915,5,0
280,208,98103,1,4
256,272,98290,1,0
200,232,98478,2,0,B|144:168|56:176,1,140,8|4
48,112,99415,5,0
96,64,99603,1,4
144,112,99790,1,0
192,64,99978,2,0,B|280:64|320:112,1,140,2|4
264,152,100915,5,0
320,192,101103,1,4
264,232,101290,1,0
320,272,101478,2,8,B|392:320|456:264,1,140,8|4
408,216,102415,5,0
448,160,102603,1,4
384,136,102790,1,0
344,80,102978,2,0,B|296:88|272:144|280:168,1,105,2|0
336,272,103728,5,4
280,320,103915,1,0
232,272,104103,1,4
160,272,104290,2,0,B|160:296|120:328|96:312,1,70,0|8
56,272,104665,1,0
105,222,104853,1,0
55,172,105040,1,0
104,122,105228,2,0,B|160:80|240:104,1,140,4|4
287,152,105790,5,0
237,201,105978,1,8
286,250,106165,2,0,B|344:304,1,70,0|4
386,248,106540,1,0
424,184,106728,1,4
384,120,106915,1,0
320,80,107103,2,0,B|280:80|272:128,1,70,4|0
202,122,107478,1,8
132,122,107665,2,0,B|124:79|84:79,1,70,0|0
35,128,108040,1,0
35,198,108228,6,0,B|48:232|88:256|144:256|160:240,1,140,4|4
224,224,108790,1,0
16,288,108978,6,0,B|72:328|136:328|192:320|240:280,1,210,8|0
232,152,109728,5,4
320,120,109915,1,0
232,88,110103,1,4
320,56,110290,1,0
232,24,110478,2,0,B|152:40|128:104|136:128,1,140,2|0
176,160,111040,1,0
120,192,111228,6,0,B|136:272|232:272,1,140,4|4
256,208,111790,1,0
392,192,111978,2,0,B|376:272|280:272,1,140,8|4
256,336,112540,1,0
256,208,112728,5,4
224,144,112915,1,0
288,112,113103,1,4
200,80,113290,1,0
312,48,113478,2,0,B|384:40|432:120,1,140,4|4
344,192,114415,5,0
344,256,114603,1,4
280,192,114790,1,0
280,256,114978,1,8
96,192,115728,5,4
168,120,115915,1,0
168,264,116103,1,4
240,192,116290,1,0
256,360,116478,1,8
274,26,117228,5,4
337,57,117415,1,0
387,107,117603,1,4
426,165,117790,1,0
346,250,117978,5,8
273,233,118165,1,0
223,183,118353,1,4
184,125,118540,1,0
81,225,118728,5,4
144,256,118915,1,0
194,306,119103,1,4
233,364,119290,1,0
336,264,119478,1,8
256,192,120228,5,10
256,120,120415,5,0
184,192,120603,1,4
256,264,120790,1,0
328,192,120978,2,0,B|368:192|392:152,1,70,2|0
328,64,121353,2,0,B|368:64|392:104,1,70,0|0
320,128,121728,1,4
256,88,121915,1,0
248,152,122103,1,4
184,112,122290,1,0
176,176,122478,2,0,B|104:160|40:216|56:280|88:320,1,210,8|0
144,336,123228,6,0,B|240:336,1,70,4|0
264,285,123603,2,0,B|208:224,1,70,4|0
168,176,123978,1,2
144,112,124165,1,0
168,48,124353,1,4
232,16,124540,1,0
304,24,124728,5,4
360,64,124915,1,0
384,128,125103,1,4
360,192,125290,1,0
296,232,125478,2,0,B|224:224|216:128|280:112,2,140,8|0|4
360,256,126415,5,0
400,320,126603,1,4
336,360,126790,1,0
296,296,126978,2,0,B|243:245|164:301|193:360,2,140,2|0|4
352,256,127915,1,0
376,192,128103,1,4
352,128,128290,1,0
296,80,128478,2,0,B|232:136|256:224,1,140,8|4
312,288,129040,5,0
376,192,129228,1,4
280,128,129415,1,0
216,216,129603,1,4
128,288,129790,1,0
64,192,129978,2,0,B|80:80|208:32,1,210,2|0
256,144,130728,5,4
320,40,130915,1,0
392,144,131103,1,4
320,248,131290,1,0
256,360,131478,2,0,B|136:240,1,140,8|4
248,168,132040,1,0
80,168,132228,5,2
432,168,132603,1,2
256,344,132978,1,4
200,264,133165,5,0
256,184,133353,1,0
176,192,133540,1,0
216,120,133728,2,0,B|144:96|72:144,2,140,2|2|8
208,192,134665,5,0
256,240,134853,1,4
304,192,135040,1,0
296,120,135228,6,0,B|368:96|440:144,2,140,2|2|8
256,64,136165,1,0
208,120,136353,1,2
256,176,136540,1,0
326,176,136728,6,0,B|350:248|302:320,2,140,2|2|8
176,64,137853,5,0
104,112,138040,1,0
88,192,138228,1,2
104,272,138415,1,0
176,320,138602,1,2
256,336,138790,1,0
336,320,138978,1,8
408,272,139165,1,0
424,192,139353,5,4
408,112,139540,1,0
336,64,139728,2,0,B|312:112|256:128,1,70,2|0
204,114,140103,2,0,B|208:168|272:184,1,70,2|0
256,256,140478,1,8
256,336,140665,5,0
176,320,140853,1,0
104,272,141040,1,0
88,192,141228,1,2
104,112,141415,1,0
176,64,141603,2,2,B|200:112|256:128,1,70,2|0
308,114,141978,2,0,B|304:168|240:184,1,70,8|0
192,192,142353,5,2
256,264,142540,1,0
320,192,142728,1,2
384,264,142915,1,0
448,192,143102,1,2
192,192,143478,2,0,B|120:232|32:160|88:48|216:48,1,280,8|10
232,120,144415,5,0
256,200,144603,1,2
232,280,144790,1,0
176,216,144978,2,0,B|224:152|360:144|384:160,1,210,4|0
424,224,145728,1,4
352,272,145915,1,0
352,184,146103,1,4
280,224,146290,1,0
280,144,146478,2,0,B|216:96|120:112|88:168,1,210,8|0
168,192,147228,5,2
96,232,147415,1,0
168,272,147603,1,4
96,232,147790,1,0
91,163,147978,2,0,B|120:112|216:96|280:144,1,210,2|0
200,192,148728,5,4
256,272,148915,1,0
312,192,149103,1,4
200,192,149290,1,0
256,112,149478,2,0,B|284:60|448:48|488:192,1,280,8|8
384,192,150415,5,0
448,280,150603,1,4
344,296,150790,1,0
256,312,150978,1,2
168,296,151165,1,0
64,280,151352,5,4
128,192,151540,1,0
64,120,151728,1,4
144,72,151915,1,0
256,48,152103,1,4
368,72,152290,1,0
448,120,152478,1,8
384,192,152665,5,0
256,136,152853,1,2
128,192,153040,1,2
256,248,153228,2,0,B|232:304|176:304,1,70,4|0
256,248,153603,2,0,B|280:304|336:304,1,70,4|0
256,136,153978,1,8
168,312,154353,5,2
256,248,154540,1,2
344,312,154728,1,4
400,232,154915,1,0
336,160,155103,1,4
112,232,155290,1,0
176,160,155478,1,8
256,32,155853,5,2
256,32,156040,1,2
256,32,156228,1,4
144,192,156603,2,0,B|160:280|256:296,1,140,4|8
256,32,157353,5,2
256,32,157540,1,2
256,32,157728,1,4
368,192,158103,2,0,B|352:280|256:296,1,140,4|8
256,192,158665,12,8,159978
256,192,160165,12,8,161478
128,192,162228,5,4
216,232,162415,1,0
208,136,162603,1,4
256,328,162978,1,2
384,192,163353,1,0
296,232,163540,1,0
304,136,163728,1,4
112,96,164103,1,4
400,96,164478,1,8
256,80,165228,6,0,B|96:80,1,140,4|0
117,168,165790,1,0
208,192,165978,2,0,B|376:192,1,140,2|0
424,232,166540,1,0
400,312,166728,2,0,B|260:312,1,140,4|0
192,272,167290,1,0
216,192,167478,2,0,B|48:192,1,140,8|0
40,120,168040,1,0
144,32,168228,5,4
