osu file format v9

[General]
AudioFilename: 22_discolor.mp3
AudioLeadIn: 0
PreviewTime: 119836
Countdown: 0
SampleSet: Soft
StackLeniency: 0.7
Mode: 0
LetterboxInBreaks: 0

[Editor]
DistanceSpacing: 1
BeatDivisor: 4
GridSize: 8

[Metadata]
Title:discolor
Artist:07th Expansion
Creator:Azure_Kyte
Version:Blue Truth
Source:Umineko no Naku Koro ni Chiru
Tags:zts

[Difficulty]
HPDrainRate:5
CircleSize:5
OverallDifficulty:5
ApproachRate:5
SliderMultiplier:1
SliderTickRate:1

[Events]
//Background and Video events
0,0,"maria.jpg"
//Break Periods
//Storyboard Layer 0 (Background)
//Storyboard Layer 1 (Fail)
//Storyboard Layer 2 (Pass)
//Storyboard Layer 3 (Foreground)
//Storyboard Sound Samples
//Background Colour Transformations
3,100,163,162,255

[TimingPoints]
228,375,4,2,0,0,1,0
24023,-100,4,2,0,70,0,0
60117,-100,4,1,0,50,0,0
60304,-100,4,2,0,50,0,0
71845,-100,4,2,0,0,0,0
72032,-200,4,2,0,50,0,0
96228,-100,4,1,0,70,0,1
96398,-200,4,2,2,50,0,1
120117,-200,4,2,0,81,0,0
120228,-100,4,2,2,71,0,1
144117,-100,4,2,0,90,0,0
144228,-100,4,2,2,90,0,1
168134,-200,4,2,0,0,0,0

[Colours]
Combo1 : 22,146,245
Combo2 : 100,100,255
Combo3 : 0,0,160
Combo4 : 43,43,255

[HitObjects]
256,192,24228,5,0
216,160,24415,1,0
176,192,24603,1,0
152,240,24790,2,2,B|160:288|208:304|272:280,1,100
264,256,25353,5,0
304,288,25540,1,0
344,256,25728,1,0
384,224,25915,1,0
424,256,26103,1,0
464,224,26290,2,2,B|520:184|480:120|432:128,1,100
432,168,26853,1,0
392,136,27040,6,2,B|408:96|368:56|328:72,1,100
304,104,27603,1,0
268,68,27790,6,2,B|243:56|195:96|219:136,1,100
224,184,28353,1,4
248,232,28540,1,0
208,256,28728,1,0
160,264,28915,1,0
112,256,29103,1,0
72,232,29290,6,2,B|48:192|80:144|128:144,1,100
144,176,29853,1,0
192,192,30040,1,0
240,176,30228,5,4
288,192,30415,1,0
336,208,30603,1,0
384,224,30790,2,0,B|432:256|416:312|368:320,1,100,4|0
352,280,31353,1,0
304,304,31540,6,0,B|280:336|224:336|208:312,1,100,4|0
192,272,32103,1,0
152,240,32290,1,2
192,216,32478,1,0
152,184,32665,1,0
192,160,32853,1,2
152,128,33040,1,0
192,104,33228,6,0,B|280:64|368:112|384:200,1,200,4|0
392,200,34165,1,0
360,240,34353,1,0
312,256,34540,2,0,B|280:264|272:320|312:344,1,100,2|0
352,312,35103,1,0
384,272,35290,6,0,B|400:240|376:200|336:200,1,100,2|0
296,224,35853,1,0
248,248,36040,1,2
200,272,36228,6,0,B|112:320|48:240|96:176,2,200,4|0|0
240,240,37915,1,0
264,192,38103,1,0
264,144,38290,2,0,B|272:112|240:80|200:80,1,100,2|0
160,104,38853,1,0
144,152,39040,1,2
176,192,39228,6,0,B|232:232|320:240|384:192,1,200,4|0
408,176,40165,1,0
448,208,40353,1,0
464,256,40540,2,2,B|448:280|408:296|368:288,1,100
328,272,41103,1,0
288,296,41290,6,2,B|256:328|192:320|168:296,1,100
152,288,41853,1,0
128,248,42040,1,2
152,208,42228,6,0,B|160:128|272:104|312:176,1,200,4|2
320,208,43165,5,0
368,184,43353,1,0
392,136,43540,2,0,B|400:104|376:64|336:64,1,100,2|0
296,88,44103,1,0
256,56,44290,1,2
216,88,44478,6,0,B|192:128|144:136|96:112|96:32|176:32,1,200,4|4
256,192,45603,12,4,48228
112,192,48603,5,0
144,224,48790,1,0
192,240,48978,2,0,B|248:256|312:224,1,100,2|0
352,160,49728,5,0
336,112,49915,1,0
296,80,50103,2,0,B|256:48|192:64,1,100,2|4
120,120,50853,5,0
152,160,51040,1,0
120,192,51228,2,0,B|152:240,1,50,2|0
120,272,51603,1,0
152,312,51790,1,0
184,352,51978,2,0,B|208:304,1,50,2|0
224,264,52353,6,0,B|249:212,1,50,2|0
272,168,52728,2,0,B|312:208|368:176,1,100,4|0
392,136,53290,1,0
368,88,53478,6,0,B|328:56|264:80,1,100,4|0
240,112,54040,1,0
200,144,54228,2,2,B|160:184|80:160,2,100
288,96,55353,6,2,B|344:64|392:96,1,100
424,120,55915,1,2
448,160,56103,1,4
424,200,56290,1,0
384,232,56478,1,4
296,192,56853,5,0
256,160,57040,1,0
216,192,57228,1,2
256,96,57603,1,0
256,192,57978,5,0
256,240,58165,1,0
256,288,58353,2,0,B|200:288,1,50,2|0
206,338,58728,2,2,B|158:346|126:306|142:258,1,100,6|2
136,232,59290,1,0
136,184,59478,2,0,B|87:172|55:212|72:256,2,100,6|2|4
256,192,60415,12,2,63228
256,192,63603,5,0
256,96,63978,1,2
208,112,64165,1,0
168,144,64353,1,2
256,192,64728,1,4
256,288,65103,5,0
304,272,65290,1,0
336,240,65478,1,2
352,192,65665,1,0
336,144,65853,2,0,B|312:88|232:96,1,100,2|4
256,192,66415,12,4,69228
256,192,69415,12,0,71853
152,96,72228,6,0,B|112:160|184:200|264:160|224:96,2,200,4|4|4
187,60,75603,1,2
232,40,75978,5,2
261,40,76165,1,0
287,54,76353,1,2
308,75,76540,1,0
329,96,76728,2,0,B|371:138,1,50,4|0
385,152,77290,5,2
385,182,77478,2,0,B|315:245,1,50,4|0
326,236,78040,1,2
304,257,78228,6,0,B|240:305|192:281|160:225|200:177,1,200,4|0
174,161,79915,1,2
181,131,80103,2,0,B|197:91|173:59,1,50,0|4
142,39,80853,5,0
117,63,81040,1,0
92,87,81228,2,2,B|92:151,1,50
92,171,81790,1,0
67,195,81978,1,0
91,219,82165,1,0
115,243,82353,1,2
90,267,82540,1,0
65,291,82728,1,4
65,291,83103,5,0
89,315,83290,1,0
113,339,83478,2,0,B|190:334|198:262,1,100,4|4
241,238,84603,5,0
216,213,84790,1,0
191,188,84978,2,0,B|191:140|207:132,1,50
150,89,85728,2,0,B|126:65|94:73,2,50
150,159,86853,1,0
184,159,87040,1,0
208,183,87228,1,0
256,128,87603,1,0
304,184,87978,5,0
328,159,88166,1,0
362,159,88353,1,0
411,109,88728,1,0
361,59,89103,5,0
336,83,89290,1,0
360,107,89478,1,0
384,131,89665,1,0
408,155,89853,5,2
432,179,90040,1,0
407,203,90228,1,4
256,192,90415,12,4,93228
256,192,93415,12,4,96228
160,192,96603,5,0
256,192,96978,1,4
456,192,97728,5,4
440,240,97915,1,0
400,272,98103,1,4
352,288,98290,1,0
304,272,98478,2,0,B|224:240|216:200,1,100,8|4
152,144,99603,5,4
128,104,99790,1,0
112,56,99978,2,0,B|72:48|32:96|40:128,1,100,2|4
40,160,100915,1,0
64,208,101103,1,4
112,224,101290,1,0
128,176,101478,2,0,B|184:160|224:200|216:248,1,100,8|4
304,184,102603,5,4
280,136,102790,1,0
240,104,102978,1,2
56,192,103728,5,4
88,256,103915,1,0
120,192,104103,1,4
152,256,104290,1,0
184,192,104478,2,0,B|296:192,1,100,8|4
384,192,105603,5,4
384,128,105790,1,0
384,64,105978,2,0,B|336:24|272:72,1,100,2|4
256,112,106915,1,0
288,168,107103,1,4
256,224,107290,1,0
288,280,107478,5,8
240,328,107665,1,0
176,344,107853,1,0
112,328,108040,1,0
64,280,108228,2,0,B|112:192|16:160|72:112|72:64,1,200,4|4
112,40,109915,1,0
176,40,110103,2,0,B|208:32|224:64,1,50,4|8
344,192,111228,5,4
376,232,111415,1,0
336,264,111603,1,4
304,224,111790,1,0
264,256,111978,6,0,B|224:304|168:256,1,100,2|4
136,232,112915,1,0
168,192,113103,1,4
128,160,113290,1,0
96,200,113478,1,8
256,80,114228,5,4
288,120,114415,1,0
256,160,114603,1,4
288,200,114790,1,0
248,232,114978,1,2
152,192,115353,5,0
112,160,115540,1,0
152,128,115728,1,4
192,160,115915,1,0
232,192,116103,1,4
272,160,116290,1,0
232,128,116478,1,8
192,160,116665,1,0
152,192,116853,1,0
192,224,117040,1,0
232,256,117228,6,0,B|240:288|288:288,1,50,4|4
304,256,117790,1,0
352,256,117978,2,0,B|360:288|408:288,1,50,8|0
432,256,118540,1,0
432,208,118728,5,4
432,112,119103,1,4
360,48,119478,2,0,B|304:40|272:64|272:96,1,100,4|8
232,192,120603,5,0
216,232,120790,1,0
176,240,120978,1,4
112,192,121353,2,0,B|96:152|128:128,1,50
136,96,121728,2,0,B|152:72|192:56|232:72,2,100,4|4|8
88,160,122853,5,0
128,176,123040,1,0
168,192,123228,2,0,B|264:232,1,100,4|4
168,192,123978,2,0,B|128:160|152:80|216:56|280:88,1,200,2|4
288,112,124915,5,0
328,96,125103,1,4
360,128,125290,1,0
384,160,125478,2,0,B|432:208|384:272|328:280|280:248,1,200,8|4
232,192,126603,5,4
192,168,126790,1,0
152,192,126978,1,2
304,288,127728,5,4
360,256,127915,1,0
304,224,128103,1,4
360,192,128290,1,0
416,224,128478,2,0,B|464:200|464:160|432:128,2,100,8|0|4
376,240,129415,5,0
328,248,129603,1,4
280,240,129790,1,0
240,208,129978,2,0,B|200:136|136:136|104:152,1,150,2|0
64,152,130728,5,4
24,120,130915,1,0
64,88,131103,2,0,B|112:40,1,50,4|0
136,88,131478,2,0,B|168:24|256:8|312:64,1,200,8|4
368,136,132603,5,4
392,184,132790,1,0
360,216,132978,2,0,B|320:264|256:232,1,100,2|0
296,152,133728,5,4
256,168,133915,1,0
216,184,134103,1,4
176,168,134290,1,0
136,152,134478,2,0,B|96:200|144:296|256:256,1,200,8|4
280,248,135415,5,0
320,232,135603,1,4
360,248,135790,1,0
400,272,135978,1,2
440,248,136165,1,0
480,232,136353,2,0,B|456:176|384:184,1,100,2|4
400,136,136915,1,0
400,88,137103,2,0,B|344:80|320:136,1,100,4|8
272,144,137665,5,0
232,128,137853,1,0
192,144,138040,1,0
160,176,138228,1,4
192,208,138415,1,0
232,224,138603,1,4
272,208,138790,1,0
312,224,138978,2,0,B|344:256|400:232|400:184,1,100,2|0
392,168,139540,5,0
360,136,139728,1,4
320,112,139915,1,0
280,96,140103,1,4
240,112,140290,1,0
200,136,140478,2,0,B|160:160|152:192|176:224,1,100,8|0
208,248,141040,1,0
248,272,141228,5,4
288,280,141415,1,0
336,272,141603,1,4
376,248,141790,1,0
392,208,141978,1,2
376,168,142165,1,0
336,144,142353,2,0,B|304:112|272:136,1,50,4|0
272,168,142728,5,4
248,128,142915,2,0,B|216:112|192:144,1,50,0|4
176,168,143290,1,0
152,128,143478,2,0,B|120:112|96:144,1,50,8|0
72,168,143853,1,0
128,240,144228,5,8
240,192,144603,1,4
352,240,144978,1,2
376,96,145353,5,0
328,72,145540,1,0
280,96,145728,2,0,B|232:128|176:88,1,100,4|4
144,72,146290,2,0,B|112:120,1,50,0|8
72,136,146665,2,0,B|96:192,1,50
136,208,147040,2,0,B|104:272,1,50,0|4
152,288,147415,6,0,B|200:312,1,50,0|4
224,264,147790,2,0,B|288:240,1,50,0|2
248,200,148165,2,0,B|264:136,2,50
232,248,148728,5,4
200,216,148915,1,0
168,184,149103,1,4
200,152,149290,1,0
168,120,149478,2,0,B|152:96|160:72|192:64,1,50,8|0
216,64,149853,2,0,B|200:40|208:16|240:8,2,50,0|0|4
248,96,150415,5,0
288,120,150603,1,4
336,136,150790,1,0
376,160,150978,2,0,B|424:208|408:248|376:264,1,100,2|0
360,280,151540,5,0
320,312,151728,2,0,B|280:256|232:256,1,100,4|4
208,296,152290,1,0
168,264,152478,1,8
128,232,152665,1,0
88,264,152853,1,4
48,232,153040,1,0
88,200,153228,6,0,B|112:136|184:136,1,100,4|4
160,192,153790,1,0
152,240,153978,2,0,B|208:240|232:176,1,100,2|0
232,136,154540,1,0
232,88,154728,6,0,B|272:88|296:72,1,50,4|0
328,80,155103,2,0,B|352:88|384:88,1,50,4|0
424,88,155478,2,0,B|472:160|424:232|352:240,1,200,8|4
272,192,156603,5,4
240,232,156790,1,0
208,192,156978,2,0,B|136:192|108:223|88:280,1,150,2|0
136,304,157728,5,4
184,320,157915,1,0
232,328,158103,1,4
280,320,158290,1,0
328,304,158478,2,0,B|416:256|416:184|368:136,1,200,8|4
336,104,159415,6,0,B|288:144,1,50,0|4
264,104,159790,1,0
296,64,159978,2,0,B|248:16|208:16|192:40,1,100,2|0
160,48,160540,6,0,B|192:96,1,50,0|4
144,112,160915,2,0,B|144:176,1,50,0|4
96,160,161290,1,0
56,184,161478,2,0,B|56:240|120:272|176:264,1,150,8|0
192,224,162228,5,4
240,224,162415,1,0
272,264,162603,1,4
304,224,162790,1,0
352,224,162978,1,2
304,136,163353,5,0
272,96,163540,1,0
256,48,163728,1,4
240,96,163915,1,0
208,136,164103,1,4
256,224,164478,1,8
392,160,165228,6,0,B|272:40,1,150
226,53,165978,6,0,B|120:160,1,150
120,223,166728,6,0,B|226:330,1,150
256,272,167478,6,0,B|255:119,1,150
256,56,168228,5,0
