osu file format v9

[General]
AudioFilename: Umineko_Chiru_BGM_discolor.mp3
AudioLeadIn: 1500
PreviewTime: 48340
Countdown: 0
SampleSet: Normal
StackLeniency: 0.3
Mode: 0
LetterboxInBreaks: 0

[Editor]
DistanceSpacing: 0.9
BeatDivisor: 4
GridSize: 8

[Metadata]
Title:discolor
Artist:07th Expansion
Creator:Alduric
Version:Short
Source:Umineko no Naku Koro ni Chiru
Tags:

[Difficulty]
HPDrainRate:7
CircleSize:4
OverallDifficulty:7
ApproachRate:8
SliderMultiplier:1.6
SliderTickRate:1

[Events]
//Background and Video events
0,0,"29uudrd.jpg"
//Break Periods
//Storyboard Layer 0 (Background)
//Storyboard Layer 1 (Fail)
//Storyboard Layer 2 (Pass)
//Storyboard Layer 3 (Foreground)
//Storyboard Sound Samples
//Background Colour Transformations
3,100,163,162,255

[TimingPoints]
340,375,4,1,1,10,1,0
433,-100,4,2,1,15,0,0
6340,-100,4,1,1,10,0,0
6433,-100,4,2,1,15,0,0
12340,-100,4,1,1,10,0,0
12433,-100,4,2,1,15,0,0
18340,-100,4,1,1,10,0,0
18433,-100,4,2,1,15,0,0
22840,-100,4,2,1,5,0,0
24340,-100,4,1,1,20,0,0
24433,-100,4,2,1,25,0,0
30340,-100,4,1,1,20,0,0
30433,-100,4,2,1,25,0,0
36340,-100,4,1,1,20,0,0
36433,-100,4,2,1,25,0,0
42340,-100,4,1,1,20,0,0
42433,-100,4,2,1,25,0,0
48340,-100,4,1,1,45,0,1
48433,-100,4,1,1,40,0,0
96340,-100,4,1,1,55,0,1
120246,-100,4,1,1,55,0,0
120340,-100,4,1,1,65,0,1
144246,-100,4,1,1,65,0,0
144340,-100,4,1,1,75,0,1
165340,-100,4,2,1,40,0,0
168340,-100,4,1,1,70,0,0

[Colours]
Combo1 : 68,189,28
Combo2 : 245,136,3
Combo3 : 36,73,251
Combo4 : 239,40,24
SliderBorder : 255,255,255

[HitObjects]
136,112,340,2,0,B|104:88|64:72,2,80,4|0|0
200,152,902,2,0,B|248:152|248:152|280:104|344:104,1,160
416,104,1465,2,0,B|416:184,1,80
312,280,2027,6,0,B|232:280,2,80
376,248,2590,1,0
416,184,2777,2,0,B|416:104,2,80
376,248,3340,6,0,B|312:240|264:264|264:264|224:240,1,160
152,256,3902,1,0
96,208,4090,2,0,B|64:176|64:136,1,80
112,80,4465,2,0,B|160:80|192:64,1,80
312,244,5215,5,0
344,180,5402,1,0
388,124,5590,2,0,B|412:92|452:76,2,80
344,180,6152,1,0
272,180,6340,6,0,B|208:180|208:180|176:228|216:268,1,160,4|0
280,300,6902,1,0
348,280,7090,1,0
420,296,7277,2,0,B|444:264|452:224,1,80
408,164,7652,1,0
228,44,8215,5,0
172,88,8402,2,0,B|108:136,2,80
228,132,8965,2,0,B|260:160|300:164,1,80
364,196,9340,5,0
428,232,9527,2,0,B|428:316,1,80
360,340,9902,1,0
244,256,10277,2,0,B|232:296|192:312,2,80
208,192,10840,6,0,B|176:168|132:164,1,80
64,180,11215,1,0
64,180,11402,1,0
160,72,11777,2,0,B|200:68|236:96,1,80
284,148,12152,1,0
356,144,12340,6,0,B|388:224|360:300,1,160,4|0
292,324,12902,1,0
220,328,13090,2,0,B|140:328,2,80
292,324,13652,1,0
284,252,13840,6,0,B|264:212|224:204,2,80
348,280,14402,1,0
384,220,14590,2,0,B|396:180|440:164,1,80
456,236,14965,1,0
392,108,15340,6,0,B|308:84,1,80
248,56,15715,1,0
192,104,15902,1,0
136,64,16090,2,0,B|72:112,1,80
80,184,16465,1,0
48,248,16652,1,0
96,304,16840,6,0,B|136:288|176:304,1,80
232,256,17215,2,0,B|232:176,1,80
272,112,17590,2,0,B|296:80|336:64,1,80
408,80,17965,1,0
408,80,18152,1,0
448,144,18340,6,0,B|432:208|432:208|384:208|344:240,1,160,4|0
288,288,18902,1,0
224,320,19090,2,0,B|144:304,1,80
104,240,19465,2,0,B|112:200|80:168,1,80
48,104,19840,5,0
48,104,20027,1,0
112,72,20215,2,0,B|152:56|192:56,1,80
256,88,20590,2,0,B|328:48,2,80
192,128,21152,1,0
128,168,21340,6,0,B|96:200|96:240,1,80,0|0
152,288,21715,2,0,B|192:312|232:304,1,80
296,272,22090,1,0
360,304,22277,1,0
424,272,22465,2,0,B|424:232|456:200,1,80
256,192,22840,12,0,23965
392,264,24340,6,0,B|312:296,1,80,6|0
256,256,24715,1,0
208,312,24902,1,2
152,264,25090,2,0,B|120:232|80:232,2,80,2|0|0
208,312,25652,1,0
256,256,25840,5,2
208,200,26027,1,0
152,152,26215,2,0,B|104:136|88:104,1,80,0|2
120,40,26590,2,0,B|200:40,1,80,2|0
272,40,26965,1,0
344,48,27152,1,0
408,80,27340,6,0,B|440:112|440:152,1,80,2|0
440,224,27715,1,0
408,288,27902,1,2
344,256,28090,2,0,B|304:248|264:248,1,80,2|0
192,256,28465,1,0
120,248,28652,6,0,B|112:208|72:184,1,80,0|2
48,120,29027,1,0
104,72,29215,1,0
176,80,29402,1,2
240,112,29590,2,0,B|280:88|312:80,2,80,2|0|0
192,168,30152,1,0
160,232,30340,6,0,B|200:288|200:288|240:272|288:296,1,160,6|0
352,328,30902,1,2
416,296,31090,1,2
448,232,31277,2,0,B|448:152,1,80
416,88,31652,1,0
352,56,31840,6,0,B|312:40|272:48,1,80,2|0
208,80,32215,1,0
136,64,32402,1,2
208,80,32590,2,0,B|232:112|240:152,1,80,2|0
232,224,32965,2,0,B|152:224,1,80
80,240,33340,6,0,B|64:280|80:320,1,80,2|0
152,328,33715,1,0
216,296,33902,1,2
280,328,34090,1,2
336,280,34277,1,0
384,224,34465,2,0,B|400:184|440:168,1,80
408,104,34840,5,2
464,56,35027,1,0
408,104,35215,2,0,B|368:112|328:104,1,80,0|2
256,96,35590,1,2
192,64,35777,1,0
256,96,35965,2,0,B|256:176,1,80
328,184,36340,6,0,B|336:232|384:264|384:264|448:264,1,160,6|0
448,336,36902,2,0,B|368:336,1,80,2|2
296,328,37277,1,0
224,320,37465,2,0,B|200:288|160:272,1,80
96,240,37840,5,2
96,240,38027,1,0
80,168,38215,2,0,B|80:128|88:88,1,80,0|2
152,56,38590,1,2
200,112,38777,2,0,B|224:144|240:184,2,80
232,48,39340,6,0,B|312:48,1,80,2|0
384,64,39715,2,0,B|408:104|448:104,1,80,0|2
456,176,40090,1,2
400,224,40277,1,0
400,224,40465,2,0,B|360:232|328:256,1,80
272,304,40840,5,2
272,304,41027,1,0
200,304,41215,1,0
200,304,41402,1,2
144,256,41590,2,0,B|120:224|80:208,1,80,2|0
48,144,41965,1,0
80,80,42152,1,0
152,56,42340,6,0,B|240:40|312:64,1,160,6|0
376,96,42902,1,2
424,152,43090,2,0,B|440:192|448:232,2,80,2|0|0
376,96,43652,1,0
304,112,43840,5,0
176,136,44215,2,0,B|136:112|120:80,2,80,0|2|2
243,166,44777,1,0
248,240,44965,2,0,B|272:280|312:288,1,80
368,240,45340,6,0,B|384:200|416:176,1,80,2|0
424,104,45715,2,0,B|384:96|352:72,1,80,0|2
280,88,46090,1,2
216,56,46277,1,0
144,72,46465,2,0,B|88:128,1,80
80,200,46840,5,2
128,256,47027,1,0
192,224,47215,1,0
248,272,47402,1,2
320,288,47590,2,0,B|360:304|400:288,1,80,2|0
400,216,47965,2,0,B|360:200|320:216,1,80
264,176,48340,6,0,B|296:120|296:120|240:112|208:80,1,160,6|0
144,56,48902,1,2
80,88,49090,2,0,B|64:176|88:248,1,160,2|0
128,304,49652,1,0
200,312,49840,6,0,B|280:328,2,80,2|2|0
184,240,50402,1,0
200,168,50590,2,0,B|200:88,1,80,2|0
272,88,50965,2,0,B|272:168,1,80,0|0
280,240,51340,6,0,B|336:224|392:240|392:240|424:200,1,160,2|0
448,136,51902,1,0
392,88,52090,2,0,B|352:72|312:72,1,80,2|2
240,64,52465,1,0
176,96,52652,1,0
120,48,52840,6,0,B|88:80|104:120,1,80,2|0
128,192,53215,1,0
96,256,53402,1,0
160,296,53590,2,0,B|128:336|88:328,2,80,2|2|0
224,264,54152,1,0
296,256,54340,6,0,B|328:184|408:144,1,160,6|0
464,192,54902,1,2
406,145,55090,2,0,B|354:121|354:121|304:137|248:113,1,160,2|0
192,80,55652,1,0
120,96,55840,6,0,B|96:136|88:168,1,80,2|2
80,240,56215,1,0
152,224,56402,2,0,B|192:208|232:200,2,80,0|2|0
80,240,56965,2,0,B|120:312,1,80,0|0
192,320,57340,6,0,B|272:304|352:320,1,160,2|0
424,328,57902,1,0
424,328,58090,2,0,B|424:280|440:248,1,80,2|2
464,184,58465,1,0
432,120,58652,1,0
368,88,58840,6,0,B|280:88,1,80,2|0
288,160,59215,2,0,B|376:160,2,80,0|0|2
216,144,59777,1,2
152,176,59965,1,0
104,120,60152,1,0
56,176,60340,6,0,B|56:256|56:256|96:256|136:280,1,160,6|0
192,320,60902,1,2
264,304,61090,2,0,B|312:320|352:304|352:304|424:320,1,160,2|0
472,264,61652,1,0
432,200,61840,5,2
432,200,62027,2,0,B|416:160|432:120,1,80,2|0
400,56,62402,1,0
328,72,62590,1,2
256,88,62777,2,0,B|176:64,2,80,0|0|0
304,144,63340,6,0,B|336:216|424:240,1,160,2|0
408,312,63902,2,0,B|368:312|328:328,1,80,0|2
256,336,64277,1,2
184,320,64465,1,0
128,272,64652,1,0
88,208,64840,6,0,B|72:168|72:128,2,80,2|0|0
128,272,65402,2,0,B|192:224,1,80,0|2
248,176,65777,1,2
248,176,65965,2,0,B|312:128,1,80,0|0
372,88,66340,6,0,B|404:52|456:60,2,80,6|2|2
432,132,66902,1,0
428,204,67090,2,0,B|352:240,1,80,2|0
288,264,67465,1,2
224,232,67652,1,0
160,192,67840,6,0,B|120:176|80:184,1,80,2|2
48,248,68215,1,0
48,248,68402,2,0,B|48:328|48:328,2,80,0|2|0
82,184,68965,2,0,B|82:144|114:112|114:112,1,80,0|0
168,64,69340,6,0,B|248:88|328:64,1,160,2|0
392,96,69902,1,0
440,152,70090,2,0,B|440:232,1,80,2|2
392,288,70465,2,0,B|352:272|312:288,1,80,0|0
240,304,70840,6,0,B|160:328,2,80,2|0|0
315,288,71402,1,0
264,232,71590,2,0,B|224:208|224:168,1,80,2|2
296,168,71965,1,0
296,168,72152,1,0
352,120,72340,6,0,B|424:160|424:160|408:200|440:232,1,160,6|0
472,296,72902,1,2
400,296,73090,2,0,B|328:280|240:312,1,160,2|0
176,336,73652,1,0
112,304,73840,6,0,B|88:264|104:224,1,80,2|2
168,256,74215,2,0,B|184:216|160:176,1,80,0|0
112,128,74590,1,2
144,64,74777,1,0
144,64,74965,2,0,B|228:64,1,80,0|0
292,36,75340,6,0,B|308:92|260:132|260:132|260:188,1,160,2|0
260,256,75902,1,0
332,256,76090,2,0,B|412:256,2,80,2|2|0
260,256,76652,1,0
188,256,76840,6,0,B|152:224|112:228,1,80,2|0
56,184,77215,1,0
92,120,77402,1,0
160,96,77590,1,2
232,104,77777,2,0,B|272:96|304:64,2,80,2|0|0
160,96,78340,6,0,B|112:168|112:248,1,160,6|0
112,320,78902,1,2
112,247,79090,2,0,B|192:247|192:247|224:208|264:215,1,160,2|0
256,288,79652,1,0
320,320,79840,6,0,B|360:328|392:296,1,80,2|2
408,224,80215,2,0,B|400:176|432:152,1,80,0|0
384,96,80590,2,0,B|296:96,1,80,2|0
232,96,80965,1,0
232,96,81152,1,0
160,96,81340,6,0,B|104:96|104:96|112:152|72:192,1,160,2|0
56,264,81902,2,0,B|128:296,1,80,0|2
200,312,82277,1,2
272,296,82465,2,0,B|272:256|312:232,1,80,0|0
344,296,82840,5,2
392,240,83027,2,0,B|416:208|456:192,2,80,0|0|0
344,296,83590,1,2
272,296,83777,1,2
208,264,83965,1,0
136,272,84152,1,0
80,320,84340,6,0,B|48:272|76:232|76:232|48:168,1,160,6|0
80,104,84902,1,2
152,128,85090,2,0,B|232:128|312:96,1,160,2|0
368,56,85652,1,0
416,112,85840,6,0,B|376:184,1,80,2|2
432,232,86215,1,0
377,182,86402,1,0
312,216,86590,2,0,B|264:216|232:232,1,80,2|0
168,264,86965,2,0,B|152:224|176:184,1,80,0|0
240,160,87340,6,0,B|304:160|336:128|336:128|392:128,1,160,2|0
456,88,87902,1,0
392,56,88090,2,0,B|280:56,1,80,2|2
240,72,88465,1,0
176,104,88652,1,0
136,168,88840,6,0,B|136:248,1,80,2|0
64,248,89215,2,0,B|64:168,1,80,0|0
72,96,89590,2,0,B|112:72|152:72,1,80,2|2
216,88,89965,1,0
280,64,90152,1,0
336,112,90340,6,0,B|408:80,2,80,6|0|0
288,168,90902,1,0
352,200,91090,2,0,B|392:224|392:264,1,80,2|2
320,264,91465,1,0
272,320,91652,1,0
200,320,91840,6,0,B|120:320,1,80,2|0
64,272,92215,2,0,B|64:224|96:200,1,80,0|0
168,200,92590,1,2
94,201,92777,2,0,B|87:151|103:103,2,80,2|0|0
168,200,93340,6,0,B|200:280|288:296,1,160,2|0
360,296,93902,1,0
360,296,94090,2,0,B|440:296,2,80,2|2|0
312,240,94652,1,0
360,184,94840,6,0,B|376:144|416:128,1,80,2|0
384,64,95215,2,0,B|304:56,1,80,0|0
232,48,95590,1,2
160,64,95777,1,2
104,112,95965,2,0,B|80:152|80:192,1,80,0|0
104,256,96340,6,0,B|152:256|176:288,1,80,6|2
240,320,96715,1,0
304,288,96902,1,2
368,256,97090,2,0,B|408:248|448:256,2,80,8|2|2
304,288,97652,1,0
280,216,97840,6,0,B|304:176|344:168,1,80,2|0
328,96,98215,2,0,B|288:72|248:72,1,80,2|0
184,104,98590,2,0,B|168:184|96:232,1,160,8|2
72,304,99152,1,0
144,304,99340,6,0,B|184:288|224:296,1,80,2|2
296,304,99715,1,0
368,320,99902,1,2
424,272,100090,1,8
456,208,100277,2,0,B|448:168|464:128,2,80,2|2|0
424,272,100840,6,0,B|352:232,1,80,2|0
288,200,101215,2,0,B|224:248,1,80,2|0
152,264,101590,2,0,B|96:208|96:208|48:192|48:144,1,160,8|2
120,136,102152,1,0
160,72,102340,6,0,B|120:48|80:72,2,80,6|2|0
216,120,102902,1,2
216,120,103090,1,8
288,112,103277,2,0,B|320:88|360:80,1,80,2|2
432,80,103652,1,0
432,152,103840,6,0,B|432:232,1,80,2|0
368,272,104215,2,0,B|320:272|304:320,1,80,2|0
232,320,104590,2,0,B|144:296|72:320,1,160,8|2
40,256,105152,1,0
40,184,105340,6,0,B|40:104,2,80,2|2|0
40,256,105902,2,0,B|48:296|96:312,1,80,2|8
168,320,106277,1,2
232,280,106465,1,2
296,320,106652,1,0
352,272,106840,6,0,B|376:232|416:232,1,80,2|0
464,176,107215,1,2
464,176,107402,1,0
416,120,107590,2,0,B|360:128|320:96|320:96|256:96,1,160,8|2
192,104,108152,1,0
120,120,108340,6,0,B|120:216,1,80,6|2
72,256,108715,1,0
120,312,108902,1,2
120,312,109090,2,0,B|152:280|192:280,1,80,8|2
264,280,109465,2,0,B|304:280|336:320,1,80,2|0
392,272,109840,6,0,B|440:208,1,80,2|0
400,144,110215,2,0,B|360:128|344:88,1,80,2|0
288,40,110590,2,0,B|256:72|280:128|280:128|248:192,1,160,8|2
216,248,111152,1,0
152,216,111340,6,0,B|120:192|80:184,1,80,2|2
56,112,111715,1,0
56,112,111902,1,2
120,72,112090,1,8
120,72,112277,1,2
192,56,112465,2,0,B|280:56,1,80,2|0
272,128,112840,6,0,B|184:128,1,80,2|0
144,184,113215,1,2
176,248,113402,1,0
240,280,113590,2,0,B|328:280|376:208,1,160,8|2
408,144,114152,1,0
464,192,114340,6,0,B|480:232|464:272,1,80,6|2
408,320,114715,1,0
336,328,114902,2,0,B|256:328,2,80,2|8|2
408,320,115465,1,2
465,270,115652,1,0
440,200,115840,6,0,B|392:184|376:152,1,80,2|0
312,120,116215,1,2
240,112,116402,1,0
168,112,116590,2,0,B|112:112|112:112|88:160|136:208,1,160,8|2
176,264,117152,1,0
248,280,117340,6,0,B|288:264|328:264,1,80,2|2
392,288,117715,1,0
326,264,117902,2,0,B|326:224|358:192,1,80,2|8
400,136,118277,1,2
344,88,118465,2,0,B|256:88,1,80,2|0
192,88,118840,6,0,B|144:88|112:64,2,80,2|0|2
224,152,119402,1,0
280,200,119590,2,0,B|352:212|352:212|360:256|416:272,1,160,8|2
424,200,120152,1,0
408,128,120340,6,0,B|336:80|256:72,1,160,6|2
184,72,120902,1,0
128,120,121090,2,0,B|128:168|104:200,1,80,8|2
64,256,121465,1,2
64,256,121652,1,0
120,304,121840,6,0,B|200:320,1,80,2|0
272,312,122215,1,2
344,328,122402,1,0
392,272,122590,1,8
432,208,122777,2,0,B|480:128,2,80,2|2|0
392,272,123340,6,0,B|320:288|288:240|288:240|240:248,1,160,2|2
176,272,123902,2,0,B|128:288|104:312,2,80,0|8|2
245,248,124465,1,2
264,176,124652,1,0
288,104,124840,6,0,B|336:96|368:112,1,80,2|0
416,168,125215,2,0,B|416:208|448:240,1,80,2|0
400,296,125590,1,8
328,304,125777,1,2
256,288,125965,1,2
184,288,126152,1,0
128,336,126340,6,0,B|96:296|120:248|120:248|80:192,1,160,6|2
48,128,126902,1,0
112,88,127090,2,0,B|152:72|192:72,1,80,8|2
264,72,127465,1,2
264,72,127652,1,0
336,88,127840,6,0,B|408:136,2,80,2|0|2
264,72,128402,1,0
208,120,128590,2,0,B|192:160|152:176,1,80,8|2
80,176,128965,1,2
48,240,129152,1,0
88,304,129340,6,0,B|168:280|248:296,1,160,2|2
320,304,129902,2,0,B|400:304,1,80,0|8
448,248,130277,2,0,B|464:160,2,80,2|2|0
400,304,130840,5,2
344,256,131027,1,0
280,224,131215,1,2
216,192,131402,2,0,B|184:168|136:168,2,80,0|8|2
280,224,131965,2,0,B|352:184,1,80,2|0
384,120,132340,6,0,B|352:72|352:72|296:88|248:80,1,160,6|2
184,104,132902,1,0
112,120,133090,2,0,B|72:104|48:72,2,80,8|2|2
184,104,133652,1,0
256,120,133840,6,0,B|304:128|312:176,1,80,2|0
384,192,134215,2,0,B|384:272,1,80,2|0
456,272,134590,2,0,B|456:192,1,80,8|2
456,120,134965,1,2
456,192,135152,1,0
384,192,135340,6,0,B|320:192|288:240|288:240|240:240,1,160,2|2
168,240,135902,1,0
168,240,136090,2,0,B|96:272,1,80,8|2
48,216,136465,2,0,B|48:176|88:152,1,80,2|0
152,112,136840,6,0,B|184:80|224:88,2,80,2|0|2
208,160,137402,1,0
264,200,137590,1,8
296,264,137777,1,2
352,312,137965,2,0,B|392:336|432:328,1,80,2|0
440,256,138340,6,0,B|448:184|448:184|400:176|384:104,1,160,6|2
464,112,138902,1,0
390,125,139090,2,0,B|345:137|305:121,1,80,8|2
248,88,139465,2,0,B|200:88|176:120,1,80,2|0
128,176,139840,6,0,B|56:136,2,80,2|0|2
168,240,140402,1,0
240,232,140590,2,0,B|280:240|312:272,1,80,8|2
368,312,140965,1,2
368,312,141152,1,0
432,272,141340,6,0,B|464:192|440:112,1,160,2|2
392,56,141902,1,0
320,72,142090,2,0,B|296:104|264:128,1,80,8|2
200,160,142465,1,2
128,168,142652,1,0
80,224,142840,6,0,B|56:304,1,80,2|0
128,320,143215,2,0,B|152:240,1,80,2|0
224,232,143590,1,8
288,264,143777,1,2
352,232,143965,1,2
424,248,144152,1,0
472,192,144340,6,0,B|448:160|440:120,1,80,6|2
384,72,144715,2,0,B|304:72,1,80,0|2
232,72,145090,1,8
232,72,145277,1,2
160,72,145465,2,0,B|120:96|112:136,1,80,2|0
88,200,145840,6,0,B|64:280,2,80,2|0|2
160,192,146402,1,0
232,192,146590,2,0,B|304:192|384:240,1,160,8|2
448,272,147152,1,0
464,200,147340,6,0,B|472:120|472:120|432:120|384:88,1,160,2|2
328,72,147902,1,0
256,80,148090,1,8
256,80,148277,2,0,B|224:112|232:160,1,80,2|2
264,216,148652,1,0
336,232,148840,6,0,B|384:232|400:272,1,80,2|0
336,304,149215,2,0,B|256:304,1,80,2|0
184,296,149590,2,0,B|160:272|112:264,1,80,8|2
64,208,149965,1,2
56,136,150152,1,0
104,80,150340,6,0,B|152:72|184:72,1,80,6|2
256,72,150715,1,0
184,72,150902,2,0,B|185:120|225:136,1,80,2|8
296,152,151277,2,0,B|336:160|360:200,2,80,2|2|0
224,136,151840,5,2
176,192,152027,1,0
136,256,152215,2,0,B|56:256,1,80,2|0
56,328,152590,2,0,B|136:328|136:328|176:328|200:288,1,160,8|2
248,232,153152,1,0
288,172,153340,6,0,B|328:200|316:252|316:252|384:284,1,160,2|2
440,320,153902,1,0
379,282,154090,2,0,B|395:234|419:194,2,80,8|2|2
316,312,154652,1,0
244,324,154840,6,0,B|204:332|164:324,1,80,2|0
168,252,155215,2,0,B|208:244|248:252,1,80,2|0
304,204,155590,2,0,B|312:156|352:140,1,80,8|2
396,88,155965,1,2
396,88,156152,1,0
328,64,156340,6,0,B|248:64,1,80,6|2
192,112,156715,2,0,B|112:112,2,80,0|2|8
224,176,157277,2,0,B|248:216|248:256,1,80,2|2
272,320,157652,1,0
320,264,157840,6,0,B|360:248|400:256,1,80,2|0
464,288,158215,1,2
464,288,158402,1,0
456,216,158590,2,0,B|424:144|344:104,1,160,8|2
280,72,159152,1,0
208,80,159340,6,0,B|208:152|208:152|168:168|120:144,1,160,2|2
56,176,159902,1,0
56,176,160090,2,0,B|88:216|88:256,1,80,8|2
96,320,160465,2,0,B|176:304,1,80,2|0
248,296,160840,6,0,B|328:328,1,80,2|0
384,288,161215,2,0,B|392:248|432:224,1,80,2|0
400,160,161590,2,0,B|440:136|480:168,2,80,8|2|2
328,152,162152,1,0
264,112,162340,6,0,B|232:80|192:72,1,80,6|2
120,72,162715,1,0
72,128,162902,2,0,B|56:208,1,80,2|8
56,280,163277,1,2
112,328,163465,1,2
184,304,163652,1,0
248,264,163840,6,0,B|288:256|328:264,1,80,2|0
392,296,164215,1,2
464,312,164402,1,0
440,240,164590,2,0,B|424:160|456:80,1,160,8|2
392,48,165152,1,0
320,64,165340,6,0,B|280:80|264:120,1,80
272,192,165715,2,0,B|328:248,1,80,2|0
272,296,166090,2,0,B|216:240,1,80
144,240,166465,1,8
96,184,166652,1,0
56,120,166840,6,0,B|96:96|136:120,1,80
200,144,167215,2,0,B|240:168|280:144,1,80,2|0
328,96,167590,2,0,B|360:128|344:176|344:176|392:240,1,160,0|8
440,288,168152,1,0
376,324,168340,5,4
