osu file format v9

[General]
AudioFilename: Meitantei.mp3
AudioLeadIn: 0
PreviewTime: 48259
Countdown: 0
SampleSet: Soft
StackLeniency: 0.7
Mode: 0
LetterboxInBreaks: 1

[Editor]
Bookmarks: 16259
DistanceSpacing: 0.9
BeatDivisor: 4
GridSize: 4

[Metadata]
Title:The Great Detective Knows
Artist:07th Expansion
Creator:UnderminE
Version:Possible Riddle
Source:Umineko No Naku Koro Ni Chiru
Tags:erika furudo dai Backfire T12 Saten-san TTTTTTTTTTTT H-Boy

[Difficulty]
HPDrainRate:3
CircleSize:4
OverallDifficulty:2
ApproachRate:5
SliderMultiplier:1.2
SliderTickRate:1

[Events]
//Background and Video events
0,0,"back ground.png"
//Break Periods
2,64459,71309
//Storyboard Layer 0 (Background)
//Storyboard Layer 1 (Fail)
//Storyboard Layer 2 (Pass)
//Storyboard Layer 3 (Foreground)
//Storyboard Sound Samples
//Background Colour Transformations
3,100,163,162,255

[TimingPoints]
259,500,4,2,1,40,1,0
16259,-133.333333333333,4,2,1,40,0,0
16759,-100,4,2,1,40,0,0
20009,-66.6666666666667,4,2,1,40,0,0
20259,-100,4,2,1,40,0,0
24259,-66.6666666666667,4,2,1,40,0,0
24509,-100,4,2,1,40,0,0
46509,-55.5555555555556,4,2,1,40,0,0
46759,-100,4,2,1,40,0,0
47634,-200,4,2,1,40,0,0
47884,-200,4,2,1,40,0,0
48261,-100,4,2,1,40,0,1
49759,-100,4,1,0,20,0,1
49884,-100,4,2,1,40,0,1
50759,-100,4,1,0,20,0,1
50884,-100,4,2,1,40,0,1
51759,-100,4,1,0,20,0,1
51884,-100,4,2,1,40,0,1
53259,-100,4,1,0,20,0,1
53384,-100,4,2,1,40,0,1
54259,-100,4,1,0,20,0,1
54384,-100,4,2,1,40,0,1
55509,-100,4,1,0,15,0,1
55634,-100,4,2,1,40,0,1
56009,-100,4,1,0,15,0,1
56134,-100,4,2,1,40,0,1
57759,-100,4,1,0,20,0,1
57884,-100,4,2,1,40,0,1
58259,-100,4,1,0,15,0,1
58384,-100,4,2,1,40,0,1
59259,-100,4,1,0,20,0,1
59384,-100,4,2,1,40,0,1
64259,-100,4,2,1,40,0,0
80759,-100,4,1,0,10,0,0
80884,-100,4,2,1,40,0,0
81759,-100,4,1,0,10,0,0
81884,-100,4,2,1,40,0,0
82259,-100,4,1,0,9,0,0
82384,-100,4,2,1,40,0,0
83259,-100,4,1,0,10,0,0
83384,-100,4,2,1,40,0,0
84259,-100,4,1,0,9,0,0
84384,-100,4,2,1,40,0,0
85259,-100,4,1,0,10,0,0
85384,-100,4,2,1,40,0,0
86259,-100,4,1,0,9,0,0
86384,-100,4,2,1,40,0,0
86759,-100,4,2,1,9,0,0
87009,-100,4,2,1,40,0,0
88759,-100,4,1,0,10,0,0
88884,-100,4,2,1,40,0,0
89759,-100,4,1,0,10,0,0
89884,-100,4,2,1,40,0,0
90259,-100,4,1,0,9,0,0
90384,-100,4,2,1,40,0,0
91259,-100,4,1,0,10,0,0
91384,-100,4,2,1,40,0,0
96264,-100,4,2,1,40,0,1
103259,-100,4,1,0,15,0,1
104134,-100,4,2,1,40,0,1
106759,-100,4,1,0,20,0,1
106884,-100,4,2,1,40,0,1
107759,-100,4,1,0,20,0,1
107884,-100,4,2,1,40,0,1
115264,-100,4,2,1,40,0,0

[Colours]
Combo1 : 255,98,102
Combo2 : 6,6,225
Combo3 : 227,216,149
Combo4 : 255,255,255

[HitObjects]
156,132,16259,2,0,B|243:103,1,89.9999973177911,2|0
320,180,17259,2,0,B|356:240,2,60
288,136,18009,1,0
248,172,18259,2,0,B|202:210,1,60,2|0
152,188,18759,2,0,B|76:147|124:70,1,120,2|0
244,52,20009,6,0,B|308:116,1,89.9999973177911
380,196,20759,2,0,B|375:275|273:267,1,120,2|0
140,244,22009,2,0,B|88:284,1,60,0|2
52,180,22759,2,0,B|-9:141,2,60,0|0|8
104,164,23509,2,0,B|134:98,2,60,8|8|8
120,216,24259,22,0,B|172:288,1,89.9999973177911,2|0
232,264,24759,1,0
332,224,25259,2,0,B|397:197,2,60,2|0|2
300,180,26009,2,0,B|257:137,1,60,0|8
220,100,26509,2,0,B|171:135,1,60,0|8
192,184,27009,2,0,B|143:219,1,60,0|8
52,84,28009,38,0,B|111:61,2,60,0|2|4
52,192,29009,2,0,B|112:192,1,60,0|2
168,248,29634,1,4
112,304,30009,2,0,B|52:304,1,60,0|2
52,196,30759,1,0
108,104,31259,1,0
216,96,31759,1,0
188,200,32259,22,0,B|245:184,1,60,2|8
272,232,32759,2,0,B|329:247,1,60,2|8
348,196,33259,2,0,B|405:180,1,60,2|8
424,232,33759,2,0,B|481:247,1,60,2|8
500,196,34259,5,0
460,96,34759,1,2
352,96,35259,2,0,B|352:156,1,60,2|8
300,168,35759,2,0,B|240:168,1,60,2|8
188,156,36259,22,0,B|188:96,1,60,2|8
136,84,36759,2,0,B|76:84,1,60,2|8
24,96,37259,2,0,B|24:156,1,60,2|8
48,204,37759,1,0
88,240,38009,1,0
132,272,38259,37,2
228,220,38759,1,0
144,152,39259,2,0,B|95:117,3,60,2|0|2|0
56,80,40259,22,0,B|56:40|100:44,1,60,2|8
148,44,40759,2,0,B|142:80|182:83,1,60,2|8
236,84,41259,2,0,B|234:157,2,60,2|0|2
276,48,42009,1,0
328,60,42259,6,0,B|380:8|432:60,1,120,2|10
416,112,43009,1,0
432,164,43259,2,0,B|379:216|327:164,1,120,2|10
284,196,44009,1,2
232,176,44259,2,0,B|271:91,1,90,0|6
196,60,45009,21,2
148,32,45259,2,0,B|110:113,1,90,0|6
76,188,46009,2,0,B|124:223,1,60,0|4
176,268,46509,2,0,B|224:308,2,53.9999974250795
200,208,47009,1,0
240,172,47259,1,0
256,192,47384,12,4,48259
228,160,48759,1,2
308,232,49259,2,0,B|252:280,2,60
340,188,50009,1,0
328,136,50259,2,0,B|208:136,1,120,2|0
208,28,51259,2,0,B|328:28,1,120,2|0
376,52,52009,1,0
364,104,52259,21,0
284,176,52759,2,0,B|340:232|284:300,1,120,2|0
188,300,53759,2,0,B|123:300,2,60,0|2|0
176,192,54759,1,2
108,108,55259,6,0,B|152:67,3,60,2|0|2|0
196,36,56259,1,4
264,120,56759,1,2
332,204,57259,2,0,B|384:164,2,60,0|0|0
280,220,58009,2,0,B|248:217|248:217|229:196,1,60,2|0
148,128,58759,2,0,B|148:60|148:60|190:30,1,120,2|0
352,32,60009,22,0,B|412:32,1,60,0|6
456,96,60634,1,2
412,164,61009,2,0,B|352:164,1,60,0|6
292,220,61634,1,2
352,276,62009,2,0,B|416:276,1,60,0|6
480,192,62759,1,0
408,112,63259,2,8,B|360:64,4,60,8|8|8|8|0
160,128,72509,37,0
200,92,72759,1,0
240,128,73009,1,8
268,232,73509,2,0,B|204:232,2,60,0|0|8
320,232,74259,22,0,B|389:200|388:120,1,120,0|8
376,32,75259,2,0,B|260:63,1,120,0|8
160,92,76259,5,0
68,148,76759,2,0,B|101:202,1,60,0|8
160,288,77509,1,0
296,200,78259,22,0,B|344:152|344:152|368:80,1,120,0|8
272,40,79259,1,0
340,244,80259,38,0,B|308:268|268:204|212:260,1,120,2|2
164,160,81259,2,0,B|136:92,2,60,0|0|2
116,184,82009,2,0,B|96:203|96:203|96:235,1,60,0|2
136,336,82759,2,0,B|259:302,1,120,2|2
364,188,84009,22,0,B|374:156|374:156|361:132,1,60,0|2
296,48,84759,2,0,B|178:72,1,120,2|2
48,168,86009,2,0,B|76:224,1,60,0|2
124,200,86509,2,0,B|152:257,1,60
200,232,87009,2,0,B|228:289,1,60,0|8
280,292,87509,1,8
320,256,87759,1,8
372,244,88009,1,8
412,208,88259,6,0,B|446:144|370:103,1,120,2|2
272,128,89259,2,0,B|235:70,2,60,0|0|2
232,164,90009,2,0,B|212:183|212:183|212:215,1,60,0|2
184,320,90759,2,0,B|307:286,1,120,2|2
352,136,92009,21,2
300,136,92259,2,0,B|300:72,1,60,0|6
196,44,93009,2,0,B|132:44,1,60,0|6
76,96,93634,1,2
136,148,94009,2,0,B|196:148,1,60,0|6
256,236,94759,1,0
340,168,95259,1,0
72,56,96259,38,0,B|107:27|136:68,1,60,4|8
180,56,96759,2,0,B|215:27|244:68,1,60,0|8
252,108,97259,2,0,B|252:138,4,30,2|0|2|0|2
268,56,98009,2,0,B|292:28|320:56,1,60,0|8
372,56,98509,2,0,B|396:28|424:56,1,60,0|8
468,84,99009,1,0
436,128,99259,2,0,B|436:158,4,30,2|0|2|0|2
388,108,100009,22,0,B|360:136|335:109,1,60,0|8
280,108,100509,2,0,B|252:136|227:109,1,60,0|8
192,68,101009,1,0
156,108,101259,2,0,B|156:138,4,30,2|0|2|0|2
104,108,102009,5,4
104,160,102259,2,0,B|78:178|104:212,1,60,0|8
104,268,102759,2,0,B|78:286|104:320,1,60,0|8
156,328,103259,1,0
192,288,103509,1,0
232,324,103759,1,0
268,284,104009,1,0
316,260,104259,22,0,B|341:241|314:207,1,60,0|8
312,152,104759,2,0,B|337:133|310:99,1,60,0|8
296,48,105259,2,0,B|266:48,4,30,2|0|2|0|2
264,92,106009,1,0
264,144,106259,38,0,B|132:144,1,120,2|2
64,216,107259,1,0
132,300,107759,1,2
172,264,108009,1,0
212,228,108259,22,0,B|332:228,1,120,0|6
364,184,109009,1,2
400,144,109259,1,0
356,76,109634,1,6
276,92,110009,6,0,B|276:48|240:40,1,60,0|6
196,52,110509,2,0,B|136:52,1,60
120,104,111009,1,0
136,156,111259,2,8,B|196:156,3,60
248,172,112259,22,0,B|248:232,1,60,0|6
160,288,113009,1,2
200,324,113259,1,6
268,280,113634,1,2
280,200,114009,2,0,B|312:200|328:168,1,60,0|6
404,92,114759,2,0,B|437:215,1,120,8|4
