osu file format v9

[General]
AudioFilename: Meitantei.mp3
AudioLeadIn: 0
PreviewTime: 48259
Countdown: 0
SampleSet: Soft
StackLeniency: 0.7
Mode: 0
LetterboxInBreaks: 1

[Editor]
Bookmarks: 16259
DistanceSpacing: 0.8
BeatDivisor: 4
GridSize: 4

[Metadata]
Title:The Great Detective Knows
Artist:07th Expansion
Creator:UnderminE
Version:Beginner Riddle
Source:Umineko No Naku Koro Ni Chiru
Tags:erika furudo dai Backfire T12 Saten-san TTTTTTTTTTTT H-Boy

[Difficulty]
HPDrainRate:2
CircleSize:3
OverallDifficulty:2
ApproachRate:3
SliderMultiplier:1.2
SliderTickRate:1

[Events]
//Background and Video events
0,0,"back ground.png"
//Break Periods
2,64459,78800
//Storyboard Layer 0 (Background)
//Storyboard Layer 1 (Fail)
//Storyboard Layer 2 (Pass)
//Storyboard Layer 3 (Foreground)
//Storyboard Sound Samples
//Background Colour Transformations
3,100,163,162,255

[TimingPoints]
259,500,4,2,1,40,1,0
48261,-100,4,2,1,40,0,1
64259,-100,4,2,1,40,0,0
96264,-100,4,2,1,40,0,1
115264,-100,4,2,1,40,0,0

[Colours]
Combo1 : 255,98,102
Combo2 : 6,6,225
Combo3 : 227,216,149
Combo4 : 255,255,255

[HitObjects]
0,340,16259,2,0,B|16:260|88:364|168:308|192:244,1,240,0|2
248,164,17759,1,0
208,140,18009,1,2
168,112,18259,2,0,B|184:32|256:136|336:80|360:16,1,240,0|2
448,52,19759,5,0
444,100,20009,1,2
440,148,20259,2,0,B|369:188|400:65|305:42|242:65,1,240,0|2
160,112,21759,5,0
172,160,22009,1,2
176,208,22259,2,0,B|178:203|158:260|107:216|87:281,2,120,2|0|2
240,28,24259,6,0,B|339:-2|348:133|448:124,1,240,0|2
448,220,25759,1,0
400,224,26009,1,2
352,228,26259,2,0,B|248:320|128:224,1,240,0|2
44,48,28259,5,2
180,184,29259,2,0,B|269:271,2,120,2|2|2
112,116,30759,1,0
20,144,31259,1,0
40,240,31759,1,0
128,284,32259,6,0,B|188:240|296:332|372:276,1,240,2|8
416,204,33759,1,0
412,156,34009,1,2
408,108,34259,2,0,B|343:145|245:42|164:90,1,240,2|8
80,104,35759,5,0
88,152,36009,1,2
92,200,36259,2,0,B|17:232|65:309,2,120,2|0|8
188,152,37759,5,0
196,204,38009,1,2
208,256,38259,2,0,B|252:304|312:336|368:308|416:256,1,240,2|8
440,44,40259,5,0
372,112,40759,2,0,B|316:144|356:40|244:72|252:80,1,120,2|8
176,76,41759,1,0
128,76,42009,1,2
80,80,42259,2,0,B|4:172|4:172|76:272,1,240,2|8
156,216,43759,6,0,B|240:308,2,120,0|4|2
116,188,45009,1,2
84,224,45259,2,0,B|10:310,2,90,4|2|2
116,188,46259,1,4
24,296,48259,6,0,B|22:216|50:173|100:141|176:131,1,240,6|8
252,92,49759,1,0
296,108,50009,1,2
340,128,50259,2,0,B|405:137|455:169|483:212|481:292,1,240,2|8
384,296,51759,5,0
336,304,52009,1,2
288,304,52259,2,0,B|272:280|248:248|192:232|192:232|240:192|248:168|256:136|264:104|256:120,1,240,2|8
304,44,53759,1,0
352,52,54009,1,2
400,64,54259,2,0,B|416:88|440:120|496:136|496:136|448:176|440:200|432:232|424:264|432:248,1,240,2|8
252,296,56259,6,0,B|194:238|270:118|218:65,1,240,2|8
116,96,57759,1,0
96,140,58009,1,2
72,184,58259,2,0,B|8:288,2,120,2|0|8
168,64,60259,5,4
384,64,61259,1,4
428,252,62259,6,0,B|380:352|176:352|120:248,1,360,4|8
80,160,64259,1,0
152,144,80259,6,0,B|171:62|271:62|321:88|330:154,1,240,0|2
244,192,81759,1,0
328,248,82259,2,0,B|320:305|270:331|170:331|150:250,1,240,0|2
124,160,83759,5,0
24,152,84259,2,0,B|0:72|87:22|143:19|184:72,1,240,0|2
252,124,85759,1,0
292,148,86009,1,2
332,176,86259,2,0,B|380:144|396:232|428:208|444:216|444:184,2,120,2|0|2
184,88,88259,6,0,B|90:51|19:151|78:227,1,240,0|2
156,176,89759,1,0
200,156,90009,1,2
244,144,90259,2,0,B|276:196|276:196|240:256,2,120,0|0|2
152,56,92259,5,4
72,108,92759,1,2
120,192,93259,2,0,B|189:295,2,120,4|2|4
256,192,94759,12,6,96259
68,88,97259,1,8
156,128,97759,1,0
176,172,98009,1,2
196,216,98259,2,0,B|308:271|308:271|374:177,1,240,2|8
368,80,99759,5,0
324,96,100009,1,2
280,116,100259,2,0,B|190:43|190:43|98:126,1,240,2|8
32,196,101759,5,0
72,224,102009,1,2
116,248,102259,2,0,B|132:368|276:360|272:240|272:240,1,240,2|8
440,164,104259,6,0,B|415:99|343:54|242:53,1,240,2|8
152,48,105759,1,0
120,80,106009,1,2
88,112,106259,2,0,B|16:112|88:192|16:192|-8:192,2,120,2|0|8
280,84,108259,5,4
392,232,109259,2,0,B|456:328,2,90,4|2|2
344,220,110259,1,4
248,228,110759,1,0
168,284,111259,2,8,B|130:238,3,60
96,204,112259,5,4
224,76,113259,1,4
320,124,113759,1,2
400,176,114259,2,2,B|368:240|304:192|292:296|216:236|204:316,1,240,4|0
