osu file format v9

[General]
AudioFilename: System.mp3
AudioLeadIn: 500
PreviewTime: 21069
Countdown: 0
SampleSet: Soft
StackLeniency: 0.7
Mode: 0
LetterboxInBreaks: 1

[Editor]
Bookmarks: 20753,33796,63873,69666,90318,116405,132057,146079,173796
DistanceSpacing: 1.2
BeatDivisor: 4
GridSize: 8

[Metadata]
Title:System0
Artist:07th Expansion
Creator:Reiji-RJ
Version:Hard
Source:Umineko no Naku Koro ni
Tags:ch1ka

[Difficulty]
HPDrainRate:7
CircleSize:4
OverallDifficulty:7
ApproachRate:8
SliderMultiplier:1.4
SliderTickRate:1

[Events]
//Background and Video events
0,0,"bg.jpg"
//Break Periods
2,63008,69015
2,108226,115971
//Storyboard Layer 0 (Background)
//Storyboard Layer 1 (Fail)
//Storyboard Layer 2 (Pass)
//Storyboard Layer 3 (Foreground)
//Storyboard Sound Samples
//Background Colour Transformations
3,100,163,162,255

[TimingPoints]
200,434.782608695652,4,2,0,70,1,0
34113,-100,4,1,0,69,0,0
69547,-100,4,2,0,70,0,0
90634,-100,4,1,0,50,0,0
104765,-100,4,2,0,20,0,0
116721,-100,4,2,0,70,0,0
132373,-100,4,2,1,70,0,0
146504,-100,4,2,0,69,0,0

[Colours]
Combo1 : 79,94,166
Combo2 : 199,20,20
Combo3 : 218,218,218
Combo4 : 217,199,34

[HitObjects]
112,128,21069,6,0,B|104:216|168:264,2,140,4|0|0
152,56,22156,1,0
232,64,22373,1,0
272,136,22591,1,0
200,176,22808,6,0,B|144:232,1,70,0|2
344,272,23243,2,0,B|408:312,1,70,0|2
176,352,23678,2,0,B|104:304,1,70,0|2
288,208,24113,2,0,B|344:160,1,70,2|0
344,80,24547,6,0,B|416:96,2,70,2|0|0
264,56,25199,1,0
184,48,25417,1,0
136,112,25634,1,0
216,120,25852,1,0
168,184,26069,2,0,B|96:216|88:304,1,140
168,328,26721,5,0
256,216,26939,1,2
344,328,27156,1,0
424,216,27373,2,0,B|464:224|496:264,2,70,2|2|0
448,128,28026,5,2
408,56,28243,1,0
328,48,28460,2,0,B|240:32,1,70
272,120,28895,2,0,B|200:168,1,70
184,80,29330,2,0,B|112:56,1,70
72,128,29765,5,0
24,256,29982,1,0
216,192,30199,1,0
168,328,30417,1,2
328,288,30634,2,0,B|352:320|392:328,1,70,0|2
440,192,31069,2,0,B|472:168|472:128,1,70,2|0
416,72,31504,5,2
336,40,31721,1,0
320,120,31939,1,0
248,72,32156,1,0
176,32,32373,2,0,B|104:72,1,70
176,120,32808,2,0,B|144:184,1,70
216,328,34113,5,0
216,328,34221,1,0
296,328,34439,1,0
296,328,34547,1,0
256,240,34765,1,0
168,208,34982,6,2,B|88:208|40:152,1,140,6|2
72,80,35634,1,2
144,32,35852,1,0
176,112,36069,1,2
232,48,36286,1,0
312,40,36504,1,0
280,120,36721,6,2,B|336:168|416:136,1,140,0|2
472,200,37373,1,2
400,248,37591,1,0
384,248,37699,1,0
368,248,37808,1,2
352,248,37917,1,0
336,248,38026,1,0
256,248,38243,1,0
200,312,38460,6,2,B|136:352|48:336,1,140,0|2
40,256,39113,1,2
56,176,39330,2,0,B|72:104,1,70,0|2
120,224,39765,2,0,B|192:192,1,70
152,120,40199,6,2,B|144:48,2,70,0|0|2
208,184,40852,1,2
288,184,41069,1,0
304,184,41178,1,0
320,184,41286,1,2
336,184,41395,1,0
352,184,41504,1,0
368,184,41613,1,0
384,184,41721,1,0
400,184,41830,1,0
416,184,41939,6,2,B|448:248|424:328,1,140,2|2
352,352,42591,1,2
296,288,42808,1,0
232,344,43026,1,2
192,272,43243,2,0,B|144:280|120:328,1,70
56,344,43678,6,2,B|0:296|32:208,1,140,2|2
64,136,44330,2,0,B|40:56,1,70,2|0
128,96,44765,2,0,B|184:48,1,70,2|0
208,128,45199,1,0
256,56,45417,6,2,B|336:48|384:112,1,140,0|2
304,144,46069,1,2
232,192,46286,2,0,B|176:256,2,70,0|2|0
304,144,46939,1,0
312,224,47156,6,2,B|376:272|464:232,1,140,0|2
432,160,47808,1,2
256,168,48243,1,0
256,248,48460,1,0
256,328,48678,1,0
176,328,48895,6,2,B|96:336|48:288,1,140,0|2
48,288,49547,1,2
40,208,49765,1,0
120,216,49982,1,2
88,136,50199,1,0
168,152,50417,1,0
144,72,50634,6,2,B|192:8|280:40,1,140,0|2
312,104,51286,1,2
376,48,51504,1,0
392,64,51613,1,0
408,80,51721,1,2
424,96,51830,1,0
440,112,51939,1,0
464,192,52156,1,0
384,216,52373,6,2,B|352:288|424:344,1,140,0|2
456,264,53026,2,0,B|320:296,1,140,2|2
256,352,53678,1,0
176,336,53895,1,0
96,336,54113,1,0
64,256,54330,1,0
136,208,54547,1,2
208,256,54765,1,2
192,88,55199,5,2
256,32,55417,1,0
320,88,55634,1,0
256,152,55852,6,2,B|288:224|376:224,1,140,0|2
368,224,56504,1,2
400,144,56721,2,0,B|448:152|464:184,2,70,0|2|0
368,224,57373,1,0
408,296,57591,6,2,B|328:328|264:264,1,140,0|2
224,344,58243,1,2
144,352,58460,1,0
64,328,58678,2,0,B|40:288|64:256,1,70,2|0
144,256,59113,1,0
112,176,59330,6,2,B|192:160|232:240,1,140,0|2
312,256,59982,1,2
296,176,60199,2,0,B|328:144|376:160,1,70,0|2
416,216,60634,2,0,B|456:208|464:160,1,70
480,88,61069,6,2,B|400:120|352:40,1,140,0|2
359,49,61721,1,2
256,168,62156,5,0
256,192,62265,1,0
256,216,62373,1,0
256,240,62482,1,0
256,264,62591,1,0
256,288,62699,1,0
256,312,62808,1,4
168,280,69765,6,0,B|120:272|104:240,1,70,4|0
168,192,70199,2,0,B|152:152|88:160,1,70,2|8
32,184,70634,2,0,B|24:96|112:64,1,140,8|2
176,56,71286,1,2
256,48,71504,5,4
224,128,71721,1,2
240,128,71830,1,0
256,128,71939,1,2
272,128,72047,1,0
288,128,72156,1,10
336,56,72373,2,0,B|400:104|384:184,1,140,10|2
448,232,73026,1,2
448,232,73243,6,0,B|464:280|504:296,2,70,4|0|2
384,288,73895,1,10
320,344,74113,1,8
248,304,74330,1,2
184,248,74547,1,2
264,224,74765,1,2
264,224,74982,6,0,B|304:240|344:192,2,70,4|0|0
208,160,75634,1,10
216,80,75852,1,8
200,80,75960,1,0
184,80,76069,1,2
168,80,76178,1,0
152,80,76286,1,2
72,56,76504,1,2
40,136,76721,5,6
112,184,76939,2,0,B|152:192|168:224,2,70,0|0|8
64,248,77591,1,10
32,328,77808,1,2
112,312,78026,1,2
192,344,78243,1,2
256,288,78460,5,4
320,344,78678,1,0
344,344,78786,1,0
368,336,78895,1,0
392,320,79004,1,0
408,304,79113,1,8
424,288,79221,1,0
432,264,79330,2,0,B|400:224|416:184,1,70,10|2
464,136,79765,2,0,B|424:120|416:72,1,70,2|2
336,80,80200,6,0,B|336:32|384:16,2,70,4|0|0
336,80,80852,1,8
256,72,81069,2,0,B|176:48,1,70,8|0
192,136,81504,2,0,B|136:192,1,70
72,144,81939,5,4
56,168,82047,1,0
48,192,82156,1,2
56,216,82265,1,0
72,240,82373,1,2
88,320,82591,1,8
168,304,82808,1,4
184,320,82917,1,0
208,336,83026,1,2
232,320,83134,1,0
248,304,83243,1,2
328,320,83460,1,8
408,352,83678,6,0,B|488:312|472:224,1,140,4|0
475,239,84330,1,8
424,168,84547,2,0,B|464:144|504:160,2,70,8|0|0
424,168,85200,1,0
360,224,85417,6,0,B|280:176|328:88,1,140,4|0
400,80,86069,1,8
320,56,86286,1,8
296,56,86395,1,0
272,56,86504,1,2
248,56,86613,1,0
224,56,86721,1,2
144,80,86939,1,2
208,136,87156,6,0,B|264:192,2,70,4|0|0
120,144,87808,1,8
72,72,88026,2,0,B|0:112|40:216,1,140,8|2
112,208,88678,1,2
80,288,88895,5,4
96,288,89004,1,0
112,288,89113,1,2
128,288,89221,1,0
144,288,89330,1,2
224,288,89547,1,8
288,232,89765,1,4
304,232,89873,1,0
320,232,89982,1,2
336,232,90091,1,0
352,232,90200,1,2
440,232,90417,1,8
320,80,90634,6,2,B|464:80,2,140,2|2|4
152,80,91939,1,8
72,64,92156,1,0
56,144,92373,2,2,B|104:184|104:256,1,105,10|0
104,272,92808,1,0
56,344,93026,1,8
136,344,93243,2,0,B|216:368|272:304,1,140,12|0
344,288,93895,1,0
408,344,94113,5,10
456,224,94439,1,0
456,224,94547,1,0
392,168,94765,1,8
472,136,94982,2,0,B|440:104|448:72,1,70,8|0
368,88,95417,2,0,B|360:48|312:32,1,70,2|2
296,112,95852,5,10
184,56,96178,1,0
184,56,96286,1,0
104,88,96504,1,8
176,136,96721,2,0,B|224:200,1,70,8|0
136,208,97156,2,0,B|96:272,1,70,2|2
296,304,97591,6,2,B|360:360|448:304,2,140,2|2|4
416,192,98895,1,8
472,128,99113,1,0
392,112,99330,1,10
256,96,99656,1,0
256,96,99765,1,0
256,176,99982,1,8
256,176,100200,1,12
336,320,100634,5,2
256,352,100852,1,2
176,320,101069,1,2
152,200,101395,1,0
152,200,101504,1,0
72,168,101721,1,0
136,120,101939,5,2
368,120,102265,1,0
368,120,102373,1,0
440,168,102591,1,0
360,200,102808,5,2
296,328,103134,1,0
296,328,103243,1,0
216,328,103460,1,0
264,232,103678,5,0
248,232,103786,1,0
264,208,103895,1,0
248,208,104004,1,0
264,184,104113,1,0
248,184,104221,1,0
264,160,104330,1,0
248,160,104439,1,0
256,136,104547,1,0
256,192,104656,12,0,108026
64,128,116721,5,2
88,120,116830,1,0
112,128,116939,1,2
136,120,117047,1,0
160,128,117156,1,2
184,120,117265,1,0
208,128,117373,1,2
232,120,117482,1,0
256,128,117591,1,2
280,120,117700,1,0
304,128,117808,1,2
328,120,117917,1,0
352,128,118026,1,2
376,120,118134,1,0
400,128,118243,1,2
424,120,118352,1,0
448,128,118460,1,4
384,288,118895,6,0,B|432:280|440:320,2,70,2|2|2
320,344,119547,1,0
272,272,119765,1,2
216,336,119982,1,0
144,288,120200,5,4
200,224,120417,2,0,B|168:200|120:216,1,70,0|2
72,152,120852,1,2
136,96,121069,1,2
208,136,121286,1,0
224,56,121504,1,2
288,104,121721,1,0
352,256,121939,6,0,B|360:304|416:312,2,70,4|0|2
440,232,122591,1,2
464,144,122808,1,2
400,80,123026,1,0
368,168,123243,1,2
280,168,123460,1,0
152,272,123678,6,0,B|112:288|96:328,2,70,4|0|2
192,352,124330,1,2
256,288,124547,1,2
336,328,124765,1,0
328,240,124982,1,2
256,184,125200,1,0
96,160,125417,6,0,B|104:88|184:56,1,140,4|2
184,152,126069,1,2
144,232,126286,1,2
56,240,126504,1,0
104,320,126721,2,0,B|128:352|176:336,1,70,2|0
320,232,127156,6,0,B|400:248|416:336,1,140,4|2
320,336,127808,1,2
240,288,128026,1,2
320,232,128243,1,0
264,160,128460,2,0,B|304:144|352:160,1,70,2|0
160,128,128895,6,0,B|128:64|40:72,1,140,4|2
72,152,129547,2,0,B|64:192|32:208,2,70,2|2|0
120,224,130200,2,0,B|152:256|136:288,1,70,2|0
304,328,130634,6,0,B|384:328|416:256,1,140,4|2
336,240,131286,1,2
400,184,131504,1,2
320,152,131721,1,0
360,80,131939,1,2
440,112,132156,1,0
400,320,132373,6,0,B|248:320,2,140,12|8|8
400,232,133460,1,2
320,128,133678,1,8
240,240,133895,1,2
160,128,134113,5,12
136,208,134330,2,0,B|176:224|168:272,2,70,2|8|2
64,344,134982,2,0,B|32:320|32:264,1,70,8|2
88,128,135417,2,0,B|96:80|64:56,1,70,8|2
256,64,135852,6,8,B|320:24|416:56,1,140,12|8
344,120,136504,1,2
216,256,136721,2,0,B|264:264|272:304,1,70,8|2
384,184,137156,2,0,B|432:192|448:152,1,70,8|2
296,272,137591,6,0,B|272:360|160:344,1,140,12|8
184,264,138243,1,2
80,152,138460,1,8
96,296,138678,1,2
168,176,138895,1,8
32,232,139113,1,2
232,128,139330,6,0,B|216:56|128:48,1,140,12|8
72,104,139982,1,2
128,256,140200,1,8
256,144,140417,1,2
384,256,140634,1,8
440,104,140852,1,2
256,144,141069,6,8,B|256:288,2,140,12|8|8
208,80,142156,1,2
72,168,142373,1,8
144,312,142591,1,2
256,240,142808,6,8,B|256:88,2,140,12|8|8
368,312,143895,1,2
440,168,144113,1,8
304,80,144330,1,2
256,192,144547,12,4,146286
64,192,146721,5,2
104,120,146939,1,0
176,160,147156,1,8
136,232,147373,1,2
200,288,147591,1,2
224,304,147700,1,0
256,312,147808,1,2
288,304,147917,1,0
312,288,148026,1,8
376,232,148243,5,2
336,160,148461,1,0
408,120,148678,1,2
448,192,148895,1,8
440,272,149113,2,0,B|416:312|432:352,1,70,2|2
352,304,149547,2,0,B|336:344|280:352,1,70,8|8
232,296,149982,5,2
152,296,150200,2,0,B|112:304|96:352,2,70,2|0|8
144,216,150852,1,2
64,232,151069,2,0,B|40:192|64:144,1,70,2|0
88,88,151504,1,8
168,120,151721,5,2
200,40,151939,2,0,B|288:40,1,70,2|2
264,120,152373,2,0,B|344:120,1,70,8|0
376,48,152808,2,0,B|448:48,1,70,2|8
464,128,153243,1,12
416,288,153678,6,0,B|368:344|272:320,2,140,2|8|2
360,232,154765,1,2
280,232,154982,1,8
208,280,155200,1,2
120,280,155417,1,2
80,208,155634,2,0,B|96:176|136:168,1,70,0|8
216,184,156069,1,2
280,128,156286,1,2
360,144,156504,2,8,B|376:184|416:200,1,70
200,288,157156,5,2
128,328,157373,1,0
56,288,157591,1,8
96,216,157808,1,2
40,160,158026,1,2
120,144,158243,2,0,B|160:144|184:112,1,70,0|8
128,56,158678,6,0,B|152:16|208:32,1,70,2|0
240,96,159113,1,0
320,96,159330,1,8
384,40,159547,2,0,B|424:56|432:112,1,70,2|2
384,160,159982,1,8
384,160,160200,1,12
312,200,160417,5,2
384,240,160634,2,0,B|456:264|464:352,2,140,2|8|2
384,240,161721,1,2
312,200,161939,1,8
304,280,162156,1,2
256,352,162373,1,0
200,288,162591,1,0
136,344,162808,1,8
64,296,163026,2,0,B|112:232,1,70,2|2
56,176,163460,2,8,B|16:104,1,70
256,64,164113,6,0,B|336:64,2,70,2|0|8
176,96,164765,1,2
240,152,164982,1,0
272,160,165091,1,2
304,152,165200,1,0
336,160,165308,1,2
368,152,165417,1,8
440,200,165634,5,2
408,280,165852,1,2
344,336,166069,1,2
320,256,166286,1,8
248,304,166504,1,2
168,272,166721,1,2
120,336,166939,1,8
120,336,167156,1,12
160,88,167591,6,0,B|112:152|40:160,2,140,2|8|2
240,56,168678,1,2
248,136,168895,2,0,B|296:192,1,70,8|0
328,112,169330,2,0,B|408:136,1,70,2|2
376,216,169765,1,8
456,216,169982,1,2
416,288,170200,1,2
336,288,170417,2,8,B|320:328|280:336,1,70
128,192,171069,5,2
128,192,171178,1,0
128,192,171286,1,2
128,192,171395,1,0
128,192,171504,1,2
160,96,171721,1,8
256,136,171939,5,2
256,136,172047,1,0
256,136,172156,1,2
256,136,172265,1,0
256,136,172373,1,2
352,96,172591,1,8
384,192,172808,5,2
384,192,172917,1,0
384,192,173026,1,2
384,192,173134,1,0
384,192,173243,1,2
344,272,173460,1,8
256,136,173678,5,0
256,224,173895,1,8
256,312,174113,1,12
