osu file format v9

[General]
AudioFilename: System.mp3
AudioLeadIn: 500
PreviewTime: 21069
Countdown: 0
SampleSet: Soft
StackLeniency: 0.7
Mode: 0
LetterboxInBreaks: 1

[Editor]
Bookmarks: 20753,33796,63873,69666,90318,116405,132057,146079,173796
DistanceSpacing: 1
BeatDivisor: 4
GridSize: 8

[Metadata]
Title:System0
Artist:07th Expansion
Creator:Reiji-RJ
Version:Easy
Source:Umineko no Naku Koro ni
Tags:ch1ka

[Difficulty]
HPDrainRate:3
CircleSize:3
OverallDifficulty:3
ApproachRate:3
SliderMultiplier:0.8
SliderTickRate:1

[Events]
//Background and Video events
0,0,"bg.jpg"
//Break Periods
2,63008,68325
2,108226,117020
//Storyboard Layer 0 (Background)
//Storyboard Layer 1 (Fail)
//Storyboard Layer 2 (Pass)
//Storyboard Layer 3 (Foreground)
//Storyboard Sound Samples
//Background Colour Transformations
3,100,75,55,44

[TimingPoints]
200,434.782608695652,4,2,0,69,1,0
34982,-100,4,1,0,69,0,0
69765,-100,4,2,0,69,0,0
90634,-100,4,1,0,69,0,0
102808,-100,4,1,0,40,0,0
103243,-100,4,1,0,60,0,0
103678,-100,4,1,0,81,0,0
104113,-100,4,1,0,100,0,0
104547,-100,4,2,0,0,0,0
118460,-100,4,2,0,69,0,0
132373,-100,4,1,0,69,0,0
146286,-100,4,2,0,69,0,0

[Colours]
Combo1 : 79,94,166
Combo2 : 199,20,20
Combo3 : 218,218,218
Combo4 : 217,199,34

[HitObjects]
88,104,21069,2,0,B|168:80|248:104,1,160,4|0
328,104,22373,1,0
408,104,22808,1,2
408,264,23678,1,2
248,264,24547,6,0,B|168:288|88:264,1,160,2|0
184,136,26286,1,2
256,96,26721,1,0
328,136,27156,1,2
312,296,28026,6,0,B|368:272|432:312|488:288,2,160,2|0|2
232,296,30199,1,2
152,296,30634,2,0,B|128:312|96:280|72:304,2,80,2|0|2
256,176,32373,1,2
256,96,32808,1,2
256,336,34113,5,2
256,256,34547,1,2
304,192,34982,2,2,B|384:216|464:192,2,160,4|8|2
256,48,37591,1,8
256,128,38026,1,2
208,192,38460,6,2,B|128:216|48:192,2,160,6|8|0
296,328,41069,1,8
216,328,41504,1,2
256,256,41939,6,2,B|216:208|304:160|256:104,2,160,6|8|2
296,104,44547,1,8
216,104,44982,1,2
256,176,45417,6,2,B|184:200|96:176,1,160,2|8
64,248,46721,1,2
128,296,47156,2,2,B|200:328|288:296,1,160,2|8
352,256,48460,1,2
352,176,48895,6,2,B|312:144|240:200|192:168,2,160,6|8|0
296,328,51504,1,8
216,328,51939,1,2
256,256,52373,6,2,B|216:208|296:160|256:104,1,160,6|8
216,40,53678,1,0
296,40,54113,1,0
256,192,54982,1,8
256,272,55417,1,2
184,232,55852,6,2,B|24:240,2,160,6|8|0
264,232,58026,1,0
344,248,58460,1,8
424,232,58895,1,2
416,152,59330,6,2,B|336:136|256:152,1,160,2|8
176,152,60634,1,2
176,232,61069,2,2,B|256:248|336:232,1,160,2|8
416,232,62373,1,0
416,312,62808,1,4
80,112,69765,6,0,B|240:104,1,160,4|8
320,104,71069,1,2
392,144,71504,2,0,B|440:216|400:296,1,160,2|8
320,304,72808,1,2
240,304,73243,6,0,B|72:296,1,160,4|8
56,216,74547,1,2
136,216,74982,2,0,B|184:248|240:184|296:216,2,160,2|8|4
168,56,77591,5,8
240,96,78026,1,0
312,56,78460,2,0,B|392:48|472:56,1,160,2|8
456,136,79765,1,2
376,152,80199,6,0,B|344:208|408:264|376:312,2,160,4|8|2
312,104,82373,1,2
240,144,82808,1,8
168,104,83243,1,2
96,144,83678,5,4
96,224,84113,2,0,B|136:240|176:224,2,80,2|8|0
72,304,85417,2,0,B|144:320|232:304,1,160,2|8
312,304,86721,1,2
312,224,87156,6,0,B|352:200|416:248|472:224,2,160,2|8|2
248,272,89330,1,2
184,224,89765,1,8
120,272,90199,1,2
56,224,90634,6,0,B|24:176|96:112|56:72,2,160,0|4|0
120,272,92808,1,0
184,224,93243,1,4
248,272,93678,1,0
312,224,94113,6,0,B|480:232,2,160,0|4|0
256,168,96286,1,0
176,168,96721,1,4
96,168,97156,1,0
136,96,97591,6,0,B|216:88|296:96,1,160,0|4
376,96,98895,1,0
432,152,99330,2,0,B|464:312,2,160,0|4|0
360,192,101504,1,0
296,144,101939,1,4
232,192,102373,1,0
296,240,102808,5,0
232,288,103243,1,0
168,232,103678,1,0
104,288,104113,1,0
256,192,104547,12,2,108026
256,192,118460,5,4
336,192,118895,2,0,B|416:200,2,80,2|8|2
256,192,120199,1,4
176,192,120634,2,0,B|96:200,2,80,2|8|2
256,192,121939,6,0,B|272:216|232:248|264:280,2,80,4|2|8
256,112,123243,1,2
336,112,123678,2,0,B|424:104,1,80,4|2
416,184,124547,1,8
416,264,124982,1,2
368,328,125417,6,0,B|288:344|208:328,1,160,4|8
160,264,126721,1,2
80,264,127156,2,0,B|48:184|80:104,1,160,4|8
160,104,128460,1,2
240,104,128895,6,0,B|288:80|352:136|400:104,2,160,4|8|4
168,144,131069,1,2
232,192,131504,1,8
168,240,131939,1,2
232,288,132373,6,0,B|400:304,1,160,4|0
456,256,133678,1,0
392,208,134113,2,0,B|352:160|432:128|384:56,2,160,4|0|4
240,248,136721,1,0
168,280,137156,1,0
96,248,137591,6,0,B|56:208|144:144|96:96,1,160,4|0
160,48,138895,1,0
232,72,139330,2,0,B|312:80,2,80,4|0|0
232,152,140634,1,0
232,232,141069,2,0,B|152:240,2,80,4|0|0
232,312,142373,1,0
312,312,142808,6,0,B|352:264|272:208|312:160,1,160,4|0
344,88,144113,1,0
264,88,144547,2,0,B|216:120|160:64|104:96,1,160,4|0
72,168,145852,2,0,B|72:216,2,40,0|0|4
152,168,146721,5,2
224,200,147156,2,0,B|304:224|384:200,1,160,8|2
456,168,148460,1,2
400,104,148895,2,0,B|320:128|240:104,1,160,8|2
160,104,150199,5,2
160,184,150634,2,0,B|120:240|192:280|160:336,2,160,8|2|8
240,184,152808,1,2
320,184,153243,1,2
280,256,153678,6,2,B|328:264|368:256,2,80,2|8|0
200,256,154982,1,2
120,256,155417,2,0,B|72:248|32:256,2,80,2|8|2
200,256,156721,1,2
200,176,157156,6,0,B|176:152|216:128|192:96,2,80,2|8|2
280,176,158460,1,2
360,176,158895,2,0,B|440:176,2,80,2|8|2
280,176,160199,6,0,B|200:200|120:176,1,160,4|8
56,136,161504,1,2
104,72,161939,2,0,B|184:96|264:72,1,160,2|8
344,72,163243,1,2
344,152,163678,6,0,B|360:232,2,80,2|2|8
264,152,164982,1,2
184,152,165417,2,0,B|96:160,2,80,2|2|8
264,152,166721,1,2
264,232,167156,6,0,B|192:264|104:232,1,160,2|8
56,168,168460,1,2
112,112,168895,2,0,B|160:88|224:136|272:112,1,160,2|8
352,112,170199,1,2
416,160,170634,6,0,B|376:208|448:272|416:312,1,160,2|8
336,312,171939,1,2
256,312,172373,2,0,B|176:336|96:312,1,160,2|8
96,232,173678,2,2,B|96:184,2,40,2|0|4
