osu file format v12

[General]
AudioFilename: 07th Expansion - gc-29.mp3
AudioLeadIn: 1996
PreviewTime: 97305
Countdown: 0
SampleSet: Soft
StackLeniency: 0.7
Mode: 0
LetterboxInBreaks: 0

[Editor]
Bookmarks: 16734,44132,57847,85275,97305,140132,153877,195020
DistanceSpacing: 1.1
BeatDivisor: 4
GridSize: 4

[Metadata]
Title:Ruriair
TitleUnicode:Ruriair
Artist:07th Expansion
ArtistUnicode:07th Expansion
Creator:Vass_Bass
Version:Reverce
Source:Umineko no Naku Koro ni
Tags:
BeatmapID:231570
BeatmapSetID:83961

[Difficulty]
HPDrainRate:7
CircleSize:4
OverallDifficulty:7
ApproachRate:9
SliderMultiplier:1.8
SliderTickRate:2

[Events]
//Background and Video events
0,0,"Beatrice.jpg",0,0
//Break Periods
2,3220,16134
2,30648,42277
2,44362,53848
2,87005,88777
2,90434,91348
2,93862,95634
2,140362,153277
//Storyboard Layer 0 (Background)
//Storyboard Layer 1 (Fail)
//Storyboard Layer 2 (Pass)
//Storyboard Layer 3 (Foreground)
//Storyboard Sound Samples
//Background Colour Transformations
3,100,163,162,255

[TimingPoints]
3020,428.571428571429,4,2,0,60,1,0
16734,-100,4,2,2,55,0,0
28734,-66.6666666666667,4,2,0,40,0,1
30448,-100,4,2,0,70,0,0
54234,-100,4,2,2,70,0,0
57877,-100,4,1,2,50,0,0
69984,-100,4,2,0,30,0,0
71270,-100,4,2,2,70,0,0
71484,-100,4,1,2,50,0,0
83484,-100,4,1,2,40,0,0
85198,-100,4,1,2,70,0,0
85412,-100,4,2,1,40,0,0
97168,-100,4,2,0,20,0,0
97382,-100,4,2,0,25,0,0
97597,-100,4,2,0,30,0,0
97811,-100,4,2,0,35,0,0
98025,-100,4,2,0,40,0,0
98240,-100,4,2,0,45,0,0
98454,-100,4,2,0,50,0,0
99020,-100,4,2,1,80,0,1
105555,-100,4,2,0,80,0,1
105770,-100,4,2,1,80,0,1
112412,-100,4,2,0,75,0,1
112627,-100,4,2,1,80,0,1
119270,-100,4,2,0,80,0,1
119484,-100,4,2,1,80,0,1
126127,-100,4,2,0,80,0,1
126341,-100,4,2,1,80,0,1
126448,-100,4,2,1,75,0,0
132984,-100,4,2,0,75,0,0
133198,-100,4,2,0,60,0,0
138341,-100,4,2,0,40,0,0
138770,-100,4,2,0,50,0,0
139305,-100,4,2,2,60,0,0
140109,-100,4,2,0,40,0,0
153877,-100,4,2,0,30,0,0
167537,-100,4,2,2,45,0,0
174127,-100,4,2,0,45,0,0
174341,-100,4,2,2,45,0,0
192984,-100,4,2,2,30,0,0
193734,-100,4,2,2,40,0,0
194162,-100,4,2,2,50,0,0
194591,-100,4,2,2,60,0,0
194805,-100,4,2,2,70,0,0
195020,-100,4,2,1,80,0,1
201555,-100,4,2,0,80,0,1
201770,-100,4,2,1,80,0,1
208412,-100,4,2,0,80,0,1
208627,-100,4,2,1,80,0,1
215270,-100,4,2,0,80,0,1
215484,-100,4,2,1,80,0,1
222127,-100,4,2,0,80,0,1
222234,-100,4,2,0,80,0,0
222341,-100,4,2,1,80,0,0
222448,-100,4,2,1,80,0,1
228984,-100,4,2,0,80,0,1
229198,-100,4,2,1,80,0,1
235841,-100,4,2,0,80,0,1
236055,-100,4,2,1,80,0,0
236162,-100,4,2,1,80,0,1
242698,-100,4,2,0,80,0,1
242912,-100,4,2,1,80,0,1
249555,-100,4,2,0,80,0,1
249770,-100,4,2,1,80,0,1
249877,-100,4,2,1,80,0,0

[Colours]
Combo1 : 255,245,215
Combo2 : 168,57,57
Combo3 : 237,156,35

[HitObjects]
256,192,448,12,4,3020,1:0:0:0:
400,72,16734,5,0,0:0:0:0:
292,124,16948,1,0,0:0:0:0:
288,132,17055,1,0,0:0:0:0:
284,140,17162,1,8,0:0:0:0:
84,232,17484,1,0,0:0:0:0:
84,232,17591,2,0,P|76:288|84:324,1,90
82,320,18020,2,0,P|156:320|208:352,1,135,8|0,0:0|0:0,0:0:0:0:
212,348,18448,1,0,0:0:0:0:
320,340,18662,1,0,0:0:0:0:
428,328,18877,5,8,0:0:0:0:
472,172,19198,1,0,0:0:0:0:
468,164,19305,1,0,0:0:0:0:
424,64,19520,1,0,0:0:0:0:
424,64,19734,2,0,P|360:56|284:56,1,135,8|0,0:0|0:0,0:0:0:0:
284,52,20162,1,0,0:0:0:0:
184,12,20377,1,0,0:0:0:0:
180,20,20591,5,8,0:0:0:0:
64,216,20912,1,0,0:0:0:0:
64,216,21020,2,0,P|104:252|128:288,1,90
80,356,21448,2,0,P|132:324|240:352,1,135,8|0,0:0|0:0,0:0:0:0:
212,328,21877,1,0,0:0:0:0:
320,336,22091,1,0,0:0:0:0:
272,240,22305,1,8,0:0:0:0:
420,172,22627,1,0,0:0:0:0:
424,168,22734,2,0,L|428:72,1,90
340,12,23162,2,0,L|332:177,1,135,8|0,0:0|0:0,0:0:0:0:
328,152,23591,5,0,0:0:0:0:
220,140,23805,1,0,0:0:0:0:
120,124,24020,1,8,0:0:0:0:
44,276,24341,1,0,0:0:0:0:
40,280,24448,2,0,L|56:376,1,90
160,348,24877,2,0,P|224:332|288:352,1,135,8|0,0:0|0:0,0:0:0:0:
296,356,25305,1,0,0:0:0:0:
312,264,25520,1,0,0:0:0:0:
216,288,25734,1,8,0:0:0:0:
88,164,26055,1,0,0:0:0:0:
88,164,26162,2,0,P|88:120|80:64,1,90
176,16,26591,2,0,P|188:88|192:152,1,135,8|0,0:0|0:0,0:0:0:0:
200,156,27020,5,0,0:0:0:0:
296,104,27234,1,0,0:0:0:0:
372,180,27448,2,0,P|375:241|387:313,1,135,8|0,0:0|0:0,0:0:0:0:
396,320,27877,1,0,0:0:0:0:
504,332,28091,1,0,0:0:0:0:
304,360,28305,2,0,P|248:352|144:372,1,135,8|0,0:0|0:0,0:0:0:0:
164,352,28734,6,0,P|136:304|148:224,1,135.000005149842,2|0,1:0|0:0,0:0:0:0:
356,56,29055,6,0,P|384:112|371:184,1,135.000005149842,2|0,1:0|0:0,0:0:0:0:
284,156,29377,1,0,0:0:0:0:
284,156,29591,6,2,P|212:120|104:164,1,202.500007724762,2|2,1:0|0:0,0:0:0:0:
104,152,30020,1,0,0:0:0:0:
104,144,30127,1,0,0:0:0:0:
104,136,30234,1,0,0:0:0:0:
104,128,30341,1,0,0:0:0:0:
104,120,30448,5,4,0:0:0:0:
256,192,42877,12,4,44162,1:0:0:0:
256,192,54448,12,8,57662,0:0:0:0:
88,164,57877,5,4,0:0:0:0:
204,80,58091,2,0,P|284:68|352:72,1,135
364,84,58520,2,0,L|476:76,1,90
336,184,58948,1,2,2:0:0:0:
328,176,59055,1,0,0:0:0:0:
320,168,59162,1,0,0:0:0:0:
204,80,59377,1,0,0:0:0:0:
60,212,59805,6,0,P|68:272|104:360,1,135
116,344,60234,2,0,L|220:348,1,90
352,316,60662,1,2,2:0:0:0:
356,300,60770,1,0,0:0:0:0:
360,284,60877,1,0,0:0:0:0:
456,208,61091,1,0,0:0:0:0:
456,208,61520,6,0,P|468:140|472:40,2,135
328,176,62377,1,2,2:0:0:0:
312,184,62484,1,0,0:0:0:0:
300,192,62591,1,0,0:0:0:0:
176,200,62805,1,0,0:0:0:0:
140,336,63234,6,0,P|80:320|-4:340,1,135
9,333,63662,2,0,L|-8:228,1,90
64,124,64091,1,2,2:0:0:0:
80,116,64198,1,0,0:0:0:0:
96,108,64305,1,0,0:0:0:0:
216,124,64520,1,0,0:0:0:0:
216,124,64948,6,0,L|352:116,2,135
96,108,65805,2,0,L|76:60,2,45,2|0|0,2:0|0:0|0:0,0:0:0:0:
140,216,66234,1,0,0:0:0:0:
376,252,66555,5,0,2:0:0:0:
376,252,66662,2,0,P|392:184|392:100,2,135
300,316,67520,1,2,2:0:0:0:
284,308,67627,1,0,0:0:0:0:
272,300,67734,1,0,0:0:0:0:
112,276,67948,1,0,0:0:0:0:
112,276,68270,5,0,2:0:0:0:
120,268,68377,2,0,P|124:208|128:116,1,135
108,132,68805,2,0,L|104:36,1,90
228,92,69234,2,0,L|232:140,2,45,2|0|0,2:0|0:0|0:0,0:0:0:0:
344,48,69662,1,0,0:0:0:0:
108,132,70091,5,2,0:0:0:0:
192,16,70412,1,2,0:0:0:0:
344,48,70734,1,2,0:0:0:0:
340,188,71055,1,2,0:0:0:0:
204,240,71377,1,8,0:0:0:0:
32,152,71591,6,0,P|104:152|172:168,1,135,4|0,0:0|2:0,0:0:0:0:
188,156,72019,1,0,0:0:0:0:
284,132,72234,1,0,0:0:0:0:
380,104,72448,1,0,0:0:0:0:
284,132,72662,1,2,2:0:0:0:
292,152,72770,1,0,0:0:0:0:
300,168,72877,1,0,0:0:0:0:
408,204,73091,6,0,P|408:260|400:344,1,135,0|0,0:0|2:0,0:0:0:0:
384,344,73520,1,0,0:0:0:0:
288,320,73734,2,0,L|192:328,1,90,0|0,0:0|0:0,0:0:0:0:
108,368,74162,1,0,0:0:0:0:
40,296,74377,1,2,2:0:0:0:
36,280,74484,1,0,0:0:0:0:
32,268,74591,1,0,0:0:0:0:
116,220,74805,6,0,P|128:160|128:80,1,135,0|0,0:0|2:0,0:0:0:0:
136,76,75234,1,0,0:0:0:0:
224,124,75448,2,0,L|320:104,1,90,0|0,0:0|2:0,0:0:0:0:
396,52,75877,1,0,0:0:0:0:
468,120,76091,1,2,2:0:0:0:
464,136,76198,1,0,0:0:0:0:
460,152,76305,1,0,0:0:0:0:
368,260,76520,6,0,P|308:248|228:268,1,135,0|0,0:0|2:0,0:0:0:0:
216,256,76948,1,0,0:0:0:0:
120,224,77162,2,0,L|112:132,1,90
184,64,77591,1,0,0:0:0:0:
268,116,77805,1,2,2:0:0:0:
280,112,77912,1,0,0:0:0:0:
292,108,78020,1,0,0:0:0:0:
408,180,78234,6,0,P|408:240|392:336,1,135,0|0,0:0|2:0,0:0:0:0:
404,328,78662,1,0,0:0:0:0:
284,348,78877,2,0,P|236:344|184:352,1,90
100,320,79305,1,0,0:0:0:0:
172,252,79520,1,2,2:0:0:0:
172,252,79627,1,0,0:0:0:0:
172,252,79734,1,0,0:0:0:0:
196,348,79948,1,0,0:0:0:0:
48,220,80377,6,0,P|40:156|44:72,1,135,0|0,0:0|2:0,0:0:0:0:
28,76,80805,1,0,0:0:0:0:
188,164,81020,2,0,P|180:216|172:264,1,90,0|2,0:0|2:0,0:0:0:0:
184,268,81341,1,0,0:0:0:0:
192,280,81448,1,0,0:0:0:0:
320,252,81662,1,0,0:0:0:0:
256,192,81877,12,0,83377,0:0:0:0:
120,152,83591,5,0,0:0:0:0:
128,156,83698,1,0,0:0:0:0:
184,284,83912,1,0,0:0:0:0:
188,276,84020,1,0,0:0:0:0:
260,184,84234,1,0,0:0:0:0:
268,180,84341,1,0,0:0:0:0:
276,176,84448,1,0,0:0:0:0:
372,196,84662,5,0,0:0:0:0:
456,140,84877,1,0,0:0:0:0:
456,128,84984,1,0,0:0:0:0:
456,116,85091,1,8,0:0:0:0:
136,120,85305,5,4,0:0:0:0:
136,120,85948,5,2,0:0:0:0:
232,104,86162,1,0,0:0:0:0:
252,200,86376,1,2,0:0:0:0:
156,220,86590,1,0,0:0:0:0:
192,160,86805,1,2,0:0:0:0:
444,156,89377,5,2,0:0:0:0:
348,140,89591,1,0,0:0:0:0:
328,236,89805,1,2,0:0:0:0:
424,256,90019,1,0,0:0:0:0:
388,192,90234,1,2,0:0:0:0:
100,240,91948,5,8,0:0:0:0:
100,240,92805,5,2,0:0:0:0:
196,224,93019,1,0,0:0:0:0:
216,320,93233,1,2,0:0:0:0:
120,340,93447,1,0,0:0:0:0:
156,276,93662,1,2,0:0:0:0:
448,260,96234,5,2,0:0:0:0:
352,244,96448,1,0,0:0:0:0:
332,340,96662,1,2,0:0:0:0:
428,360,96876,1,0,0:0:0:0:
392,296,97091,1,2,0:0:0:0:
72,240,97305,5,0,1:0:0:0:
80,236,97519,1,0,1:0:0:0:
64,124,97734,1,0,1:0:0:0:
72,124,97948,1,0,1:0:0:0:
176,60,98162,1,0,1:0:0:0:
176,68,98377,1,0,1:0:0:0:
268,144,98591,1,0,1:0:0:0:
260,148,98698,1,0,0:0:0:0:
252,152,98805,1,0,1:0:0:0:
180,320,99019,6,0,P|248:316|320:328,1,135
328,332,99448,2,0,P|332:280|340:240,1,90,8|0,0:0|0:0,0:0:0:0:
500,188,99877,2,0,P|496:240|488:280,1,90,0|0,0:0|0:0,0:0:0:0:
400,168,100305,2,0,P|336:144|268:176,1,135,8|0,0:0|0:0,0:0:0:0:
268,168,100734,1,0,0:0:0:0:
124,120,100948,1,0,0:0:0:0:
224,64,101162,2,0,L|328:52,1,90,8|0,0:0|0:0,0:0:0:0:
124,120,101591,2,0,L|20:108,1,90,0|0,0:0|0:0,0:0:0:0:
128,260,102019,2,0,P|200:248|264:244,1,135,8|0,0:0|0:0,0:0:0:0:
268,248,102448,5,0,0:0:0:0:
384,308,102662,1,0,0:0:0:0:
368,196,102877,1,8,0:0:0:0:
268,248,103091,1,0,0:0:0:0:
384,308,103305,2,0,L|492:312,1,90
368,196,103734,2,0,L|460:200,1,90,8|0,0:0|0:0,0:0:0:0:
340,96,104162,6,0,L|432:100,1,90
436,88,104591,1,8,0:0:0:0:
440,76,105019,1,0,0:0:0:0:
220,52,105341,1,0,0:0:0:0:
220,52,105448,1,8,0:0:0:0:
340,96,105662,1,8,0:0:0:0:
228,160,105877,6,0,L|93:164,1,135,4|0,0:0|0:0,0:0:0:0:
88,152,106305,1,8,0:0:0:0:
68,48,106519,1,0,0:0:0:0:
24,224,106734,2,0,P|20:272|16:316,1,90
228,160,107162,2,0,P|224:216|220:296,1,135,8|0,0:0|0:0,0:0:0:0:
228,304,107591,1,0,0:0:0:0:
336,284,107805,1,0,0:0:0:0:
412,360,108019,2,0,L|508:356,1,90,8|0,0:0|0:0,0:0:0:0:
320,164,108448,2,0,L|224:160,1,90,0|8,0:0|0:0,0:0:0:0:
92,300,108877,2,0,L|232:304,1,135,8|0,0:0|0:0,0:0:0:0:
236,296,109305,5,0,0:0:0:0:
320,164,109519,1,0,0:0:0:0:
156,164,109734,1,8,0:0:0:0:
236,212,109948,1,0,0:0:0:0:
320,164,110162,2,0,L|416:152,1,90
408,44,110591,6,0,L|316:56,1,90,8|0,0:0|0:0,0:0:0:0:
308,48,111019,1,0,0:0:0:0:
304,40,111448,1,8,0:0:0:0:
300,32,111877,1,0,0:0:0:0:
48,156,112198,1,0,0:0:0:0:
48,156,112305,1,8,0:0:0:0:
176,144,112519,1,8,0:0:0:0:
48,156,112734,6,0,P|44:216|56:296,1,135,4|0,0:0|0:0,0:0:0:0:
60,296,113162,1,8,0:0:0:0:
164,352,113377,1,0,0:0:0:0:
276,316,113591,2,0,L|380:312,1,90
492,228,114019,2,0,P|432:220|356:220,1,135,8|0,0:0|0:0,0:0:0:0:
352,216,114448,1,0,0:0:0:0:
360,112,114662,1,0,0:0:0:0:
260,144,114877,2,0,P|216:144|164:136,1,90,8|0,0:0|0:0,0:0:0:0:
360,112,115305,2,0,P|364:68|384:24,1,90
352,216,115734,2,0,P|360:276|348:352,1,135,8|0,0:0|0:0,0:0:0:0:
336,352,116162,6,0,L|244:344,1,90
128,312,116591,2,0,L|24:320,1,90,8|0,0:0|0:0,0:0:0:0:
54,182,117019,2,0,L|144:176,1,90
262,208,117448,2,0,L|352:216,1,90,8|0,0:0|0:0,0:0:0:0:
464,136,117877,6,0,P|476:92|472:44,1,90
484,40,118305,1,8,0:0:0:0:
484,40,118734,1,0,0:0:0:0:
372,72,119055,1,0,0:0:0:0:
372,72,119162,1,8,0:0:0:0:
256,36,119377,1,8,0:0:0:0:
144,64,119591,6,0,P|88:68|-4:84,1,135,4|0,0:0|0:0,0:0:0:0:
0,84,120019,2,0,P|4:132|8:176,1,90,8|0,0:0|0:0,0:0:0:0:
160,188,120448,2,0,P|156:236|152:280,1,90
72,372,120877,2,0,P|56:300|48:220,1,135,8|0,0:0|0:0,0:0:0:0:
40,232,121305,1,0,0:0:0:0:
160,188,121519,1,0,0:0:0:0:
280,148,121734,2,0,P|324:148|372:152,2,90,8|0|0,0:0|0:0|0:0,0:0:0:0:
160,188,122377,1,8,0:0:0:0:
128,80,122591,2,0,P|80:80|36:84,1,90,8|0,0:0|0:0,0:0:0:0:
256,40,123019,6,0,L|416:44,1,135
400,40,123448,1,8,0:0:0:0:
452,144,123662,1,0,0:0:0:0:
476,260,123877,2,0,P|468:312|448:360,1,90
328,328,124305,2,0,P|288:316|240:320,1,90,8|0,0:0|0:0,0:0:0:0:
128,348,124734,6,0,P|108:296|112:216,1,135
116,208,125162,2,0,L|108:112,1,90,8|0,0:0|0:0,0:0:0:0:
208,32,125591,2,0,L|224:220,1,180,0|8,0:0|0:0,0:0:0:0:
116,208,126234,1,8,0:0:0:0:
228,216,126448,5,4,0:0:0:0:
320,348,126877,1,8,0:0:0:0:
404,216,127305,1,0,0:0:0:0:
240,304,127734,1,8,0:0:0:0:
404,300,128162,1,0,0:0:0:0:
316,168,128591,1,8,0:0:0:0:
316,168,129019,1,0,0:0:0:0:
384,96,129234,1,8,0:0:0:0:
280,80,129448,2,0,P|220:72|144:76,1,135,8|0,0:0|0:0,0:0:0:0:
136,64,129877,6,0,P|132:112|124:156,1,90
27,276,130305,2,0,P|20:244|16:184,1,90,8|0,0:0|0:0,0:0:0:0:
120,248,130734,2,0,P|172:232|268:264,1,135
260,240,131162,1,8,0:0:0:0:
336,304,131377,1,0,0:0:0:0:
432,276,131591,2,0,P|464:216|448:104,2,180,0|8|0,0:0|0:0|0:0,0:0:0:0:
432,276,132877,1,8,0:0:0:0:
336,304,133091,1,8,0:0:0:0:
356,116,133305,5,4,0:0:0:0:
361,119,133519,2,0,B|452:106,2,90,0|8|0,0:0|0:0|0:0,0:0:0:0:
256,240,134377,2,0,B|151:229,1,90,0|8,0:0|0:0,0:0:0:0:
159,240,134805,1,0,0:0:0:0:
44,160,135234,1,0,0:0:0:0:
48,164,135448,1,8,0:0:0:0:
52,168,135662,2,0,B|88:96|36:40,1,135,0|8,0:0|0:0,0:0:0:0:
28,40,136091,2,0,B|124:20,1,90,0|8,0:0|0:0,0:0:0:0:
220,8,136519,1,0,0:0:0:0:
188,92,136734,5,4,1:0:0:0:
280,88,136948,1,0,0:0:0:0:
312,0,137162,1,2,0:0:0:0:
220,8,137377,1,0,0:0:0:0:
244,176,137591,1,0,0:0:0:0:
332,164,137806,1,0,0:0:0:0:
368,80,138020,1,2,0:0:0:0:
280,88,138234,1,0,0:0:0:0:
244,176,138448,6,0,L|240:236,3,45
232,236,138877,1,0,0:0:0:0:
224,252,138984,1,0,0:0:0:0:
216,268,139091,1,0,0:0:0:0:
208,284,139198,1,0,0:0:0:0:
200,300,139305,5,0,0:0:0:0:
200,300,139412,1,0,0:0:0:0:
200,300,139520,1,0,0:0:0:0:
200,300,139627,1,0,0:0:0:0:
200,300,139734,1,8,0:0:0:0:
200,300,139841,1,0,0:0:0:0:
200,300,139948,1,8,0:0:0:0:
200,300,140055,1,0,0:0:0:0:
244,376,140162,5,12,0:0:0:0:
128,112,153877,5,2,0:0:0:0:
352,164,154198,1,0,0:0:0:0:
356,168,154305,2,0,L|456:160,1,90,8|2,0:0|0:0,0:0:0:0:
280,320,154841,1,2,0:0:0:0:
276,316,154948,1,0,0:0:0:0:
168,192,155162,1,8,0:0:0:0:
264,220,155377,1,0,0:0:0:0:
264,220,155484,1,0,0:0:0:0:
264,220,155591,1,2,0:0:0:0:
96,256,155913,5,0,0:0:0:0:
92,260,156020,2,0,L|-8:252,1,90,8|2,0:0|0:0,0:0:0:0:
264,220,156555,1,2,0:0:0:0:
272,216,156662,1,0,0:0:0:0:
344,136,156877,1,8,0:0:0:0:
428,216,157091,1,0,0:0:0:0:
440,212,157198,1,0,0:0:0:0:
452,208,157305,1,2,0:0:0:0:
276,308,157627,5,0,0:0:0:0:
272,312,157734,2,0,L|168:308,1,90,8|2,0:0|0:0,0:0:0:0:
12,224,158270,1,2,0:0:0:0:
16,220,158377,1,0,0:0:0:0:
104,192,158591,1,8,0:0:0:0:
192,156,158805,1,0,0:0:0:0:
196,144,158912,1,0,0:0:0:0:
200,128,159020,1,2,0:0:0:0:
400,88,159341,5,0,0:0:0:0:
404,92,159448,2,0,L|400:188,1,90,8|2,0:0|0:0,0:0:0:0:
368,328,159984,1,2,0:0:0:0:
356,324,160091,1,0,0:0:0:0:
240,284,160305,1,8,0:0:0:0:
124,344,160520,1,2,0:0:0:0:
116,328,160627,1,0,0:0:0:0:
112,308,160734,1,2,0:0:0:0:
112,284,160841,1,0,0:0:0:0:
116,264,160948,5,2,0:0:0:0:
76,116,161162,1,8,0:0:0:0:
76,116,161377,2,0,L|212:104,1,135
216,92,161805,1,2,0:0:0:0:
324,160,162020,6,0,L|416:152,1,90,8|2,0:0|0:0,0:0:0:0:
480,224,162448,5,0,0:0:0:0:
472,336,162662,1,2,0:0:0:0:
360,324,162877,1,8,0:0:0:0:
368,216,163091,1,0,0:0:0:0:
200,172,163412,1,2,0:0:0:0:
204,176,163520,1,0,0:0:0:0:
280,232,163734,6,0,L|372:216,1,90,8|2,0:0|0:0,0:0:0:0:
420,80,164162,5,0,0:0:0:0:
368,216,164377,1,2,0:0:0:0:
420,80,164591,1,8,0:0:0:0:
280,100,164805,1,0,0:0:0:0:
52,168,165127,1,2,0:0:0:0:
56,168,165234,1,0,0:0:0:0:
124,244,165448,5,8,0:0:0:0:
196,324,165662,1,0,0:0:0:0:
288,284,165877,5,0,0:0:0:0:
368,228,166091,1,2,0:0:0:0:
452,176,166305,1,8,0:0:0:0:
472,248,166520,6,0,P|456:184|464:116,1,135
456,108,166948,1,2,0:0:0:0:
320,72,167162,1,8,0:0:0:0:
412,8,167377,1,0,0:0:0:0:
408,12,167484,1,0,0:0:0:0:
404,16,167591,5,4,1:0:0:0:
148,140,167912,1,0,0:0:0:0:
144,148,168020,2,0,L|148:240,1,90,8|0,1:0|0:0,0:0:0:0:
264,312,168448,2,0,L|260:222,1,90,0|0,0:0|0:0,0:0:0:0:
320,128,168877,2,0,L|220:136,1,90,8|0,1:0|0:0,0:0:0:0:
260,224,169305,6,0,L|420:212,1,135
404,204,169734,1,8,1:0:0:0:
448,116,169948,1,0,0:0:0:0:
260,92,170162,2,0,P|216:88|172:96,1,90
80,200,170591,2,0,P|128:204|168:192,1,90,8|0,1:0|0:0,0:0:0:0:
260,224,171020,6,0,P|252:288|280:388,1,135
280,360,171448,1,8,1:0:0:0:
376,336,171662,1,0,0:0:0:0:
468,304,171877,1,0,0:0:0:0:
376,336,172091,5,0,0:0:0:0:
188,360,172305,2,0,L|88:356,1,90,8|0,1:0|0:0,0:0:0:0:
92,340,172627,1,0,0:0:0:0:
88,324,172734,1,0,0:0:0:0:
84,308,172841,1,0,0:0:0:0:
80,292,172948,1,0,0:0:0:0:
44,176,173162,5,8,1:0:0:0:
120,112,173377,1,0,0:0:0:0:
120,112,173591,2,0,P|184:100|256:100,1,135
268,88,174019,1,8,0:0:0:0:
464,128,174234,1,8,0:0:0:0:
364,108,174448,6,0,L|372:244,1,135,4|0,0:0|0:0,0:0:0:0:
384,248,174877,1,8,1:0:0:0:
452,320,175091,1,0,0:0:0:0:
308,344,175305,2,0,L|212:340,1,90
236,244,175734,2,0,L|140:240,1,90,8|0,1:0|0:0,0:0:0:0:
60,192,176162,6,0,P|44:132|44:60,1,135
28,48,176591,1,8,1:0:0:0:
236,244,176805,1,0,0:0:0:0:
236,244,177020,2,0,P|240:188|244:100,1,135
260,100,177448,1,8,1:0:0:0:
320,20,177662,1,0,0:0:0:0:
220,12,177877,1,0,0:0:0:0:
384,148,178305,5,8,1:0:0:0:
372,248,178520,1,0,0:0:0:0:
216,240,178948,1,0,0:0:0:0:
232,336,179162,1,8,1:0:0:0:
60,144,179377,5,0,0:0:0:0:
64,160,179484,1,0,0:0:0:0:
68,176,179591,1,0,0:0:0:0:
188,184,179805,1,0,0:0:0:0:
184,200,179912,1,0,0:0:0:0:
180,212,180020,1,8,1:0:0:0:
292,136,180234,1,0,0:0:0:0:
296,148,180341,1,0,0:0:0:0:
300,160,180448,1,0,0:0:0:0:
448,164,180662,5,0,0:0:0:0:
444,176,180770,1,0,0:0:0:0:
440,188,180877,1,8,1:0:0:0:
432,200,180984,1,0,0:0:0:0:
428,212,181091,1,8,0:0:0:0:
420,224,181198,1,0,0:0:0:0:
416,236,181305,5,4,1:0:0:0:
288,340,181627,1,0,0:0:0:0:
288,340,181734,2,0,L|196:336,1,90,8|2,1:0|0:0,0:0:0:0:
112,288,182162,2,0,P|100:240|104:200,1,90
188,144,182591,2,0,L|277:147,1,90,8|2,1:0|0:0,0:0:0:0:
420,212,183020,6,0,P|424:160|424:68,1,135
436,60,183448,2,0,L|460:160,1,90,8|2,1:0|0:0,0:0:0:0:
320,152,183877,2,0,L|312:252,1,90,0|2,0:0|0:0,0:0:0:0:
192,76,184305,2,0,L|200:176,1,90,8|0,1:0|0:0,0:0:0:0:
88,276,184734,6,0,P|80:200|80:116,1,135
56,128,185162,1,8,1:0:0:0:
136,72,185377,1,2,0:0:0:0:
156,168,185591,1,0,0:0:0:0:
56,128,185805,1,0,0:0:0:0:
136,72,186020,2,0,L|240:64,1,90,8|2,1:0|0:0,0:0:0:0:
240,68,186341,1,0,0:0:0:0:
252,72,186448,1,0,0:0:0:0:
264,76,186555,1,0,0:0:0:0:
276,80,186662,1,2,0:0:0:0:
432,120,186877,6,0,P|432:168|424:216,1,90,8|2,1:0|0:0,0:0:0:0:
304,200,187305,2,0,P|308:264|324:360,1,135
304,348,187734,1,8,1:0:0:0:
228,268,187948,1,8,0:0:0:0:
376,280,188162,5,4,1:0:0:0:
116,224,188484,1,0,0:0:0:0:
108,220,188591,2,0,L|104:124,1,90,8|2,1:0|0:0,0:0:0:0:
212,44,189020,2,0,L|212:144,1,90,0|2,0:0|0:0,0:0:0:0:
312,204,189448,2,0,L|316:112,1,90,8|0,1:0|0:0,0:0:0:0:
432,36,189877,6,0,L|428:104|424:172,1,135
436,180,190305,2,0,L|428:272,1,90,8|2,1:0|0:0,0:0:0:0:
312,204,190734,2,0,L|304:296,1,90,0|2,0:0|0:0,0:0:0:0:
188,204,191162,1,8,1:0:0:0:
176,76,191377,1,2,0:0:0:0:
304,72,191591,1,0,0:0:0:0:
312,204,191805,5,0,0:0:0:0:
188,204,192020,2,0,L|76:212,1,90,8|0,1:0|0:0,0:0:0:0:
216,76,192448,2,0,L|324:72,1,90
460,100,192877,1,8,1:0:0:0:
460,100,193091,5,2,0:0:0:0:
460,100,193198,1,0,0:0:0:0:
460,100,193305,2,0,L|432:64,3,45,0|0|2|0,0:0|0:0|0:0|0:0,0:0:0:0:
456,128,193734,2,0,L|484:164,3,45,0|0|2|0,0:0|0:0|0:0|0:0,0:0:0:0:
448,144,194162,5,0,1:0:0:0:
444,156,194270,1,0,0:0:0:0:
440,172,194377,1,0,0:0:0:0:
436,184,194484,1,0,0:0:0:0:
440,200,194591,1,0,1:0:0:0:
444,212,194698,1,0,0:0:0:0:
448,224,194805,1,8,0:0:0:0:
452,236,194912,1,0,0:0:0:0:
456,248,195020,6,0,P|408:252|312:280,1,135,4|0,0:0|0:0,0:0:0:0:
212,284,195448,2,0,L|108:276,1,90,8|0,0:0|0:0,0:0:0:0:
40,160,195877,2,0,L|129:166,1,90
256,160,196305,2,0,P|272:112|268:8,1,135,8|0,0:0|0:0,0:0:0:0:
280,24,196734,5,0,0:0:0:0:
136,72,196948,1,0,0:0:0:0:
256,160,197162,1,8,0:0:0:0:
280,24,197377,1,0,0:0:0:0:
136,72,197591,2,0,L|32:64,1,90
0,224,198020,2,0,P|64:212|136:208,1,135,8|0,0:0|0:0,0:0:0:0:
256,160,198448,6,0,L|352:168,1,90
468,276,198877,2,0,L|372:284,1,90,8|0,0:0|0:0,0:0:0:0:
248,348,199305,2,0,P|204:336|148:340,1,90
0,256,199734,6,0,P|44:268|88:264,1,90,8|0,0:0|0:0,0:0:0:0:
200,176,200162,2,0,P|116:168|44:180,1,135
66,174,200591,2,0,L|48:76,1,90,8|0,0:0|0:0,0:0:0:0:
200,176,201020,2,0,L|216:328,1,135
224,320,201448,1,8,0:0:0:0:
416,196,201662,1,8,0:0:0:0:
416,196,201877,6,0,P|428:140|428:56,1,135,4|0,0:0|0:0,0:0:0:0:
436,56,202305,1,8,0:0:0:0:
340,84,202520,1,0,0:0:0:0:
244,64,202734,1,0,0:0:0:0:
164,4,202948,1,0,0:0:0:0:
128,140,203162,2,0,P|64:152|-12:180,1,135,8|0,0:0|0:0,0:0:0:0:
40,256,203591,6,0,P|40:304|32:352,1,90
0,176,204020,2,0,P|0:128|8:80,1,90,8|0,0:0|0:0,0:0:0:0:
80,20,204448,1,0,0:0:0:0:
116,112,204662,1,8,0:0:0:0:
8,88,204877,1,8,0:0:0:0:
80,20,205091,1,0,0:0:0:0:
116,112,205305,6,0,P|172:104|216:104,1,90
240,296,205734,2,0,P|197:258|169:224,1,90,8|0,0:0|0:0,0:0:0:0:
344,108,206162,2,0,P|328:156|304:192,1,90
240,296,206591,6,0,P|192:300|144:312,1,90,8|0,0:0|0:0,0:0:0:0:
28,196,207020,2,0,P|112:196|188:216,1,135
232,152,207448,2,0,P|244:104|248:48,1,90,8|0,0:0|0:0,0:0:0:0:
344,144,207877,2,0,P|344:200|360:292,1,135
368,288,208305,1,8,0:0:0:0:
492,76,208520,1,8,0:0:0:0:
344,108,208734,6,0,P|268:104|200:108,1,135,4|0,0:0|0:0,0:0:0:0:
136,64,209162,2,0,L|40:76,1,90,8|0,0:0|0:0,0:0:0:0:
92,260,209591,2,0,L|188:248,1,90
312,308,210020,1,8,0:0:0:0:
312,308,210448,5,0,0:0:0:0:
292,184,210662,1,0,0:0:0:0:
180,248,210877,1,8,0:0:0:0:
312,308,211091,1,0,0:0:0:0:
292,184,211305,2,0,L|404:180,1,90
464,72,211734,2,0,B|424:73|424:73|384:90|384:90|328:92,1,135,8|0,0:0|0:0,0:0:0:0:
248,68,212162,6,0,L|152:60,1,90
68,164,212591,2,0,L|184:176,1,90,8|0,0:0|0:0,0:0:0:0:
292,184,213020,2,0,P|276:224|272:276,1,90
440,384,213448,6,0,P|456:344|460:292,1,90,8|0,0:0|0:0,0:0:0:0:
460,297,213877,2,0,P|328:284|260:304,1,180,0|8,0:0|0:0,0:0:0:0:
204,232,214520,1,0,0:0:0:0:
296,184,214734,2,0,L|448:176,1,135
440,164,215162,1,8,0:0:0:0:
480,72,215377,1,8,0:0:0:0:
296,184,215591,6,0,P|236:180|152:184,1,135,4|0,0:0|0:0,0:0:0:0:
156,168,216020,1,8,0:0:0:0:
24,112,216234,1,0,0:0:0:0:
136,72,216448,2,0,L|240:64,1,90
96,264,216877,2,0,L|-8:256,1,90,8|0,0:0|0:0,0:0:0:0:
8,240,217198,1,0,0:0:0:0:
8,224,217305,5,0,0:0:0:0:
96,264,217520,1,0,0:0:0:0:
188,300,217734,2,0,L|284:288,1,90,8|0,0:0|0:0,0:0:0:0:
328,384,218162,2,0,L|424:372,1,90,0|8,0:0|0:0,0:0:0:0:
392,268,218591,2,0,P|416:208|388:132,1,135,8|0,0:0|0:0,0:0:0:0:
408,136,219020,5,0,0:0:0:0:
276,156,219234,1,0,0:0:0:0:
256,32,219448,1,8,0:0:0:0:
384,12,219662,1,0,0:0:0:0:
408,136,219877,1,0,0:0:0:0:
276,156,220091,1,0,0:0:0:0:
256,32,220305,1,8,0:0:0:0:
384,12,220519,1,0,0:0:0:0:
332,84,220734,5,0,0:0:0:0:
332,84,221162,1,8,0:0:0:0:
168,144,221591,1,0,0:0:0:0:
164,148,221698,1,0,0:0:0:0:
132,312,221912,1,0,0:0:0:0:
140,308,222020,1,8,0:0:0:0:
292,336,222234,1,8,0:0:0:0:
304,332,222341,1,0,0:0:0:0:
316,328,222448,6,0,P|380:316|452:320,1,135,4|0,0:0|0:0,0:0:0:0:
480,240,222877,2,0,P|488:192|484:148,1,90,8|0,0:0|0:0,0:0:0:0:
368,40,223305,2,0,P|360:87|364:131,1,90
240,168,223734,2,0,L|88:160,1,135,8|0,0:0|0:0,0:0:0:0:
100,144,224162,5,0,0:0:0:0:
132,344,224377,1,0,0:0:0:0:
100,144,224591,1,8,0:0:0:0:
132,344,224805,1,0,0:0:0:0:
232,332,225020,2,0,P|288:332|336:348,1,90
432,368,225448,2,0,P|440:320|432:272,1,90,8|0,0:0|0:0,0:0:0:0:
444,268,225770,1,0,0:0:0:0:
452,256,225877,5,0,0:0:0:0:
508,176,226091,1,0,0:0:0:0:
408,168,226305,1,8,0:0:0:0:
452,256,226520,1,0,0:0:0:0:
508,176,226734,2,0,L|512:84,1,90
276,32,227162,6,0,L|272:121,1,90,8|0,0:0|0:0,0:0:0:0:
160,168,227591,2,0,P|160:228|184:356,1,180,0|8,0:0|0:0,0:0:0:0:
180,345,228234,1,0,0:0:0:0:
280,328,228448,1,0,0:0:0:0:
376,312,228662,1,0,0:0:0:0:
304,172,228877,2,0,L|196:188,1,90,8|8,0:0|0:0,0:0:0:0:
232,292,229305,6,0,P|316:312|384:336,1,135,4|0,0:0|0:0,0:0:0:0:
432,280,229734,2,0,L|536:268,1,90,8|0,0:0|0:0,0:0:0:0:
395,153,230162,2,0,L|305:163,1,90
172,120,230591,2,0,P|88:120|8:136,1,135,8|0,0:0|0:0,0:0:0:0:
24,212,231020,2,0,P|16:256|24:308,1,90
174,208,231448,2,0,P|180:164|172:120,1,90,8|0,0:0|0:0,0:0:0:0:
220,344,231877,2,0,L|324:336,1,90,0|8,0:0|0:0,0:0:0:0:
464,228,232305,2,0,L|324:240,1,135,8|0,0:0|0:0,0:0:0:0:
320,228,232734,5,0,0:0:0:0:
248,160,232948,1,0,0:0:0:0:
176,92,233162,1,8,0:0:0:0:
272,60,233377,1,0,0:0:0:0:
272,60,233484,1,0,0:0:0:0:
272,60,233591,1,0,0:0:0:0:
248,160,233805,1,0,0:0:0:0:
176,92,234020,6,0,L|72:80,1,90,8|0,0:0|0:0,0:0:0:0:
14,189,234448,2,0,L|104:200,1,90,0|0,0:0|0:0,0:0:0:0:
286,302,234877,2,0,P|192:304|108:320,2,180,8|0|8,0:0|0:0|0:0,0:0:0:0:
244,212,235948,1,8,0:0:0:0:
192,120,236162,6,0,P|280:112|348:112,1,135,4|0,0:0|0:0,0:0:0:0:
436,160,236591,2,0,P|448:108|440:56,1,90,8|0,0:0|0:0,0:0:0:0:
296,216,237020,2,0,P|284:268|292:320,1,90
368,160,237448,2,0,P|316:124|248:136,1,135,8|0,0:0|0:0,0:0:0:0:
180,76,237877,6,0,L|68:88,1,90
16,220,238305,2,0,L|105:210,1,90,8|0,0:0|0:0,0:0:0:0:
204,196,238734,1,0,0:0:0:0:
300,176,238948,1,0,0:0:0:0:
396,156,239162,2,0,P|480:144|536:144,1,135,8|0,0:0|0:0,0:0:0:0:
504,232,239591,6,0,P|508:272|508:332,1,90
400,244,240020,2,0,P|397:194|397:154,1,90,8|0,0:0|0:0,0:0:0:0:
308,280,240448,2,0,P|312:320|312:380,1,90
208,288,240877,6,0,P|205:238|205:198,1,90,8|0,0:0|0:0,0:0:0:0:
120,116,241305,2,0,L|16:112,2,90,0|0|8,0:0|0:0|0:0,0:0:0:0:
208,196,241948,1,0,0:0:0:0:
284,136,242162,2,0,P|379:131|464:132,1,180,0|8,0:0|0:0,0:0:0:0:
463,131,242805,1,8,0:0:0:0:
228,80,243020,6,0,P|156:76|92:80,1,135,4|0,0:0|0:0,0:0:0:0:
84,68,243448,1,8,0:0:0:0:
36,196,243662,1,0,0:0:0:0:
156,272,243877,2,0,L|256:264,1,90
402,356,244305,2,0,L|268:368,1,135,8|0,0:0|0:0,0:0:0:0:
260,360,244734,5,0,0:0:0:0:
156,272,244948,1,0,0:0:0:0:
300,240,245162,1,8,0:0:0:0:
260,360,245377,1,0,0:0:0:0:
156,272,245591,2,0,L|148:176,1,90,0|8,0:0|0:0,0:0:0:0:
292,148,246020,2,0,L|300:240,1,90,8|0,0:0|0:0,0:0:0:0:
308,244,246341,1,0,0:0:0:0:
316,252,246448,5,0,0:0:0:0:
436,348,246662,1,0,0:0:0:0:
468,216,246877,1,8,0:0:0:0:
292,148,247091,1,0,0:0:0:0:
284,140,247198,1,0,0:0:0:0:
275,133,247305,2,0,L|267:43,1,90,0|0,0:0|0:0,0:0:0:0:
120,104,247734,6,0,L|128:194,1,90,8|0,0:0|0:0,0:0:0:0:
252,328,248162,1,0,0:0:0:0:
252,208,248377,1,0,0:0:0:0:
128,324,248591,1,8,0:0:0:0:
188,264,248805,1,0,0:0:0:0:
252,208,249020,5,0,0:0:0:0:
252,208,249127,1,0,0:0:0:0:
280,64,249341,1,0,0:0:0:0:
280,64,249448,1,8,0:0:0:0:
444,104,249662,1,8,0:0:0:0:
444,104,249770,1,0,0:0:0:0:
444,104,249877,5,4,1:0:0:0:
