osu file format v8

[General]
AudioFilename: ep7_l.mp3
AudioLeadIn: 0
PreviewTime: 58800
Countdown: 0
SampleSet: Soft
StackLeniency: 0.7
Mode: 0
LetterboxInBreaks: 1

[Editor]
Bookmarks: 20400,33200,44400,58800,71600,84400,100400,105210
DistanceSpacing: 1
BeatDivisor: 4
GridSize: 16

[Metadata]
Title:Kiri no Pithos
Artist:07th Expansion
Creator:AngelHoney
Version:Normal
Source:Umineko no Naku Koro ni
Tags:Requiem of the golden witch OP dai Pithos Sakura kanae Kino Nei E.Kida Crazy Jay pokedigi

[Difficulty]
HPDrainRate:3
CircleSize:3
OverallDifficulty:5
ApproachRate:5
SliderMultiplier:1.5
SliderTickRate:0.5

[Events]
//Background and Video events
Video,-250,"ep7.avi"
0,0,"1.jpg"
//Break Periods
//Storyboard Layer 0 (Background)
//Storyboard Layer 1 (Fail)
//Storyboard Layer 2 (Pass)
//Storyboard Layer 3 (Foreground)
//Storyboard Sound Samples
Sample,64010,0,"soft-hitclap2.wav",50
//Background Colour Transformations
3,100,163,162,255

[TimingPoints]
6010,400,4,2,1,30,1,0
44210,-100,4,2,2,50,0,0
52210,-100,4,2,1,50,0,0
52610,-100,4,2,2,50,0,0
56110,-100,4,2,1,50,0,0
56410,-100,4,2,2,50,0,0
57010,-100,4,2,1,50,0,0
57410,-100,4,2,2,50,0,0
58610,-100,4,2,1,50,0,0
58810,-100,4,2,1,50,0,1
58860,-100,4,2,1,50,0,0
59010,-100,4,2,2,50,0,0
71810,-100,4,2,1,50,0,0
72210,-100,4,2,2,50,0,0
95410,-100,4,2,1,50,0,0
95710,-100,4,2,2,40,0,0
97610,-100,4,2,2,36,0,0
98408,-100,4,2,2,30,0,0
99210,-100,4,2,2,25,0,0
100010,-100,4,2,2,20,0,0
101510,-100,4,2,2,0,0,0

[HitObjects]
80,112,20410,2,0,B|176:80|224:176,1,150,4|2
176,208,21010,2,0,B|256:256|320:176,1,150,0|2
320,128,21610,2,0,B|416:144|416:256,2,150,0|2|2
208,112,22810,1,0
96,160,23210,2,0,B|112:256,2,75,0|0|2
208,208,24010,2,0,B|224:288,1,75,0|2
320,240,24610,2,0,B|368:336,1,75,0|2
448,256,25210,2,0,B|458:358|352:400,3,150,0|2|0|2
320,288,26810,6,0,B|176:384|0:304,2,300,0|2|2
400,224,28810,1,0
464,144,29210,1,0
472,40,29610,1,0
368,48,30010,2,0,B|336:144,1,75,0|2
256,80,30610,2,0,B|224:176,1,75,0|2
144,112,31210,2,0,B|112:208,1,75,0|2
112,240,31610,6,0,B|144:320|256:320,1,150,8|2
320,256,32410,2,0,B|288:176|176:176,1,150,0|2
112,112,33210,6,0,B|176:48|272:96,2,150,12|2|2
192,176,34410,1,0
272,240,34810,2,0,B|336:304|416:272,1,150,0|2
360,192,35610,2,0,B|304:240|320:336,2,150,0|2|10
304,112,36810,6,0,B|240:176,1,75,0|2
144,176,37410,2,0,B|192:256,1,75,0|2
112,320,38010,2,0,B|208:272|288:352,1,150,0|10
240,224,38810,2,0,B|336:192|416:288,1,150,0|2
464,208,39610,5,0
400,128,40010,1,0
304,96,40410,1,0
208,112,40810,1,0
112,160,41210,2,0,B|96:256|192:304,1,150,0|2
224,208,42010,2,0,B|304:160|384:224,2,150,0|2|2
288,288,43210,2,0,B|368:336|448:272,2,150,0|2|2
256,192,44410,12,0,45610
128,144,46010,6,0,B|176:96|256:128,2,112.5,6|12|8
80,240,47010,2,0,B|176:288,1,75,0|8
248,304,47610,2,0,B|341:255|421:303,1,150,0|8
488,240,48410,2,0,B|432:160|328:176,1,150,0|8
256,176,49210,1,0
160,192,49610,1,8
128,288,50010,1,0
224,272,50410,1,8
320,256,50810,6,0,B|384:240|416:160,3,112.5,0|8|12|8
416,80,52010,2,0,B|320:80|288:176,1,150,0|4
224,80,52810,2,0,B|176:160|208:240,1,150,8|0
96,224,53610,2,0,B|176:240|208:336,1,150,8|0
288,256,54410,2,0,B|208:240|176:144,1,150,8|0
160,64,55210,1,8
256,64,55610,6,0,B|272:144|336:160,2,112.5,0|12|4
352,64,56610,2,0,B|416:144,1,75,0|8
484,71,57210,2,0,B|516:167|452:247,1,150,4|8
400,160,58010,2,0,B|352:256|256:256,1,150,0|8
288,160,58810,5,4
192,160,59210,1,8
112,224,59610,2,0,B|192:288|272:224,2,150,0|12|0
192,160,60810,2,0,B|272:128|272:32,2,150,12|0|12
96,176,62010,5,0
160,256,62410,1,8
256,240,62810,1,0
320,320,63210,1,8
416,288,63610,2,0,B|432:96|240:64,1,300
160,96,64810,5,8
224,176,65210,2,0,B|128:176|80:256,1,150,0|8
192,272,66010,2,0,B|288:256|320:336,1,150,0|8
368,240,66810,2,0,B|448:272|464:368,2,150,0|8|0
272,224,68010,1,8
176,240,68410,6,0,B|128:160|176:64,1,150,4|8
224,128,69010,2,0,B|224:32|320:0,1,150,8|8
336,64,69610,2,2,B|384:0|496:32,2,150,8|6|8
432,128,70810,6,0,B|496:208|416:288,1,150,2|2
352,208,71610,5,0
368,304,72010,2,0,B|272:288|208:352,1,150,12|2
176,256,72810,1,8
112,176,73210,2,0,B|48:240|96:336,2,150,4|8|2
160,96,74410,6,0,B|208:176|288:176,1,150,8|4
368,128,75210,1,8
448,192,75610,1,2
416,288,76010,1,8
336,352,76410,2,0,B|256:384|176:320,2,150,0|8|2
272,272,77610,5,8
192,208,78010,2,0,B|176:128|240:48,1,150,4|8
320,32,78810,2,0,B|336:112|272:192,1,150,2|8
256,272,79610,2,0,B|352:272|400:160,1,150,4|8
448,128,80410,2,0,B|496:208|448:304,1,150,2|8
400,352,81210,5,0
304,320,81610,1,0
224,256,82010,1,2
160,176,82410,1,2
128,80,82810,2,0,B|224:32|304:112,3,150,4|2|2|0
368,48,84410,6,0,B|336:208,1,150,2|0
272,128,85210,2,0,B|432:128,1,150
480,208,86010,1,0
400,272,86410,2,0,B|400:384,2,75,4|0|4
304,304,87210,1,4
272,208,87610,6,0,B|208:240|208:304,2,112.5,8|6|6
192,144,88610,2,0,B|256:96|352:112,1,150,8|0
384,112,89210,6,0,B|432:160|416:240,2,112.5,8|4|4
480,96,90210,2,0,B|448:16|352:16,1,150,8|4
320,48,90810,6,0,B|272:112|160:96,1,150,4|2
88,128,91610,2,0,B|120:208|232:208,1,150,4|2
304,224,92410,2,0,B|272:304|176:304,1,150,0|2
144,352,93010,2,0,B|256:416|368:320,1,225,0|2
432,272,94010,6,0,B|464:208|432:144,2,112.5,0|4|8
288,80,95610,2,0,B|256:144|288:208,2,112.5,4|4|8
112,272,97210,6,0,B|256:368|400:272,3,300
464,160,100410,6,0,B|336:0|112:80,1,375
256,192,101610,12,0,105210
