osu file format v8

[General]
AudioFilename: ep7_l.mp3
AudioLeadIn: 0
PreviewTime: 58800
Countdown: 0
SampleSet: Soft
StackLeniency: 0.7
Mode: 0
LetterboxInBreaks: 1

[Editor]
Bookmarks: 20400,33200,44400,58800,71600,84400,100400,105210
DistanceSpacing: 1
BeatDivisor: 4
GridSize: 8

[Metadata]
Title:Kiri no Pithos
Artist:07th Expansion
Creator:AngelHoney
Version:Hard
Source:Umineko no Naku Koro ni
Tags:Requiem of the golden witch OP dai Pithos Sakura kanae Kino Nei E.Kida Crazy Jay pokedigi

[Difficulty]
HPDrainRate:5
CircleSize:4
OverallDifficulty:7
ApproachRate:7
SliderMultiplier:2
SliderTickRate:0.5

[Events]
//Background and Video events
Video,-250,"ep7.avi"
0,0,"1.jpg"
//Break Periods
//Storyboard Layer 0 (Background)
//Storyboard Layer 1 (Fail)
//Storyboard Layer 2 (Pass)
//Storyboard Layer 3 (Foreground)
//Storyboard Sound Samples
Sample,67210,0,"soft-hitclap2.wav",50
Sample,76810,0,"soft-hitclap2.wav",50
Sample,80810,0,"soft-hitclap2.wav",50
//Background Colour Transformations
3,100,163,162,255

[TimingPoints]
6010,400,4,2,1,30,1,0
44310,-100,4,2,2,40,0,0
58710,-100,4,2,2,50,0,0
68310,-100,4,2,2,35,0,0
68910,-100,4,2,2,40,0,0
69510,-100,4,2,2,45,0,0
70110,-100,4,2,2,50,0,0
81110,-100,4,2,2,30,0,0
81910,-100,4,2,2,35,0,0
82710,-100,4,2,2,40,0,0
83510,-100,4,2,2,45,0,0
84310,-100,4,2,2,50,0,0
96414,-100,4,2,2,30,0,0
97110,-100,4,2,2,20,0,0
98610,-100,4,2,2,0,0,0
100410,3200,4,2,1,0,1,0

[HitObjects]
96,112,20410,6,0,B|160:16|304:48,1,200,4|2
208,128,21010,2,0,B|336:112|416:224,1,200,0|2
288,224,21610,2,0,B|352:256|352:336,1,100,0|2
240,304,22010,2,0,B|192:272|192:208,2,100,0|0|2
112,160,22610,2,0,B|80:208|112:272,2,100,0|0|2
176,96,23210,5,0
256,128,23410,1,0
336,80,23610,2,0,B|320:144|400:192,1,100,0|2
432,112,24010,2,0,B|488:144|472:208,2,100,0|0|2
368,192,24610,2,0,B|320:224|336:296,1,100,0|2
256,336,25010,1,0
192,272,25211,2,0,B|256:256|272:192,1,100,0|2
192,144,25610,2,0,B|288:96|400:128,1,200,0|2
336,48,26210,2,0,B|240:16|128:32,1,200,0|2
112,128,26810,6,0,B|112:208|176:240,1,100,0|2
224,160,27210,1,0
304,224,27410,2,0,B|416:176|512:288,2,200,0|2|2
208,240,28410,2,0,B|200:352|64:368,1,200,0|2
32,288,29010,1,0
80,208,29210,2,0,B|80:128|144:96,1,100,0|2
208,96,29610,2,0,B|208:176|144:208,1,100,0|2
288,160,30010,5,0
256,256,30210,2,0,B|304:272|384:224,1,100,0|2
432,176,30610,2,0,B|464:224|448:304,1,100,0|2
384,336,31010,2,0,B|320:336|272:288,1,100,0|2
208,256,31410,2,0,B|160:352|48:368,1,200,0|2
64,272,32010,1,0
80,176,32210,2,0,B|200:184|304:112,1,200,2|2
384,80,32810,6,0,B|400:160|336:208,1,100,0|2
288,112,33210,2,0,B|264:224|168:288,1,200,4|2
96,240,33810,1,0
144,160,34010,2,0,B|272:160|320:304,1,200,0|2
208,320,34610,2,0,B|240:384|320:384,1,100,0|2
384,368,35010,1,0
352,272,35210,1,2
416,192,35410,1,0
432,96,35610,2,0,B|368:96|320:160,1,100,0|2
256,96,36010,2,0,B|224:160|288:224,1,100,0|2
160,64,36410,6,0,B|112:176|192:272,2,200,8|2|2
64,48,37410,1,0
32,144,37610,2,0,B|96:128|160:176,1,100,0|2
80,240,38010,2,0,B|208:256|240:384,1,200,0|10
304,288,38610,1,0
320,192,38810,2,0,B|272:176|248:120,1,100,0|10
368,112,39210,2,0,B|416:128|448:192,1,100,0|2
400,272,39610,6,0,B|432:320,2,50,8|0|0
320,208,40010,2,0,B|448:192|480:64,1,200,2|2
384,48,40610,1,0
288,32,40810,1,0
200,72,41010,1,0
160,160,41210,2,0,B|272:128|368:208,1,200,2|2
296,312,41810,6,0,B|240:320|184:288,1,100,0|2
256,224,42210,2,0,B|320:240|368:192,1,100,0|2
288,144,42610,2,0,B|224:144|176:112,1,100,0|2
112,80,43010,1,0
64,160,43210,1,0
144,208,43410,1,0
160,304,43610,2,0,B|256:256|368:272,1,200,0|2
448,288,44210,1,0
416,192,44410,2,0,B|304:176|224:64,1,200,12|10
80,192,45210,2,0,B|184:232|208:344,1,200,4|10
128,64,46010,6,0,B|208:48|288:80,2,150,0|2|8
224,176,46910,2,0,B|288:208,1,50,4|0
352,224,47210,1,8
400,304,47410,2,0,B|424:360,2,50,0|0|4
304,288,47810,2,0,B|304:344,2,50,0|0|4
208,256,48210,2,0,B|184:328,2,50,0|0|4
128,192,48610,2,0,B|176:144|256:176,2,100,4|14|4
320,192,49210,6,0,B|368:256,2,50,0|0|4
400,144,49610,2,0,B|464:176,2,50,8|0|4
448,64,50010,2,0,B|504:72,2,50,0|0|4
352,32,50410,2,0,B|304:0|224:32,2,100,12|6|4
288,192,51110,2,0,B|224:272|112:224,2,150,8|6|8
192,144,52010,6,0,B|168:88,4,50,4|4|4|4|14
400,208,52710,1,4
384,240,52810,2,0,B|336:352|176:336,1,200,8|4
256,240,53410,1,4
160,208,53610,2,0,B|144:336|16:352,2,200,12|4|8
48,224,54610,2,0,B|64:96|192:80,1,200,4|0
256,144,55210,2,0,B|272:216,2,50,12|4|4
176,224,55610,5,12
288,320,55910,1,12
416,256,56210,1,12
448,112,56510,2,0,B|504:104,1,50,4|0
400,32,56810,2,0,B|320:48,2,50,8|0|0
352,128,57210,2,0,B|320:192|232:192,1,100,4|0
240,96,57610,2,0,B|176:104|152:160,1,100,12|0
80,208,58010,2,0,B|112:272|208:256,1,100,12|8
240,320,58410,2,0,B|176:320|136:360,1,100,12|0
288,144,58810,6,0,B|336:224|272:368,1,200,4|8
208,272,59410,1,4
160,192,59610,2,0,B|288:160|392:232,1,200,0|8
336,112,60210,1,4
448,80,60410,2,0,B|400:128|424:200,1,100,4|0
512,176,60810,2,0,B|528:224|480:272,1,100,12|4
384,256,61210,2,0,B|336:304|352:368,1,100,0|0
256,304,61610,6,0,B|144:368|48:240,1,200,8|4
16,192,62210,1,0
96,128,62410,2,0,B|128:176|224:176,1,100,8|4
288,160,62810,1,0
384,128,63010,1,4
416,224,63210,1,8
320,256,63410,1,4
224,224,63610,2,0,B|208:128|320:96,1,150,0|4
336,128,64010,2,0,B|400:144|456:80,1,100,8|4
496,32,64410,2,0,B|432:16,2,50
512,128,64810,6,0,B|464:240|320:224,1,200,8|0
256,224,65410,1,0
320,144,65610,2,0,B|368:192|344:264,1,100,8|0
448,256,66010,2,0,B|432:208|480:160,1,100,0|4
432,80,66410,2,0,B|384:96|320:48,2,100,8|4|4
512,144,67010,2,0,B|416:208|448:336,1,200,0|4
352,288,67610,1,0
272,240,67810,2,0,B|240:304|152:304,1,100,4|8
176,208,68210,1,0
311,162,68410,6,0,B|256:168|216:128,2,100,4|0|8
292,248,69010,2,0,B|344:264|392:216,2,100,8|8|8
319,340,69610,2,0,B|272:352|224:320,2,100,8|4|8
128,304,70210,2,0,B|48:336,2,50,4|0|8
64,224,70610,2,0,B|-32:240,2,50,4|0|2
32,128,71010,1,8
128,96,71210,2,0,B|96:160|128:232,1,100,10|0
208,160,71610,6,0,B|224:288|352:320,1,200,12|8
384,240,72210,1,0
336,160,72410,2,0,B|224:176|160:320,2,200,2|8|0
416,112,73410,2,0,B|432:56,2,50,0|0|8
336,80,73810,2,0,B|320:32,2,50
240,80,74210,2,0,B|176:32,2,50,0|0|8
160,144,74610,1,0
160,240,74810,6,0,B|96:240|48:272,1,100,0|0
80,176,75210,2,0,B|137:147|224:176,1,100,8|0
224,96,75610,2,0,B|160:72|96:96,1,100
168,8,76010,1,8
272,32,76210,1,0
352,96,76410,2,0,B|304:144|320:224,1,100
304,224,76710,2,0,B|288:288|224:304,1,100,2|0
208,272,77010,2,0,B|144:304|107:265,1,100,2|0
80,240,77310,2,0,B|144:224|160:160,1,100,2|0
176,144,77610,2,0,B|192:80|272:64,1,100,10|0
352,32,78010,6,0,B|328:136|408:192,1,150,2|0
408,200,78410,1,8
352,288,78610,1,0
320,272,78710,2,0,B|240:224|160:256,1,150
96,176,79210,2,0,B|96:240|48:304,1,100,8|0
184,160,79610,2,0,B|192:80|288:32,1,150
304,32,80010,1,8
384,96,80210,2,0,B|448:88,2,50
304,144,80610,2,0,B|352:256|240:336,1,200
160,288,81210,6,0,B|112:272|96:192,1,100
144,112,81610,2,0,B|192:144|192:224,1,100
288,224,82010,2,0,B|256:176|272:96,1,100,2|0
336,48,82410,2,0,B|368:112|344:176,1,100
464,192,82810,2,0,B|416:144|448:64,1,100
368,208,83210,2,0,B|400:272|368:336,1,100,2|0
288,272,83610,2,0,B|256:208|288:144,1,100
336,96,84010,2,0,B|384:16,2,50
432,144,84410,6,0,B|416:208|352:224,1,100,14|0
272,240,84810,1,4
176,248,85010,1,0
88,208,85210,2,0,B|128:160|112:96,1,100,4|0
192,48,85610,2,0,B|192:112|256:144,1,100,4|0
304,64,86010,2,0,B|368:96|368:176,1,100
352,240,86410,2,0,B|368:288,3,50
352,240,86810,2,0,B|288:320|192:288,1,150
181,291,87210,2,0,B|96:272|64:176,1,150
48,160,87610,6,0,B|16:112|32:64,1,100,8|0
64,48,87910,2,0,B|112:96|176:80,1,100
192,80,88210,2,0,B|208:32|272:0,1,100
304,112,88610,1,8
400,64,88810,2,0,B|464:32,2,50
432,160,89210,2,0,B|480:208|448:288,1,100
416,240,89510,2,0,B|416:296|360:352,1,100
352,288,89810,2,0,B|320:344|264:344,1,100
176,304,90210,2,0,B|208:256|272:256,1,100,12|0
208,160,90610,1,4
256,144,90710,1,4
304,128,90810,6,0,B|320:208|256:256,1,100,4|0
264,256,91110,2,0,B|208:320|116:300,1,150,8|4
48,224,91610,2,0,B|16:128|128:64,1,150,4|0
120,72,92010,2,0,B|142:47|192:32,2,50,8|0|0
208,128,92410,2,0,B|304:96|376:168,2,150
128,192,93210,2,0,B|160:272|288:272,1,150,2|0
288,272,93610,2,0,B|368:272|448:192,1,150,2|0
456,192,94010,6,0,B|520:128|480:32,2,150,8|12|8
256,64,95010,1,0
176,112,95210,1,0
96,160,95410,1,0
16,208,95610,2,0,B|8:304|96:352,2,150,0|0|8
240,288,96610,2,0,B|288:304|360:280,2,100
288,176,97210,6,0,B|400:144|416:16,1,200
312,32,97810,1,0
216,48,98010,2,0,B|88:80|72:208,1,200
256,192,98810,12,0,100010
112,136,100410,6,0,B|256:24|432:160,1,300
