osu file format v8

[General]
AudioFilename: ep7_l.mp3
AudioLeadIn: 0
PreviewTime: 58800
Countdown: 0
SampleSet: Soft
StackLeniency: 0.7
Mode: 0
LetterboxInBreaks: 1

[Editor]
Bookmarks: 20400,33200,44400,58800,71600,84400,100400,105210
DistanceSpacing: 1
BeatDivisor: 4
GridSize: 16

[Metadata]
Title:Kiri no Pithos
Artist:07th Expansion
Creator:AngelHoney
Version:Easy
Source:Umineko no Naku Koro ni
Tags:Requiem of the golden witch OP dai Pithos Sakura kanae Kino Nei E.Kida Crazy Jay pokedigi

[Difficulty]
HPDrainRate:2
CircleSize:3
OverallDifficulty:2
ApproachRate:2
SliderMultiplier:1.1
SliderTickRate:0.5

[Events]
//Background and Video events
Video,-250,"ep7.avi"
0,0,"1.jpg"
//Break Periods
//Storyboard Layer 0 (Background)
//Storyboard Layer 1 (Fail)
//Storyboard Layer 2 (Pass)
//Storyboard Layer 3 (Foreground)
//Storyboard Sound Samples
//Background Colour Transformations
3,100,163,162,255

[TimingPoints]
6010,400,4,2,1,30,1,0
33010,-100,4,2,1,40,0,0
44610,-100,4,2,2,40,0,0
52010,-100,4,2,1,40,0,0
52810,-100,4,2,2,40,0,0
56810,-100,4,2,1,40,0,0
57410,-100,4,2,2,40,0,0
58410,-100,4,2,2,50,0,0
58810,-100,4,2,2,50,0,1
58860,-100,4,2,2,50,0,0
96810,-100,4,2,2,30,0,0
98410,-100,4,2,2,20,0,0
104810,-100,4,2,2,0,0,0

[HitObjects]
64,128,20410,2,0,B|160:48|272:128,1,220,4|2
192,192,22010,2,0,B|288:272|400:192,1,220,0|2
464,128,23610,5,0
384,64,24410,1,0
288,32,25210,2,0,B|224:144|304:256,1,220,0|2
336,320,26810,6,0,B|240:384|112:320,2,220,0|2|2
368,288,28810,2,0,B|416:256|480:288,2,110,0|2|2
320,272,30010,2,0,B|256:176|336:48,1,220,0|2
256,192,31610,12,0,32810
128,256,33210,6,0,B|176:288|240:256,2,110,8|2|2
176,176,34810,2,0,B|304:176|352:64,1,220,0|2
432,16,36410,5,0
480,96,37210,1,0
400,144,38010,2,0,B|416:208|496:240,2,110,0|10|2
336,224,39610,6,0,B|240:304|128:224,2,220,0|2|2
384,144,42010,1,0
304,96,42810,1,0
224,48,43610,1,0
128,64,44410,6,0,B|208:176|128:304,1,220,12|0
224,320,46010,2,0,B|304:368|416:320,1,165,12|8
352,224,47610,6,0,B|416:240|464:208,1,110,4|8
496,176,48410,2,0,B|448:144|448:80,1,110,4|8
416,48,49210,2,0,B|304:0|176:96,1,220,4|0
128,144,50810,6,0,B|128:240,3,82.5,12|8|8|8
208,288,52410,5,4
288,240,53210,1,0
384,240,54010,1,4
464,192,54810,1,0
400,128,55610,6,0,B|400:32,2,82.5,0|4|0
288,112,57210,2,0,B|256:176|288:224,2,110,4|0|4
208,64,58810,5,12
128,112,59610,1,0
80,192,60410,2,0,B|144:224|208:176,2,110,4|8|0
96,288,62010,2,0,B|208:288,3,110,4|8|0|8
256,288,63610,2,0,B|384:256|384:128,1,220,4|0
304,64,65210,6,0,B|176:96|176:224,1,220,4|2
176,320,66810,1,0
256,272,67610,5,0
320,208,68410,6,0,B|384:288|480:240,2,165,4|0|0
336,160,70010,2,0,B|384:112|384:48,1,110
352,32,70810,2,0,B|288:32|240:80,1,110,2|2
208,96,71610,5,12
144,176,72410,1,0
112,272,73210,2,0,B|160:320|224:320,2,110,0|8|6
48,192,74810,6,0,B|112:160|128:96,1,110,0|8
144,64,75610,1,0
192,32,76010,1,8
256,32,76410,2,0,B|320:48|336:128,2,110,0|8|2
240,128,78010,6,0,B|192:96|128:128,1,110,0|8
96,160,78810,2,0,B|64:208|96:272,1,110,0|8
128,304,79610,2,0,B|192:336|240:304,1,110,0|8
272,272,80410,2,0,B|304:224|272:160,1,110,2|8
240,128,81210,5,0
320,64,82010,1,2
384,144,82810,2,0,B|448:160|496:128,2,110
304,192,84410,6,0,B|400:272|528:208,1,220,2|0
464,128,86010,1,0
416,96,86410,2,0,B|416:16,2,55
320,144,87610,6,0,B|320:240,2,82.5,12|0|0
208,96,89210,2,0,B|208:192,2,82.5
96,48,90810,5,0
32,128,91610,1,0
112,192,92410,2,0,B|112:288,2,82.5
224,160,94010,6,0,B|272:176|320:160,2,82.5,0|0|8
272,48,95610,2,0,B|224:32|176:48,2,82.5
224,176,97210,2,0,B|336:240|448:176,1,220
256,192,98810,12,0,100410
256,192,100510,12,0,105210
