osu file format v8

[General]
AudioFilename: ep7_l.mp3
AudioLeadIn: 0
PreviewTime: 58800
Countdown: 0
SampleSet: Soft
StackLeniency: 0.7
Mode: 0
LetterboxInBreaks: 1

[Editor]
Bookmarks: 20400,33200,44400,58800,84400,100400
DistanceSpacing: 1
BeatDivisor: 4
GridSize: 8

[Metadata]
Title:Kiri no Pithos
Artist:07th Expansion
Creator:AngelHoney
Version:Collab
Source:Umineko no Naku Koro ni
Tags:Requiem of the golden witch OP dai Pithos Sakura kanae Kino Nei E.Kida Crazy Jay pokedigi

[Difficulty]
HPDrainRate:5
CircleSize:4
OverallDifficulty:8
ApproachRate:8
SliderMultiplier:2
SliderTickRate:1

[Events]
//Background and Video events
Video,-250,"ep7.avi"
0,0,"1.jpg"
//Break Periods
//Storyboard Layer 0 (Background)
//Storyboard Layer 1 (Fail)
//Storyboard Layer 2 (Pass)
//Storyboard Layer 3 (Foreground)
//Storyboard Sound Samples
Sample,63910,0,"whistle.wav",100
Sample,61410,0,"normal-hitwhistle.wav",80
Sample,62210,0,"normal-hitwhistle.wav",80
Sample,63010,0,"normal-hitwhistle.wav",80
Sample,64610,0,"normal-hitwhistle.wav",80
Sample,65410,0,"normal-hitwhistle.wav",80
Sample,66210,0,"normal-hitwhistle.wav",80
Sample,75010,0,"normal-hitwhistle.wav",80
Sample,77410,0,"normal-hitwhistle.wav",80
//Background Colour Transformations
3,100,163,162,255

[TimingPoints]
6010,400,4,2,1,30,1,0
33010,-100,4,2,1,40,0,0
44310,-100,4,2,2,40,0,0
58810,-100,4,1,0,60,0,1
59010,-100,4,1,1,60,0,1
59210,-100,4,1,1,20,0,1
59310,-100,4,1,2,60,0,1
59410,-100,4,1,1,60,0,1
59510,-100,4,1,2,60,0,1
59710,-100,4,1,1,60,0,1
59910,-100,4,2,2,60,0,1
60110,-100,4,1,1,60,0,1
60310,-100,4,1,2,60,0,1
60510,-100,4,1,1,60,0,1
60710,-100,4,1,2,60,0,1
60810,-100,4,2,2,60,0,1
60910,-100,4,1,1,60,0,1
61110,-100,4,2,2,100,0,1
61310,-100,4,1,2,60,0,1
61610,-100,4,2,2,80,0,1
61710,-100,4,1,1,60,0,1
61910,-100,4,1,2,60,0,1
62110,-100,4,1,2,0,0,1
62310,-100,4,1,2,60,0,1
62510,-100,4,1,1,60,0,1
62710,-100,4,2,2,80,0,1
62910,-100,4,2,2,60,0,1
63010,-100,4,1,2,60,0,1
63210,-100,4,2,2,60,0,1
63310,-100,4,1,1,60,0,1
63510,-100,4,1,2,60,0,1
63810,-100,4,1,1,60,0,1
63910,-100,4,2,2,60,0,1
64110,-100,4,1,2,60,0,1
64210,-100,4,1,0,60,0,1
64310,-100,4,2,2,80,0,1
64510,-100,4,1,2,60,0,1
64810,-100,4,2,2,80,0,1
64910,-100,4,1,1,60,0,1
65110,-100,4,1,2,60,0,1
65610,-100,4,2,2,60,0,1
65710,-100,4,1,1,60,0,1
65910,-100,4,2,2,80,0,1
66110,-100,4,2,2,60,0,1
66410,-100,4,2,2,60,0,1
66510,-100,4,1,1,60,0,1
66710,-100,4,1,2,60,0,1
66910,-100,4,1,1,60,0,1
67110,-100,4,2,2,60,0,1
67310,-100,4,1,1,60,0,1
67610,-100,4,2,2,100,0,1
67710,-100,4,1,1,60,0,1
68010,-100,4,2,2,60,0,1
68110,-100,4,1,1,60,0,1
68310,-100,4,1,2,20,0,1
68510,-100,4,1,1,20,0,1
68710,-100,4,1,2,40,0,1
68910,-100,4,1,1,40,0,1
69110,-100,4,1,1,50,0,1
69310,-100,4,1,1,60,0,1
69510,-100,4,1,1,70,0,1
69710,-100,4,1,1,80,0,1
69910,-100,4,1,1,60,0,1
70310,-100,4,2,2,30,0,1
70410,-100,4,1,2,60,0,1
70710,-100,4,2,2,30,0,1
70810,-100,4,2,2,100,0,1
71110,-100,4,1,2,60,0,1
71210,-100,4,2,2,100,0,1
71410,-100,4,1,2,60,0,1
71910,-100,4,1,2,60,0,0
72010,-100,4,1,2,80,0,1
72110,-100,4,1,1,80,0,1
72310,-100,4,1,2,80,0,1
72510,-100,4,1,1,80,0,1
72710,-100,4,2,2,80,0,1
72910,-100,4,1,1,80,0,1
73110,-100,4,1,2,60,0,1
73310,-100,4,1,1,80,0,1
73510,-100,4,2,2,80,0,1
73710,-100,4,1,1,80,0,1
73910,-100,4,2,2,80,0,1
74110,-100,4,1,1,80,0,1
74310,-100,4,2,2,80,0,1
74510,-100,4,1,1,80,0,1
74710,-100,4,1,2,60,0,1
75210,-100,4,2,2,80,0,1
75310,-100,4,1,1,80,0,1
75510,-100,4,2,2,80,0,1
75710,-100,4,1,2,60,0,1
75810,-100,4,1,1,80,0,1
75910,-100,4,2,2,80,0,1
76110,-100,4,1,1,80,0,1
76310,-100,4,1,2,80,0,1
76510,-100,4,1,1,80,0,1
76710,-100,4,1,0,80,0,1
76810,-100,4,2,2,80,0,1
76910,-100,4,1,2,60,0,1
77610,-100,4,2,2,80,0,1
77710,-100,4,1,2,60,0,1
78110,-100,4,1,1,80,0,1
78310,-100,4,2,2,80,0,1
78510,-100,4,1,1,80,0,1
78710,-100,4,1,2,80,0,1
79010,-100,4,1,1,80,0,1
79110,-100,4,2,2,80,0,1
79310,-100,4,1,1,80,0,1
79510,-100,4,1,2,80,0,1
79710,-100,4,1,1,80,0,1
79910,-100,4,2,2,80,0,1
80110,-100,4,1,1,80,0,1
80310,-100,4,1,2,80,0,1
80510,-100,4,1,1,80,0,1
80710,-100,4,2,2,80,0,1
80910,-100,4,2,2,60,0,1
81010,-100,4,1,1,60,0,1
81210,-100,4,2,2,60,0,0
81610,-100,4,2,2,100,0,0
82010,-100,4,2,2,60,0,0
82610,-100,4,2,2,40,0,0
82710,-100,4,2,2,60,0,0
83610,-100,4,1,0,60,0,0
84010,-100,4,2,2,80,0,0
84910,-100,4,1,2,60,0,0
85110,-100,4,2,2,60,0,0
85310,-100,4,1,2,60,0,0
85510,-100,4,2,2,80,0,0
85710,-100,4,2,2,60,0,0
85910,-100,4,2,2,100,0,0
86310,-100,4,2,2,70,0,0
87210,-100,4,2,2,90,0,0
87610,-100,4,1,2,60,0,0
88110,-100,4,1,2,80,0,0
88310,-100,4,2,2,60,0,0
88610,-200,4,1,2,60,0,0
89410,-100,4,1,2,60,0,0
89710,-100,4,1,2,40,0,0
90110,-100,4,1,2,60,0,0
91410,-100,4,2,2,80,0,0
91510,-100,4,1,2,60,0,0
93110,-100,4,2,2,80,0,0
93310,-100,4,1,2,60,0,0
94610,-100,4,1,2,80,0,0
94810,-100,4,2,0,60,0,0
95510,-100,4,1,2,60,0,0
96210,-100,4,1,2,80,0,0
96810,-100,4,2,0,60,0,0
97410,-100,4,2,0,50,0,0
97710,-100,4,2,0,40,0,0
97910,-100,4,2,0,20,0,0
98610,1600,4,2,2,60,1,0
99810,-100,4,2,2,0,0,0
100210,400,4,2,2,0,1,0

[HitObjects]
96,64,20410,2,0,B|32:96|48:192,1,100,4|2
64,256,20810,1,0
144,192,21010,1,0
240,128,21210,2,2,B|288:176|256:256,1,100,0|2
240,336,21610,2,2,B|304:352|368:288,1,100,0|2
368,208,22010,1,0
416,96,22210,2,0,B|448:48|544:64,1,100,0|2
480,176,22610,2,0,B|448:224|384:208,1,100,0|2
320,128,23010,1,0
208,144,23210,6,0,B|192:208|128:224,2,100,0|0|2
96,112,23810,1,0
32,208,24010,2,0,B|16:272|80:320,1,100,0|2
160,272,24410,2,0,B|176:336|240:352,1,100,0|2
272,256,24810,2,0,B|320:240|368:272,1,100,0|2
368,160,25210,2,0,B|432:144|480:176,2,100,0|0|2
272,96,25810,2,0,B|304:48|368:32,2,100,0|0|2
144,64,26410,2,0,B|176:128|144:192,1,100,0|2
64,256,26810,6,0,B|128:352|256:304,1,200,0|2
176,224,27410,2,0,B|64:144|144:32,1,200,0|2
216,112,28010,1,0
304,176,28210,1,0
368,96,28410,2,0,B|480:160|448:272,2,200,0|2|2
256,64,29410,1,0
144,112,29610,2,0,B|176:176|256:176,1,100,0|2
320,192,30010,5,0
80,224,30210,1,0
208,224,30410,2,0,B|240:288|192:352,1,100,0|2
160,304,30710,1,0
112,272,30810,2,0,B|96:336|128:384,1,100,0|2
304,352,31210,1,0
400,288,31410,1,2
416,256,31510,1,0
432,224,31610,1,8
256,192,31710,12,0,32810
176,160,33210,5,0
272,224,33410,1,2
288,112,33610,2,0,B|368:112|384:176,1,100,0|2
464,208,34010,2,0,B|432:336|304:320,1,200,0|2
208,304,34610,1,0
160,192,34810,2,0,B|208:224|288:208,2,100,0|0|2
240,96,35410,2,0,B|320:96|352:144,2,100,0|0|2
128,128,36010,1,0
192,224,36210,1,0
304,240,36410,6,0,B|352:208|352:144,1,100,8|2
288,64,36810,1,0
176,96,37010,2,0,B|176:160|240:208,1,100,0|2
112,224,37410,2,0,B|144:288|96:352,1,100,0|2
16,272,37810,1,0
16,160,38010,2,0,B|144:160|192:48,1,200,0|10
272,16,38610,1,0
304,112,38810,2,0,B|272:176|320:240,1,100,0|10
416,160,39210,2,0,B|448:208|432:288,1,100,0|10
424,288,39510,1,8
400,312,39610,6,0,B|304:368|192:320,1,200,8|2
128,256,40210,1,0
224,208,40410,2,0,B|304:176|304:112,1,100,0|2
256,32,40810,2,0,B|224:96|160:112,1,100,0|2
64,80,41210,2,0,B|32:208|144:272,1,200,0|2
224,208,41810,1,0
256,320,42010,6,0,B|336:304|352:224,1,100,0|2
368,160,42410,1,0
432,80,42610,2,0,B|448:144|512:184,1,100,0|2
384,208,43010,1,0
288,144,43210,1,0
192,192,43410,1,0
96,128,43610,2,0,B|40:248|144:352,1,200,0|2
224,288,44210,1,0
304,224,44410,5,8
192,192,44610,1,0
160,168,44710,1,0
144,128,44810,2,0,B|112:80|144:16,1,100,4|0
176,32,45110,1,0
208,64,45210,2,0,B|256:80|320:64,1,100,4|8
432,48,45610,1,4
448,80,45710,1,0
456,112,45810,1,0
448,144,45910,1,0
432,176,46010,5,8
256,336,46310,1,8
48,208,46610,1,8
224,32,46910,1,8
256,48,47010,1,0
352,128,47210,1,8
320,144,47310,1,0
256,240,47510,1,8
288,256,47610,5,4
160,352,47810,1,4
128,320,47910,1,0
112,272,48010,1,8
48,144,48210,1,4
80,112,48310,1,0
128,96,48410,1,0
176,112,48510,1,0
208,144,48610,1,0
288,256,48810,1,12
416,304,49010,1,4
448,192,49210,6,0,B|496:144|480:80,1,100,4|0
448,64,49510,1,0
400,48,49610,2,0,B|368:96|304:96,1,100,8|0
208,48,50010,1,4
80,128,50210,1,0
96,176,50310,1,0
80,224,50410,2,0,B|64:288|128:352,1,100,8|0
208,240,50810,5,8
400,192,51110,1,8
176,128,51410,1,8
412,61,51710,1,12
420,90,51810,1,8
424,121,51910,1,8
424,151,52010,1,8
420,180,52110,1,8
412,208,52210,1,8
401,235,52310,1,8
386,260,52410,5,12
256,272,52610,1,4
224,240,52710,1,0
96,192,52910,1,4
80,240,53010,1,0
67,69,53210,1,4
111,58,53310,1,0
155,53,53410,1,0
198,55,53510,1,0
240,64,53610,1,12
368,112,53810,1,4
256,192,54010,5,4
208,176,54110,1,0
160,192,54210,1,0
64,304,54410,2,0,B|128:288|192:336,1,100,8|4
288,288,54810,1,4
384,112,55010,2,0,B|416:176|384:240,1,100,4|12
384,240,55310,1,4
368,272,55410,1,4
344,296,55510,1,4
312,320,55610,5,8
112,272,55910,1,8
336,160,56210,1,8
64,96,56510,1,8
80,128,56610,1,4
208,272,56810,1,8
166,249,56910,1,8
132,214,57010,1,8
107,170,57110,1,12
256,192,57210,12,0,58410
136,48,58810,6,0,B|96:88|112:144,1,100,4|2
144,160,59110,1,0
184,152,59210,2,0,B|224:208|192:264,1,100,8|2
144,304,59610,1,0
280,288,59810,1,2
224,152,60010,1,8
360,136,60210,1,2
408,240,60410,6,0,B|436:191|399:142,1,100,0|2
376,112,60710,1,0
336,104,60810,2,0,B|280:88|232:128,1,100,10|2
216,296,61210,2,0,B|168:320,1,50,2|0
64,144,61510,2,0,B|104:192,1,50,0|8
208,120,61810,5,2
248,128,61910,1,0
280,152,62010,2,0,B|336:208|312:296,1,150
248,328,62410,2,0,B|144:328,1,100,0|2
96,240,62810,1,2
128,216,62910,2,0,B|168:176|160:120,1,100,8|0
152,88,63210,1,8
256,48,63410,1,2
360,88,63610,5,2
336,120,63710,1,0
344,160,63810,1,2
152,88,64010,1,8
176,120,64110,1,0
168,160,64210,1,2
104,232,64410,1,2
120,272,64510,2,0,B|160:320|232:320,1,100,2|0
248,320,64810,2,0,B|293:321|333:273,1,100,2|2
352,240,65110,1,0
344,200,65210,2,0,B|294:125|360:64,1,150,2|0
392,40,65610,1,10
464,80,65810,6,0,B|488:128|464:192,1,100,2|2
408,248,66110,2,0,B|384:200|408:136,1,100,8|0
336,112,66410,1,8
336,112,66610,1,2
288,200,66810,5,0
216,264,67010,1,2
184,280,67110,1,0
144,280,67210,1,8
56,232,67410,2,0,B|24:192|40:136,1,100,2|2
208,24,67810,2,0,B|240:64|224:120,1,100,2|8
128,104,68210,1,2
72,192,68410,5,0
112,288,68610,1,0
208,328,68810,1,0
304,288,69010,1,2
344,192,69210,1,2
304,96,69410,1,2
208,64,69610,1,2
112,96,69810,1,2
120,192,70010,6,0,B|96:288|200:336,1,150,0|4
339,320,70410,2,0,B|410:272|390:186,1,150
185,98,70810,2,0,L|216:176|200:248,1,150,2|0
310,240,71210,2,0,L|296:176|327:98,1,150,2|0
256,32,71610,5,0
216,128,71810,1,0
256,136,71910,1,0
296,128,72010,1,4
376,72,72210,1,2
456,128,72410,2,0,B|464:192|408:232,1,100,0|2
136,72,72810,1,8
56,128,73010,2,0,B|48:192|104:232,1,100,2|0
184,232,73410,2,0,B|192:288,2,50,2|0|10
256,168,73810,1,2
328,232,74010,2,0,B|320:288,2,50,10|0|2
256,352,74410,1,8
256,352,74610,1,2
160,320,74810,6,0,B|80:280|112:192,1,150
128,160,75210,1,10
296,160,75410,1,2
168,88,75610,1,2
208,88,75710,1,0
248,88,75810,1,2
224,184,76010,2,0,B|240:240|296:256,1,100,8|2
376,296,76410,5,2
424,208,76610,2,0,B|468:182,2,50,2|2|8
352,136,77010,1,2
256,176,77210,1,0
256,176,77310,1,2
272,272,77510,1,0
272,272,77610,1,10
192,336,77810,5,0
168,304,77910,1,0
152,272,78010,2,0,B|128:224|160:160,1,100,0|2
256,72,78410,1,8
358,175,78610,2,0,B|384:224|360:272,1,100,2|0
344,304,78910,1,0
320,336,79010,1,2
256,264,79210,2,0,B|240:224|272:208|256:164,1,100,10|2
168,112,79610,6,0,B|64:112,1,100,0|2
24,200,80010,1,8
104,264,80210,2,0,B|113:294|104:320,2,50,2|0|0
192,216,80610,1,2
280,264,80810,2,0,B|270:294|280:320,2,50,8|8|2
360,200,81210,6,0,B|416:208|464:136|416:72|352:80,2,200,0|0|2
296,144,82210,1,0
216,144,82410,2,0,B|168:168|160:232,1,100,0|4
160,304,82810,2,0,B|231:361|278:248|348:314,3,200,0|2|0|2
416,352,84210,5,0
416,352,84310,1,0
416,352,84410,2,0,B|504:328|512:240|448:176,1,200,2|0
408,112,85010,1,0
320,160,85210,1,0
232,112,85410,1,0
160,184,85610,2,0,B|108:182|75:123,1,100,2|0
136,48,86010,6,0,B|225:10|225:143|312:104,1,200,0|0
336,88,86510,1,0
368,80,86610,1,0
400,88,86710,1,0
423,106,86810,5,0
436,137,86910,1,0
424,164,87010,1,0
397,176,87110,1,0
368,184,87210,6,0,B|368:224,8,25,0|0|0|0|0|0|0|0|2
128,184,87910,1,2
256,336,88210,1,2
304,248,88410,1,0
208,248,88610,6,0,B|240:144,1,100,0|0
248,128,89110,1,0
256,104,89210,1,2
408,312,89510,1,2
104,312,89810,1,2
160,120,90210,1,0
352,120,90610,5,0
352,120,90710,1,0
352,120,90810,2,0,B|416:176|400:264,2,150,2|2|2
256,160,91610,1,0
256,312,91910,1,0
224,288,92010,2,0,B|184:256,4,50,0|0|0|0|2
360,232,92710,5,2
152,152,93010,1,2
208,72,93210,2,0,B|255:103|309:71,2,100,2|0|0
120,16,93810,5,0
120,16,93910,1,0
120,16,94010,2,0,B|80:160,1,100,2|0
152,256,94310,2,0,B|192:112,1,100,2|0
208,72,94610,1,2
256,256,95010,5,2
256,256,95210,1,0
256,256,95410,1,2
392,16,95610,6,0,B|432:160,1,100,2|0
360,256,95910,2,0,B|320:112,1,100,2|0
304,72,96210,1,2
256,320,97210,5,2
216,248,97510,1,2
296,248,97810,1,2
256,320,98010,5,2
256,320,98410,1,2
168,184,98810,6,0,B|102:204|90:291,1,125
256,192,100403,12,0,105010
