osu file format v9

[General]
AudioFilename: happiness of marionette.mp3
AudioLeadIn: 1500
PreviewTime: 109263
Countdown: 0
SampleSet: Soft
StackLeniency: 0.4
Mode: 0
LetterboxInBreaks: 1

[Editor]
DistanceSpacing: 1.2
BeatDivisor: 4
GridSize: 8

[Metadata]
Title:Happiness of Marionette
Artist:07th Expansion
Creator:gdeath
Version:Normal
Source:Umineko no Naku Koro ni
Tags:Dai Video Game Seagulls When They Cry Visual Novel huang99520 BakaHuang

[Difficulty]
HPDrainRate:5
CircleSize:4
OverallDifficulty:5
ApproachRate:5
SliderMultiplier:1.4
SliderTickRate:1

[Events]
//Background and Video events
0,0,"EvaBeatrice.jpg"
//Break Periods
//Storyboard Layer 0 (Background)
//Storyboard Layer 1 (Fail)
//Storyboard Layer 2 (Pass)
//Storyboard Layer 3 (Foreground)
//Storyboard Sound Samples
//Background Colour Transformations
3,100,163,162,255

[TimingPoints]
1808,612.244897959184,4,2,0,80,1,0
31042,-100,4,2,0,90,0,0
40838,-100,4,2,0,60,0,0
60430,-100,4,2,0,70,0,0
70379,-100,4,2,0,90,0,1
80175,-100,4,2,0,71,0,0
108491,-100,4,2,0,75,0,0
109563,-100,4,2,0,90,0,1
119359,-100,4,2,0,80,0,0
124256,-100,4,2,0,90,0,1
129154,-100,4,2,0,70,0,0

[Colours]
Combo1 : 255,255,128
Combo2 : 255,128,64
Combo3 : 153,224,230

[HitObjects]
392,304,1808,6,0,B|320:280|304:200,1,140,0|2
320,120,2726,1,0
264,56,3032,2,0,B|192:40|128:88,2,140,0|2|0
336,96,4563,1,0
344,176,4869,2,0,B|336:256|264:296,1,140,2|0
192,304,5787,1,2
192,304,6093,2,0,B|152:248|176:168,1,140,2|0
232,112,7012,5,0
312,136,7318,2,0,B|360:192|440:192,2,140,2|0|2
232,136,8848,1,0
168,80,9154,2,0,B|176:40|248:24,2,70,0|0|2
112,144,10073,1,0
112,224,10379,1,0
168,288,10685,1,0
248,272,10991,6,0,B|296:336|376:352,1,140,2|0
448,336,11910,1,0
480,256,12216,2,0,B|488:184|424:120,1,140,2|0
368,80,13134,1,0
304,128,13440,2,0,B|264:96|208:120,2,70,2|0|0
320,208,14359,1,0
280,280,14665,2,0,B|288:320|328:344,1,70,2|0
232,344,15277,5,0
152,360,15583,1,0
72,328,15889,2,0,B|72:248|128:192,1,140,2|0
200,168,16808,1,0
272,208,17114,2,0,B|296:280|376:312,1,140,2|0
448,304,18032,1,2
464,224,18338,2,0,B|480:144|408:88,1,140,2|0
256,48,19563,1,2
256,48,19869,1,0
256,48,20175,1,4
416,160,20787,6,0,B|464:224|440:304,1,140,0|0
368,336,21705,1,0
288,336,22012,2,0,B|232:280|240:184,1,140,4|0
256,128,22930,1,0
200,64,23236,1,4
120,48,23542,1,0
40,72,23848,2,0,B|8:136|40:216,1,140,0|4
80,280,24767,1,0
152,320,25073,6,0,B|208:376|312:360,1,140,0|4
360,352,25991,2,0,B|368:312|320:264,2,70,0|0|0
440,336,26910,2,0,B|496:288|496:200,1,140,4|0
480,128,27828,1,0
440,56,28134,1,4
360,32,28440,1,0
280,40,28746,2,0,B|208:64|184:152,1,140,0|4
200,224,29665,2,0,B|200:264|168:296,1,70,0|0
96,304,30277,5,4
48,232,30583,2,0,B|40:152|120:88,1,140,4|0
168,56,31501,2,0,B|136:24|96:24,2,70,0|4|0
232,104,32420,1,0
264,184,32726,1,0
256,264,33032,2,0,B|224:320|128:336,1,140,4|0
64,304,33950,1,0
48,224,34256,2,0,B|48:144|128:96,1,140,4|0
160,176,35175,5,0
240,160,35481,1,4
320,168,35787,1,0
400,160,36093,2,0,B|424:88|392:8,1,140,0|4
312,8,37012,1,0
232,24,37318,1,0
160,64,37624,1,0
144,144,37930,2,0,B|160:208|112:288,1,140,4|0
48,320,38848,1,0
64,240,39154,2,0,B|144:240|208:312,1,140,4|0
264,328,40073,5,4
344,312,40379,2,0,B|400:264|416:184,1,140,4|0
184,312,41603,2,0,B|128:264|112:184,1,140,4|0
232,72,42828,5,4
384,144,43440,1,0
376,312,44052,1,4
208,344,44665,1,0
128,328,44971,1,0
72,272,45277,1,4
56,104,45889,1,0
208,32,46501,1,4
336,144,47114,5,0
368,224,47420,1,0
336,304,47726,2,0,B|288:360|192:360,1,140,4|0
128,336,48644,1,0
64,280,48950,1,4
56,200,49256,1,0
120,144,49563,2,0,B|120:96|72:72,2,70,0|4|4
200,168,50481,1,0
272,184,50787,2,0,B|352:192|408:272,1,140,0|4
232,296,52012,5,0
152,288,52318,1,0
80,248,52624,2,0,B|32:192|40:96,1,140,4|0
38,118,53542,1,0
120,104,53848,2,0,B|176:176|152:264,1,140,4|0
157,235,54767,1,0
200,312,55073,2,0,B|256:344|352:320,1,140,4|0
416,288,55991,1,0
416,288,56297,1,4
416,120,56910,5,0
344,72,57216,1,0
264,80,57522,2,0,B|176:80|144:160,1,140,4|0
112,224,58440,2,0,B|96:256|32:272,2,70,0|4|0
200,224,59359,2,0,B|248:232|280:280,1,70,0|4
336,296,59971,2,0,B|416:280|448:192,1,140,4|0
464,128,60889,1,0
432,48,61195,2,0,B|384:-8|288:8,1,140,2|0
240,56,62114,6,0,B|200:128,1,70,0|2
288,136,62726,2,0,B|328:216,1,70
400,216,63338,2,0,B|456:152,1,70,0|2
446,163,63950,1,0
446,163,64256,1,0
400,96,64563,2,0,B|328:136,1,70,2|2
256,112,65175,2,0,B|168:56,1,70
176,152,65787,2,0,B|192:232,1,70,0|2
208,304,66399,5,0
208,304,66705,2,0,B|272:344|352:328,1,140,0|2
408,280,67624,1,0
408,280,67930,1,0
432,200,68236,1,0
432,200,68542,2,0,B|416:120|336:88,1,140,2|0
264,88,69461,2,0,B|264:40|320:16,2,70,2|2|0
264,176,70379,5,0
216,240,70685,1,0
136,256,70991,1,4
80,192,71297,2,0,B|80:136|136:112,1,70,0|0
192,120,71910,2,0,B|216:88|272:88,1,70,0|4
320,144,72522,2,0,B|368:136|400:184,1,70,0|0
328,224,73134,1,0
256,272,73440,5,4
184,232,73746,1,0
160,152,74052,2,0,B|160:112|200:72|200:72,1,70,0|4
248,32,74665,1,4
328,32,74971,1,0
408,64,75277,2,0,B|464:112|472:208,1,140,0|4
480,272,76195,5,0
416,328,76501,1,0
336,328,76807,1,0
256,296,77114,1,4
240,216,77420,1,0
272,136,77726,2,0,B|304:96|360:96,1,70,0|0
352,184,78338,2,0,B|384:200|440:176,1,70,4|0
376,112,78950,2,0,B|416:88|416:32,1,70,0|4
328,56,79563,6,0,B|256:16|176:40,1,140,4|0
136,96,80481,1,0
184,160,80787,2,0,B|248:200|344:160,1,140,4|0
400,144,81705,1,0
456,208,82012,2,0,B|488:280|448:360,1,140,4|0
368,344,82930,2,0,B|368:384,2,35,0|0|4
216,272,83848,6,0,B|144:256|96:168,2,140,0|4|0
288,232,85379,1,0
360,192,85685,2,0,B|440:216|480:296,2,140,4|0|4
288,232,87216,1,0
208,264,87522,6,0,B|128:264|80:192,1,140,0|4
64,120,88440,1,0
96,48,88746,2,0,B|184:64|216:144,2,140,0|4|0
96,48,90277,1,0
88,128,90583,6,0,B|168:152|240:104,1,140,2|0
304,88,91501,1,0
320,168,91807,2,0,B|288:224|192:240,1,140,2|0
120,256,92726,1,0
72,192,93032,2,0,B|40:120|72:40,1,140,2|0
128,8,93950,1,0
208,40,94256,2,0,B|248:104|336:112,1,140,2|0
352,192,95175,1,0
336,272,95481,2,0,B|304:336|224:360,2,140,2|0|2
184,208,97318,6,0,B|204:131|142:56,1,140,0|2
81,45,98236,1,0
38,116,98542,2,0,B|35:191|100:255,1,140,0|2
169,262,99461,1,0
255,268,99767,2,0,B|335:295|406:226,1,140,0|2
396,159,100685,2,0,B|368:128|322:127,1,70,0|0
256,104,101297,5,0
256,104,101603,2,0,B|183:90|118:137,1,140,2|0
88,208,102522,1,0
128,280,102828,2,0,B|176:344|240:368|240:368,1,140,2|0
280,296,103746,1,2
240,224,104052,2,0,B|296:176|320:88|320:88,1,140,2|0
240,72,104971,1,0
192,144,105277,2,0,B|112:144|48:80|48:80,1,140,2|0
104,16,106195,5,0
184,32,106501,1,2
256,72,106807,1,0
312,128,107114,1,0
360,192,107420,2,0,B|400:264|400:264,1,70,0|2
393,253,108032,1,0
344,320,108338,2,0,B|304:344|256:344|256:344,2,70,0|4|4
144,320,109563,6,0,B|120:256|144:176|144:176,1,140,0|4
184,112,110481,1,0
184,112,110787,1,0
336,40,111399,6,0,B|360:104|336:184|336:184,1,140,4|0
296,248,112318,1,0
296,248,112624,1,4
144,64,113236,5,0
310,31,113848,1,4
422,159,114461,1,0
368,320,115073,1,4
201,352,115685,1,0
89,224,116297,1,4
176,80,116910,6,0,B|224:64|256:16|256:16,2,70,0|0|4
328,160,118134,2,0,B|368:168|400:200|400:200,2,70,0|4|4
216,288,119359,2,0,B|160:328|64:320|64:320,2,140,0|2|0
272,232,120889,1,0
304,152,121195,1,2
184,32,121807,5,0
248,88,122114,1,0
328,112,122420,2,0,B|392:152|488:144|488:144,2,140,2|0|4
176,192,124256,5,0
136,264,124563,1,0
64,304,124869,1,4
112,144,125481,1,0
168,80,125787,1,0
248,64,126093,1,4
392,160,126705,2,0,B|432:192|440:240|440:240,1,70
440,304,127318,2,0,B|416:328|368:320|368:320,1,70,4|0
304,280,127930,2,0,B|264:256|256:208|256:208,2,70,0|4|4
360,120,129154,5,0
400,48,129461,1,0
336,104,129767,1,4
192,192,130379,1,0
112,208,130685,1,0
192,224,130991,1,4
352,264,131603,1,0
408,328,131910,1,0
336,288,132216,1,4
256,144,132828,6,0,B|256:216|256:216,2,70,0|4|4
408,72,134052,6,0,B|384:120|392:152|392:152,1,70
390,139,134665,1,4
248,224,135277,1,0
248,224,135583,2,0,B|288:264|336:272|336:272,1,70,0|4
160,344,136501,2,0,B|152:304|160:264|160:264,1,70
158,274,137114,1,4
256,136,137726,6,0,B|288:112|288:112,2,35,0|0|4
256,136,138338,1,4
