osu file format v9

[General]
AudioFilename: happiness of marionette.mp3
AudioLeadIn: 1500
PreviewTime: 109263
Countdown: 0
SampleSet: Soft
StackLeniency: 0.4
Mode: 0
LetterboxInBreaks: 1

[Editor]
DistanceSpacing: 1.2
BeatDivisor: 4
GridSize: 8

[Metadata]
Title:Happiness of Marionette
Artist:07th Expansion
Creator:gdeath
Version:Hard
Source:Umineko no Naku Koro ni
Tags:Dai Video Game Seagulls When They Cry Visual Novel huang99520 BakaHuang

[Difficulty]
HPDrainRate:6
CircleSize:4
OverallDifficulty:7
ApproachRate:8
SliderMultiplier:1.4
SliderTickRate:1

[Events]
//Background and Video events
0,0,"EvaBeatrice.jpg"
//Break Periods
//Storyboard Layer 0 (Background)
//Storyboard Layer 1 (Fail)
//Storyboard Layer 2 (Pass)
//Storyboard Layer 3 (Foreground)
//Storyboard Sound Samples
//Background Colour Transformations
3,100,163,162,255

[TimingPoints]
1808,612.244897959184,4,2,0,80,1,0
31042,-100,4,2,0,90,0,0
40838,-100,4,2,0,60,0,0
60430,-100,4,2,0,70,0,0
70226,-100,4,2,0,90,0,1
80022,-100,4,2,0,70,0,0
103593,-200,4,2,0,70,0,0
104512,-100,4,2,0,70,0,0
108491,-100,4,2,0,91,0,0
109410,-100,4,2,0,90,0,1
119205,-100,4,2,0,80,0,0
124103,-100,4,2,0,90,0,1
129001,-100,4,2,0,70,0,0
133287,-200,4,2,0,70,0,0

[Colours]
Combo1 : 255,255,128
Combo2 : 255,128,64
Combo3 : 153,224,230

[HitObjects]
200,64,1808,5,0
240,88,1961,1,0
248,136,2114,1,0
296,152,2267,1,0
336,128,2420,1,0
336,128,2726,1,2
400,200,3032,2,0,B|448:240|432:288,1,70,0|0
368,304,3644,1,0
288,272,3950,1,0
288,272,4256,6,0,B|264:304|208:272,1,70,0|2
192,256,4716,1,2
152,232,4869,1,2
128,152,5175,1,0
128,152,5481,2,0,B|104:96|152:64,1,70,0|0
208,48,6093,1,2
208,48,6399,1,2
264,112,6705,5,0
336,64,7012,1,0
400,112,7318,2,0,B|448:104,2,35,2|0|2
392,192,7930,1,0
304,192,8236,1,0
264,264,8542,2,0,B|280:312,2,35,2|0|2
184,240,9154,5,0
216,160,9461,1,0
208,72,9767,2,0,B|136:32,1,70,0|2
72,80,10379,2,0,B|152:128,1,70,0|2
128,200,10991,1,0
144,280,11297,1,0
144,280,11603,5,0
184,288,11756,1,0
224,272,11910,1,0
256,296,12063,1,0
296,288,12216,1,2
360,232,12522,1,2
328,152,12828,2,0,B|288:120|320:64,1,70,0|0
336,56,13287,1,0
376,40,13440,1,2
456,48,13746,1,0
480,128,14052,5,0
448,200,14359,1,2
432,240,14512,1,0
392,256,14665,1,0
320,296,14971,1,0
32,128,15277,5,0
64,200,15583,1,2
80,240,15736,1,0
120,256,15889,1,0
192,296,16195,1,0
256,56,16501,6,0,B|256:128,1,70,0|2
256,168,16961,1,0
256,208,17114,1,2
256,288,17420,1,0
256,288,17726,5,0
96,64,18032,1,2
416,64,18338,1,2
416,232,18950,5,0
392,264,19103,1,0
352,280,19256,1,2
280,240,19563,1,0
208,280,19869,2,0,B|144:312,1,70,0|2
112,232,20481,2,0,B|40:216,2,70,0|2|0
40,40,21399,5,0
104,96,21705,1,0
168,40,22012,1,4
256,192,22318,1,0
472,344,22624,1,0
408,288,22930,1,0
344,344,23236,1,4
256,192,23542,1,0
472,40,23848,5,0
408,96,24154,1,0
344,40,24461,1,4
256,192,24767,1,0
40,344,25073,1,0
104,288,25379,1,0
168,344,25685,1,4
256,192,25991,1,0
40,40,26297,6,0,B|112:96,2,70,0|0|4
256,192,27216,1,0
472,344,27522,2,0,B|408:296,2,70,0|0|4
256,192,28440,1,0
40,344,28746,6,0,B|104:296,2,70,0|0|4
256,192,29665,1,0
472,40,29971,2,0,B|408:88,2,70,0|4|4
320,104,31195,5,0
360,176,31501,1,0
360,216,31654,1,0
328,248,31808,1,4
256,208,32114,1,0
192,264,32420,2,0,B|160:304|120:272,1,70
120,192,33032,2,0,B|136:152|96:120,1,70,4|0
152,56,33644,5,0
232,32,33950,1,0
272,32,34103,1,0
304,56,34256,1,4
352,128,34563,1,0
312,200,34869,2,0,B|296:256|328:272,1,70
400,232,35481,2,0,B|440:256|432:296,1,70,4|0
360,328,36093,5,0
272,328,36399,1,0
240,304,36552,1,0
232,264,36705,1,4
224,176,37012,1,0
144,152,37318,1,0
80,200,37624,1,0
80,200,37930,1,4
200,312,38542,5,0
272,264,38848,1,0
312,256,39001,1,0
352,272,39154,1,4
432,248,39461,1,0
456,168,39767,1,0
392,112,40073,1,4
368,80,40226,1,0
328,80,40379,1,4
160,40,40991,5,0
88,80,41297,1,0
160,120,41603,1,4
256,192,41910,1,0
104,288,42216,1,0
144,360,42522,1,0
184,288,42828,1,4
256,192,43134,5,0
352,344,43440,1,0
424,304,43746,1,0
352,264,44052,1,4
256,192,44359,1,0
408,96,44665,1,0
368,24,44971,1,0
328,96,45277,1,4
106,273,45583,5,0
106,273,45736,1,0
106,273,45889,2,0,B|120:330|165:346|165:346,1,70
143,332,46348,1,0
143,332,46501,1,4
401,280,46807,5,0
401,280,46961,1,0
401,280,47114,2,0,B|443:240|434:192|434:192,1,70
434,219,47573,1,0
434,219,47726,1,4
259,21,48032,5,0
259,21,48185,1,0
259,21,48338,2,0,B|204:5|167:36|167:36,1,70,0|0
168,32,48797,1,0
144,40,48950,1,4
128,56,49103,1,0
112,72,49256,1,0
472,160,49563,6,0,B|440:240,1,70,0|4
40,224,50175,2,0,B|80:144,1,70,4|0
168,288,50787,5,0
200,264,50940,1,0
232,240,51093,1,0
296,192,51399,1,4
312,112,51705,2,0,B|344:48,1,70
425,50,52318,2,0,B|457:122,1,70,0|4
384,272,53236,5,0
304,304,53542,1,0
240,248,53848,1,4
184,312,54154,1,0
104,272,54461,2,0,B|56:256|64:208,1,70
104,144,55073,1,4
256,72,55685,5,0
336,40,55991,1,0
392,104,56297,1,4
352,176,56603,1,0
272,160,56910,2,0,B|224:152|208:192,1,70
232,264,57522,1,4
128,128,58134,5,0
136,88,58287,1,0
168,64,58440,1,0
208,56,58593,1,0
248,72,58746,2,0,B|288:96|272:144,2,70,4|0|0
248,72,59665,1,4
248,72,59971,1,4
320,224,60583,5,0
336,264,60736,1,0
328,304,60889,1,0
240,304,61195,1,2
184,240,61501,1,0
208,160,61807,2,0,B|280:128,1,70
200,80,62420,2,0,B|128:112,1,70,2|0
104,184,63032,5,0
96,264,63338,1,0
128,296,63491,1,0
168,304,63644,1,2
216,232,63950,1,0
256,304,64256,1,0
304,232,64563,2,0,B|336:184,2,35,2|0|2
352,304,65175,1,0
432,304,65481,5,0
472,232,65787,1,0
432,160,66093,1,2
448,120,66246,1,0
480,96,66399,1,0
432,160,66705,1,0
392,88,67012,1,0
360,64,67165,1,0
344,24,67318,1,2
184,280,67930,5,0
256,320,68236,1,0
296,304,68389,1,0
312,264,68542,1,2
376,208,68848,1,0
456,184,69154,1,0
472,144,69307,1,0
472,104,69461,1,2
416,40,69767,1,2
248,64,70379,5,0
208,72,70532,1,0
192,112,70685,1,0
248,176,70991,1,4
328,192,71297,1,0
304,272,71603,1,0
328,192,71910,1,0
248,176,72216,1,4
80,144,72828,5,0
88,224,73134,1,0
112,256,73287,1,0
152,264,73440,2,0,B|192:248|224:280,1,70,4|0
264,344,74052,2,0,B|320:352|344:304,1,70,0|4
344,288,74512,1,0
352,248,74665,1,4
352,80,75277,5,0
312,64,75430,1,0
272,80,75583,1,0
208,136,75889,1,4
120,144,76195,1,0
120,144,76501,1,0
88,224,76807,1,0
88,224,77114,1,4
248,264,77726,5,0
248,264,78032,1,0
280,240,78185,1,0
304,200,78338,2,0,B|296:152|352:128,2,70,4|0|0
344,272,79256,1,4
344,272,79563,1,4
400,120,80175,5,0
336,64,80481,2,0,B|312:24|248:32,1,70,0|4
208,72,81093,1,0
216,152,81399,1,0
136,176,81705,1,0
96,200,81859,1,0
80,240,82012,1,4
120,312,82318,1,0
192,352,82624,5,0
232,360,82777,1,0
272,352,82930,2,0,B|320:344|336:304,1,70,0|4
304,232,83542,1,0
336,152,83848,1,0
416,184,84154,1,0
384,264,84461,1,4
232,336,85073,5,0
160,288,85379,1,0
160,248,85532,1,0
128,216,85685,1,4
88,136,85991,1,0
136,64,86297,1,0
216,56,86603,6,0,B|272:40|288:104,1,70,0|4
232,152,87216,2,0,B|264:192|312:160,1,70
328,144,87675,1,0
368,152,87828,1,0
416,224,88134,1,4
408,264,88287,1,0
368,280,88440,1,0
280,272,88746,2,0,B|248:240|192:272,2,70,0|4|4
256,104,89971,6,0,B|400:16,1,140,0|2
344,192,91195,2,0,B|432:336,1,140,0|2
256,280,92420,2,0,B|112:368,1,140,0|2
168,192,93644,2,0,B|80:48,1,140,0|2
392,344,94869,5,0
432,328,95022,1,0
456,296,95175,1,0
376,256,95481,1,2
256,192,95787,1,0
120,40,96093,5,0
80,56,96246,1,0
56,88,96399,1,0
136,120,96705,1,2
256,192,97012,1,0
392,40,97318,5,0
432,56,97471,1,0
456,88,97624,1,0
376,120,97930,1,2
256,192,98236,1,0
120,344,98542,5,0
80,328,98695,1,0
56,296,98848,1,2
136,264,99154,1,2
320,80,99767,6,0,B|376:80|424:112|424:112,1,105
419,109,100379,1,2
448,192,100685,1,0
408,264,100991,2,0,B|368:304|288:288|288:288,1,105
309,290,101603,1,2
256,224,101910,1,0
256,224,102216,2,0,B|256:176|304:144|304:144,1,70
283,161,102675,1,0
283,161,102828,1,2
264,80,103134,2,0,B|240:40|176:40|176:40,1,70
120,40,103746,2,0,B|64:40|64:40,2,35,2|2|0
420,115,104665,6,0,B|329:82,2,70,0|0|2
179,27,105889,2,0,B|269:60,2,70,0|0|2
466,115,107114,2,0,B|376:148,2,70,0|0|2
45,268,108338,2,0,B|135:235,2,70,0|4|4
136,320,109563,5,0
192,256,109869,1,0
272,240,110175,2,0,B|312:272,2,35,4|0|0
264,152,110787,1,0
216,80,111093,1,0
128,88,111399,2,0,B|88:48,2,35,4|0|0
80,160,112012,5,0
152,208,112318,1,0
168,288,112624,2,0,B|128:320,2,35,4|0|0
248,288,113236,1,0
312,232,113542,1,0
280,152,113848,2,0,B|312:112,2,35,4|0|0
200,128,114461,6,0,B|144:112,1,35
136,144,114767,2,0,B|88:152,1,35
80,184,115073,2,0,B|48:216,1,35,4|0
56,248,115379,2,0,B|40:296,1,35
64,320,115685,2,0,B|88:352|128:352,1,70
200,328,116297,1,4
352,264,116910,5,0
296,200,117216,1,0
304,160,117369,1,0
288,120,117522,1,4
224,64,117828,2,0,B|152:56,1,70,0|0
160,136,118440,2,0,B|96:184,2,70,4|4|0
240,168,119359,6,0,B|280:176,1,35
312,160,119665,2,0,B|360:184,1,35
384,176,119971,2,0,B|424:216,1,35,2|0
440,224,120277,2,0,B|448:272,1,35
432,296,120583,2,0,B|416:344|360:336,1,70
296,312,121195,1,2
184,184,121807,5,0
144,104,122114,2,0,B|104:120|96:160,1,70,0|2
96,192,122573,1,0
104,232,122726,1,0
176,280,123032,2,0,B|248:264,1,70,0|2
304,320,123644,2,0,B|232:336,1,70,2|0
152,360,124256,5,0
128,328,124410,1,0
112,288,124563,1,0
112,200,124869,1,4
160,128,125175,1,0
104,64,125481,1,0
104,64,125787,5,0
384,40,126093,1,4
408,320,126399,1,0
128,344,126705,1,0
128,344,126859,1,0
128,344,127012,1,0
104,264,127318,5,4
136,184,127624,1,0
216,176,127930,2,0,B|264:184|288:128,1,70,0|4
288,112,128389,1,0
304,72,128542,1,4
328,208,129154,5,0
240,264,129461,1,0
184,176,129767,1,4
272,120,130073,1,0
128,120,130379,5,0
184,320,130685,1,0
384,264,130991,1,4
328,64,131297,1,0
320,328,131603,5,0
120,256,131910,1,0
192,56,132216,1,4
392,128,132522,1,0
128,96,132828,5,0
256,192,133134,1,0
384,288,133440,2,0,B|424:320|424:320,1,35,4|0
384,96,134052,5,0
256,192,134359,1,0
128,288,134665,2,0,B|88:320|88:320,1,35,4|0
256,24,135277,5,0
256,184,135583,1,0
256,344,135889,2,0,B|256:384|256:384,1,35,4|0
16,192,136501,5,0
240,192,136807,1,0
464,192,137114,2,0,B|512:192|512:192,1,35,4|0
256,192,137726,5,0
256,192,137879,1,0
256,192,138032,1,4
256,192,138338,1,4
