osu file format v9

[General]
AudioFilename: happiness of marionette.mp3
AudioLeadIn: 1500
PreviewTime: 109263
Countdown: 0
SampleSet: Soft
StackLeniency: 0.4
Mode: 0
LetterboxInBreaks: 1

[Editor]
DistanceSpacing: 1
BeatDivisor: 4
GridSize: 8

[Metadata]
Title:Happiness of Marionette
Artist:07th Expansion
Creator:gdeath
Version:Easy
Source:Umineko no Naku Koro ni
Tags:Dai Video Game Seagulls When They Cry Visual Novel huang99520 BakaHuang

[Difficulty]
HPDrainRate:2
CircleSize:3
OverallDifficulty:2
ApproachRate:2
SliderMultiplier:1.4
SliderTickRate:1

[Events]
//Background and Video events
0,0,"EvaBeatrice.jpg"
//Break Periods
2,60783,68819
//Storyboard Layer 0 (Background)
//Storyboard Layer 1 (Fail)
//Storyboard Layer 2 (Pass)
//Storyboard Layer 3 (Foreground)
//Storyboard Sound Samples
//Background Colour Transformations
3,100,163,162,255

[TimingPoints]
1808,612.244897959184,4,2,0,80,1,0
31042,-100,4,2,0,90,0,0
60430,-100,4,2,0,0,0,0
70379,-100,4,2,0,90,0,1
80175,-100,4,2,0,70,0,0
89818,-100,4,2,0,64,0,0
108491,-100,4,2,0,75,0,0
109563,-100,4,2,0,90,0,1
119359,-100,4,2,0,80,0,0
124256,-100,4,2,0,90,0,1
129154,-100,4,2,0,70,0,0

[Colours]
Combo1 : 255,255,128
Combo2 : 255,128,64
Combo3 : 153,224,230

[HitObjects]
136,112,1808,2,0,B|200:24|320:24|392:136,1,280,0|2
256,192,3644,1,0
136,264,4256,2,0,B|200:352|320:352|392:240,1,280,2|2
360,192,5787,2,0,B|440:192|456:272,2,70,0|2|2
288,192,6705,5,0
216,72,7318,1,2
80,72,7930,1,0
8,192,8542,1,2
80,312,9154,2,0,B|220:312,2,140,0|2|0
24,272,10685,2,0,B|56:184,1,70,2|2
184,184,11603,5,0
328,184,12216,2,0,B|376:272,1,70,2|0
312,312,12828,2,0,B|368:360|464:320|440:216,1,210
448,152,14052,2,0,B|448:64,2,70,0|2|2
392,192,14971,2,0,B|392:122,2,70,0|0|2
336,232,15889,1,2
200,256,16501,6,0,B|272:208|384:248,2,140,0|2|0
288,144,18338,2,0,B|216:192|104:152,2,140,2|0|2
360,152,19869,1,0
432,136,20175,2,0,B|480:208|424:304,2,140,2|4|0
328,40,22012,5,4
192,40,22624,1,0
264,160,23236,1,4
200,288,23848,2,0,B|48:288,1,140,0|4
160,192,25073,2,0,B|312:192,1,140,0|4
392,88,26297,5,0
328,56,26603,1,0
272,104,26910,1,4
280,240,27522,1,0
344,264,27828,1,0
400,224,28134,1,4
328,104,28746,6,0,B|248:64|144:128,1,140,0|4
72,176,29971,2,0,B|128:232|248:176,1,140,0|4
280,312,31195,6,0,B|280:256|392:296|448:304|464:280|456:192,1,210
392,216,32420,2,0,B|400:184|472:176,1,70,0|4
472,112,33032,1,4
472,112,33338,1,0
432,56,33644,2,0,B|384:16|328:96|256:144|240:80,2,210,0|0|4
360,176,36093,6,0,B|272:176,1,70
312,240,36705,2,0,B|216:240,1,70,4|0
224,168,37318,2,0,B|136:168|144:328|208:328|272:312,1,210
240,248,38542,2,0,B|256:232|336:240|320:80|232:96,1,210
176,96,39767,2,0,B|24:96,2,140,0|4|0
224,48,41297,6,0,B|336:48,1,70,0|4
408,128,42216,1,0
408,200,42522,1,0
408,272,42828,1,4
280,320,43440,2,0,B|80:320,2,140,0|4|0
280,320,44971,1,0
280,320,45277,1,4
176,224,45889,6,0,B|24:224,2,140,0|4|0
248,224,47420,1,0
248,224,47726,1,4
288,88,48338,6,0,B|368:56|448:96,2,140,0|4|0
160,32,50175,1,4
64,136,50787,2,0,B|24:216|72:304,1,140,0|4
176,200,52012,2,0,B|216:280|168:368,1,140,0|4
256,216,53236,2,0,B|264:120|128:72|88:208,2,210,0|0|4
328,224,55379,5,0
368,168,55685,2,0,B|400:144|464:184,2,70,0|2|4
280,64,56910,2,0,B|208:32|176:120,2,70,0|2|4
256,192,58134,12,0,60583
96,64,70379,6,0,B|32:112|48:208,1,140,0|4
136,80,71603,2,0,B|72:128|88:224,1,140,0|4
184,104,72828,2,0,B|120:152|136:248,1,140,0|4
232,128,74052,2,0,B|168:176|184:272,1,140,0|4
320,248,75277,6,0,B|333:172|270:125,1,140,0|4
368,224,76501,2,0,B|381:148|318:101,1,140,0|4
416,200,77726,2,0,B|429:124|366:77,1,140,0|4
456,184,78950,2,0,B|469:108|406:61,1,140,0|4
344,184,80175,5,0
232,104,80787,2,0,B|88:104,1,140,4|0
96,176,81705,2,0,B|8:176,2,70,0|4|0
168,176,82624,1,0
256,280,83236,1,4
312,152,83848,1,0
312,152,84154,1,0
312,152,84461,1,4
416,56,85073,6,0,B|480:96|456:184,1,140,0|4
464,320,86297,2,0,B|400:272|432:176,1,140,0|4
392,56,87522,2,0,B|352:144|408:200,1,140,0|4
296,96,88746,1,0
176,24,89359,1,4
64,112,89971,6,0,B|32:200|72:264,1,140,0|2
176,168,91195,2,0,B|208:232|176:320,1,140,0|2
304,240,92420,1,0
336,104,93032,1,2
472,136,93644,1,0
432,272,94256,2,0,B|416:368|320:368,1,140,2|0
272,368,95175,6,0,B|176:368,1,70,0|2
216,232,96093,1,0
216,232,96399,2,0,B|120:232,1,70,0|2
104,96,97318,2,0,B|160:48|256:96,1,140,0|2
280,144,98236,1,0
280,144,98542,2,0,B|352:176|416:144,2,140,0|2|0
216,176,100073,6,0,B|128:176,2,70,0|2|0
256,232,100991,1,0
216,288,101297,1,0
256,344,101603,1,2
128,288,102216,2,0,B|296:288,2,140,0|2|0
104,224,103746,2,0,B|56:248|64:288,1,70,0|2
48,136,104665,6,0,B|136:104|200:184,1,140,0|2
216,104,105583,1,0
280,72,105889,2,0,B|336:48|416:80,1,140,0|2
504,192,107114,2,0,B|432:216|344:184,1,140,0|2
296,208,108032,1,0
296,208,108338,2,0,B|240:256,2,70,0|4|4
296,64,109563,6,0,B|144:64,1,140,0|4
216,192,110787,2,0,B|384:192,1,140,0|4
232,128,112012,2,0,B|72:128,1,140,0|4
48,184,112930,2,0,B|128:184,2,70,0|0|4
48,184,113848,1,4
192,184,114461,6,0,B|40:184,1,140,0|4
112,312,115685,2,0,B|280:312,1,140,0|4
192,184,116910,2,0,B|32:184,1,140,0|4
24,248,117828,2,0,B|104:248,2,70,0|0|4
24,248,118746,1,4
64,112,119359,5,0
200,80,119971,1,2
336,104,120583,1,0
416,224,121195,1,2
416,224,121501,1,0
384,288,121807,2,0,B|336:272|320:336|256:344|232:304,1,140,0|2
272,256,122726,2,0,B|192:256|192:296,2,70,0|0|2
272,256,123644,1,2
152,328,124256,6,0,B|104:344|40:304|40:232,1,140,0|4
48,192,125175,2,0,B|48:112,1,70
112,88,125787,2,0,B|112:160,2,70,0|4|0
112,88,126705,1,0
240,32,127318,1,4
344,120,127930,1,0
248,224,128542,1,4
384,256,129154,6,0,B|448:312,2,70,0|0|4
280,160,130379,2,0,B|208:96,2,70,0|0|4
184,56,131603,5,0
64,120,132216,1,4
184,56,132828,1,0
304,120,133440,1,4
184,184,134052,6,0,B|184:272,2,70,0|0|4
96,296,135277,2,0,B|96:208,2,70,0|0|4
96,160,136501,5,0
184,56,137114,1,4
320,56,137726,1,0
360,112,138032,1,4
400,168,138338,1,4
