osu file format v9

[General]
AudioFilename: Final Answerdai.mp3
AudioLeadIn: 1500
PreviewTime: 40120
Countdown: 0
SampleSet: Normal
StackLeniency: 0.7
Mode: 0
LetterboxInBreaks: 1

[Editor]
Bookmarks: 18777,29454,40120,61454,82787,98787,109454,120120,130787,141454,152110,168120,178787,189454,200110
DistanceSpacing: 1.2
BeatDivisor: 4
GridSize: 8

[Metadata]
Title:Final Answer
Artist:07th Expansion
Creator:gowww
Version:Hard
Source:Umineko no Naku Koro ni
Tags:dai

[Difficulty]
HPDrainRate:5
CircleSize:4
OverallDifficulty:7
ApproachRate:7
SliderMultiplier:1.4
SliderTickRate:1

[Events]
//Background and Video events
0,0,"final.jpg"
//Break Periods
2,61654,69887
//Storyboard Layer 0 (Background)
//Storyboard Layer 1 (Fail)
//Storyboard Layer 2 (Pass)
//Storyboard Layer 3 (Foreground)
//Storyboard Sound Samples
//Background Colour Transformations
3,100,163,162,255

[TimingPoints]
121,333.333333333333,4,2,1,70,1,0
7204,-100,4,2,1,80,0,0
8037,-100,4,1,0,70,0,0
18704,-100,4,2,1,70,0,0
21787,-100,4,2,1,60,0,0
22037,-100,4,2,1,70,0,0
22454,-100,4,2,1,60,0,0
22704,-100,4,2,1,70,0,0
23120,-100,4,2,1,60,0,0
23370,-100,4,2,1,70,0,0
26704,-100,4,1,0,70,0,0
29370,-100,4,2,1,70,0,0
32371,-100,4,2,1,60,0,0
32704,-100,4,2,1,70,0,0
33037,-100,4,2,1,60,0,0
33370,-100,4,2,1,70,0,0
33704,-100,4,2,1,60,0,0
34037,-100,4,2,1,70,0,0
38204,-100,4,2,1,65,0,0
38370,-100,4,2,1,70,0,0
38537,-100,4,2,1,65,0,0
38704,-100,4,1,1,75,0,0
40037,-100,4,1,0,80,0,0
40120,-100,4,1,0,80,0,1
43204,-100,4,1,0,70,0,1
43370,-100,4,1,0,80,0,1
43870,-100,4,1,0,70,0,1
44037,-100,4,1,0,80,0,1
44537,-100,4,1,0,70,0,1
44704,-100,4,1,0,80,0,1
45204,-100,4,1,0,70,0,1
45370,-100,4,1,0,80,0,1
45704,-100,4,1,0,70,0,1
46037,-100,4,1,0,80,0,1
46370,-100,4,1,0,70,0,1
46704,-100,4,1,0,80,0,1
47037,-100,4,1,0,70,0,1
47370,-100,4,1,0,80,0,1
47704,-100,4,1,0,70,0,1
48037,-100,4,1,0,80,0,1
48537,-100,4,1,0,70,0,1
48704,-100,4,1,0,80,0,1
49204,-100,4,1,0,70,0,1
49370,-100,4,1,0,80,0,1
49704,-100,4,1,0,70,0,1
50120,-100,4,1,0,75,0,1
50287,-100,4,1,0,80,0,1
50454,-100,4,1,0,85,0,1
50620,-100,4,1,0,90,0,1
50787,-100,4,2,1,70,0,0
61370,-100,4,1,0,70,0,0
70704,-100,4,1,0,65,0,0
71537,-100,4,1,0,70,0,0
71704,-100,4,1,0,75,0,0
72037,-100,4,1,0,70,0,0
82704,-100,4,2,1,70,0,0
85787,-100,4,2,1,60,0,0
86037,-100,4,2,1,70,0,0
86454,-100,4,2,1,60,0,0
86704,-100,4,2,1,70,0,0
87120,-100,4,2,1,60,0,0
87370,-100,4,2,1,70,0,0
87787,-100,4,2,1,60,0,0
88037,-100,4,2,1,70,0,0
88370,-100,4,2,1,60,0,0
88704,-100,4,2,1,70,0,0
89037,-100,4,2,1,60,0,0
89370,-100,4,2,1,70,0,0
89704,-100,4,2,1,60,0,0
90037,-100,4,2,1,70,0,0
97370,-100,4,1,0,75,0,0
97537,-100,4,2,0,75,0,0
97704,-100,4,1,0,75,0,0
97870,-100,4,2,0,75,0,0
98037,-100,4,1,0,75,0,0
98704,-100,4,1,0,80,0,0
98787,-100,4,1,0,80,0,1
101870,-100,4,1,0,70,0,1
102037,-100,4,1,0,80,0,1
102537,-100,4,1,0,70,0,1
102704,-100,4,1,0,80,0,1
103204,-100,4,1,0,70,0,1
103370,-100,4,1,0,80,0,1
103870,-100,4,1,0,70,0,1
104037,-100,4,1,0,80,0,1
104370,-100,4,1,0,70,0,1
104704,-100,4,1,0,80,0,1
105037,-100,4,1,0,70,0,1
105370,-100,4,1,0,80,0,1
105704,-100,4,1,0,70,0,1
106037,-100,4,1,0,80,0,1
106370,-100,4,1,0,70,0,1
106704,-100,4,1,0,80,0,1
107204,-100,4,1,0,70,0,1
107370,-100,4,1,0,80,0,1
107870,-100,4,1,0,70,0,1
108037,-100,4,1,0,80,0,1
108454,-100,4,1,0,70,0,1
108787,-100,4,1,0,75,0,1
108954,-100,4,1,0,80,0,1
109120,-100,4,1,0,85,0,1
109287,-100,4,1,0,90,0,0
109370,-100,4,1,0,90,0,1
109454,-100,4,1,0,80,0,1
109620,-100,4,1,0,70,0,1
109870,-100,4,1,0,80,0,1
110287,-100,4,1,0,70,0,1
110537,-100,4,1,0,80,0,1
110954,-100,4,1,0,70,0,1
111204,-100,4,1,0,80,0,1
111620,-100,4,1,0,70,0,1
111870,-100,4,1,0,80,0,1
112204,-100,4,1,0,70,0,1
112537,-100,4,1,0,80,0,1
112870,-100,4,1,0,70,0,1
113204,-100,4,1,0,80,0,1
113537,-100,4,1,0,70,0,1
114037,-100,4,1,0,80,0,1
114537,-100,4,1,0,70,0,1
114704,-100,4,1,0,80,0,1
115204,-100,4,1,0,70,0,1
115370,-100,4,1,0,80,0,1
115870,-100,4,1,0,70,0,1
116037,-100,4,1,0,80,0,1
116537,-100,4,1,0,70,0,1
116704,-100,4,1,0,80,0,1
117204,-100,4,1,0,70,0,1
117370,-100,4,1,0,80,0,1
117870,-100,4,1,0,70,0,1
118037,-100,4,1,0,80,0,1
118537,-100,4,1,0,70,0,1
118704,-100,4,1,0,80,0,1
119120,-100,4,1,0,70,0,1
119454,-100,4,1,0,75,0,1
119620,-100,4,1,0,80,0,1
119787,-100,4,1,0,85,0,1
119954,-100,4,1,0,90,0,1
120120,-100,4,1,0,90,0,0

[Colours]
Combo1 : 191,0,0
Combo2 : 198,198,0

[HitObjects]
192,72,121,2,0,B|152:104|112:160|104:184,2,140,4|2|0
256,32,954,2,0,B|312:56,2,35,0|0|2
256,112,1287,1,0
312,168,1454,6,0,B|344:184|376:216,2,70,4|0|2
256,224,1954,1,0
200,280,2120,2,0,B|168:264|136:232,2,70,0|0|2
256,336,2620,1,0
336,336,2787,6,0,B|368:352,2,35,4|0|0
392,280,3120,1,2
336,224,3287,1,0
384,160,3454,2,0,B|408:128|440:104,2,70,0|0|2
336,224,3954,1,0
280,168,4120,6,0,B|184:136,1,70,4|0
213,145,4454,1,2
152,184,4620,2,0,B|104:216,2,35
213,145,4954,1,0
256,80,5120,2,0,B|320:48,2,70,2|0|0
176,72,5620,1,0
96,72,5787,6,0,B|40:48,2,35,6|0|0
88,152,6120,2,0,B|24:152,2,35,2|0|0
88,232,6454,2,0,B|48:232,2,35,6|0|0
96,312,6787,2,0,B|40:336,2,35,2|0|0
160,272,7120,1,4
160,272,7287,5,0
208,184,7454,1,4
256,272,7620,1,0
304,184,7787,1,4
352,272,7954,1,0
416,224,8120,6,0,B|448:152|472:88,2,140,4|8|0
352,272,8954,1,0
312,336,9120,2,0,B|272:360|240:360,1,70,8|0
176,328,9454,2,0,B|88:304,2,70,0|0|8
176,328,9954,1,0
208,232,10120,2,0,B|280:200,2,70,8|0|8
208,232,10620,1,0
136,200,10787,6,0,B|88:160|56:104|48:80,2,140,4|8|0
192,144,11621,1,0
256,96,11787,2,0,B|288:80|336:80,1,70,8|0
392,120,12121,2,0,B|448:176,3,70,0|0|8|0
472,264,12787,2,0,B|416:312,1,70,8|0
320,312,13121,2,0,B|264:264,1,70,8|0
256,192,13454,6,0,B|184:176|96:192,2,140,4|8|0
336,184,14287,1,0
392,120,14454,2,0,B|408:80|408:40,1,70,8|0
328,48,14787,2,0,B|240:24,2,70,0|0|8
328,48,15287,1,0
248,112,15454,2,0,B|160:128,2,70,8|0|8
248,112,15954,1,0
312,160,16121,6,0,B|328:216|304:304,2,140,4|8|0
248,112,16954,1,0
184,72,17121,2,0,B|144:48|112:40,1,70,8|0
112,120,17454,2,0,B|136:152|160:176,1,70
232,200,17787,1,8
232,200,17954,1,0
304,224,18121,2,0,B|328:192|352:168,1,70,8|0
400,112,18454,1,8
400,112,18621,1,0
472,144,18787,6,0,B|488:192|472:288|416:352|328:368,1,280,4|0
344,364,19787,1,2
40,240,20120,2,0,B|24:192|40:96|96:32|184:16,1,280,0|0
167,19,21120,1,2
256,192,21454,6,0,B|256:40,1,140,8|2
256,192,22120,2,0,B|256:344,1,140,8|2
256,192,22787,2,0,B|400:192,1,140,8|2
256,192,23454,2,0,B|112:192,1,140,8|4
256,192,24120,12,4,26454
184,328,26787,6,0,B|152:304|120:264,1,70,4|0
128,264,27037,1,0
120,248,27120,1,8
112,232,27204,1,0
104,216,27287,2,0,B|104:160,9,35,0|0|8|0|0|0|8|0|0|0
104,144,28120,2,0,B|128:88|184:56|224:48,3,140,4|8|0|4
400,56,29454,6,0,B|368:120|448:200|400:344,1,280,4|0
403,331,30454,1,2
112,328,30787,2,0,B|144:264|64:184|112:40,1,280,4|0
108,52,31787,1,2
256,184,32120,5,8
376,88,32454,1,2
256,184,32787,1,8
136,280,33120,1,2
256,184,33454,1,8
376,280,33787,1,2
256,184,34120,1,8
136,88,34454,1,4
102,280,34787,6,0,B|174:240|230:336|396:274,1,280,4|0
375,280,35787,1,0
410,88,36120,2,0,B|338:128|282:32|116:94,1,280,4|0
136,87,37120,1,2
64,272,37454,6,0,B|144:240,1,70,4|0
184,328,37787,2,0,B|224:248,1,70,4|0
216,168,38120,1,4
272,88,38287,1,0
328,168,38454,1,4
384,88,38620,1,4
448,168,38787,5,4
448,184,38870,1,0
448,200,38954,1,0
448,216,39037,1,0
448,232,39120,2,0,B|448:304,1,70,4|0
352,328,39454,2,0,B|312:336,1,35,4|0
256,256,39704,2,0,B|216:240,1,35,0|4
136,288,39954,1,4
80,224,40121,5,4
80,224,40204,1,0
80,224,40287,2,0,B|64:144,2,70,0|8|0
160,200,40787,1,0
168,184,40871,1,0
176,168,40954,1,0
184,152,41037,1,0
192,136,41121,2,0,B|224:64,1,70,8|0
304,48,41454,6,0,B|384:24,2,70,0|0|8
304,48,41954,1,0
352,120,42121,1,0
360,136,42204,1,0
368,152,42287,1,0
376,168,42371,1,0
384,184,42454,2,0,B|424:256,1,70,8|0
360,304,42787,6,0,B|320:336|288:352,2,70,4|0|8
312,232,43287,1,0
232,208,43454,2,0,B|200:168|184:136,2,70,4|0|8
312,232,43954,1,0
384,184,44121,2,0,B|416:224|432:256,2,70,4|0|8
312,232,44621,1,0
304,136,44787,6,0,B|264:120,1,35,4|0
206,196,45037,2,0,B|208:254,1,35,0|4
312,232,45287,1,0
256,312,45454,5,4
256,312,45621,1,0
208,232,45787,2,0,B|176:216|136:208,1,70,8|0
72,144,46121,5,4
72,144,46287,1,0
128,64,46454,2,0,B|176:40|208:32,1,70,8|0
256,112,46787,5,4
256,112,46954,1,0
328,48,47121,2,0,B|376:56|424:64,1,70,8|0
456,136,47454,5,4
456,136,47621,1,0
384,200,47787,2,0,B|400:240|400:272,1,70,8|0
304,280,48121,6,0,B|224:320,2,70,4|0|8
256,192,48621,1,0
208,104,48787,2,0,B|288:64,2,70,4|0|8
256,192,49287,1,0
160,192,49454,2,0,B|88:192,2,70,4|0|8
256,192,49954,5,0
272,192,50037,1,0
288,192,50121,1,8
304,192,50204,1,0
320,192,50287,1,0
336,192,50371,1,0
352,192,50454,1,8
368,192,50537,1,0
384,192,50621,1,0
400,192,50704,1,0
416,192,50787,6,0,B|464:112|432:304|496:184,3,140,4|2|0|2
256,112,52121,2,0,B|176:64|368:96|248:32,3,140,4|2|0|2
96,192,53454,2,0,B|48:272|80:80|16:200,3,140,4|2|0|2
256,272,54787,2,0,B|336:320|144:288|264:352,3,140,4|2|0|2
256,192,56121,5,4
256,40,56454,1,2
256,192,56787,1,0
104,192,57121,1,2
256,192,57454,1,4
408,192,57787,1,2
256,192,58121,1,0
256,344,58454,1,2
256,192,58787,12,4,61454
256,336,70787,5,4
392,264,71121,1,4
256,192,71454,1,4
256,192,71621,1,0
256,192,71787,1,4
104,168,72121,6,0,B|72:240|48:304,2,140,4|8|0
168,120,72954,1,0
216,64,73121,2,0,B|256:40|288:40,1,70,8|0
344,88,73454,2,0,B|432:112,2,70,0|0|8
344,88,73954,1,0
312,176,74121,2,0,B|344:248,2,70,8|0|8
312,176,74621,1,0
240,208,74787,6,0,B|200:256|144:288|120:296,2,140,4|8|0
312,176,75621,1,0
384,200,75787,2,0,B|400:232|400:280,1,70,8|0
360,336,76121,2,0,B|304:280,3,70,0|0|8|0
216,304,76787,2,0,B|168:248,1,70,8|0
88,200,77121,2,0,B|144:152,1,70,8|0
216,128,77454,6,0,B|288:112|376:128,2,140,4|8|0
152,83,78287,1,0
216,128,78454,2,0,B|200:168|200:208,1,70,8|0
240,264,78787,2,0,B|328:288,2,70,0|0|8
240,264,79287,1,0
312,200,79454,2,0,B|400:184,2,70,8|0|8
312,200,79954,1,0
248,152,80120,6,0,B|232:96|256:8,2,140,4|8|0
312,200,80954,1,0
368,256,81120,2,0,B|408:232|440:224,1,70,8|0
432,152,81454,2,0,B|408:120|384:96,1,70
312,112,81787,1,8
312,112,81954,1,0
248,152,82120,2,0,B|224:184|200:208,1,70,8|0
128,232,82454,1,8
128,232,82620,1,0
48,240,82787,6,0,B|24:192|40:96|96:32|184:16,1,280,4|0
168,20,83787,1,2
464,144,84120,2,0,B|488:192|472:288|416:352|328:368,1,280,4|0
345,365,85120,1,2
256,192,85454,6,0,B|256:40,1,140,8|2
256,192,86120,2,0,B|400:192,1,140,8|2
256,192,86787,2,0,B|112:192,1,140,8|2
256,192,87454,2,0,B|256:344,1,140,8|4
120,264,88120,5,8
256,192,88454,1,2
392,264,88787,1,8
256,192,89120,1,2
120,120,89454,1,8
256,192,89787,1,2
392,120,90120,1,8
256,192,90454,1,4
256,192,90787,12,4,93120
392,336,93454,6,0,B|328:304|248:384|104:336,1,280,4|0
117,339,94454,1,2
120,48,94787,2,0,B|184:80|264:0|408:48,1,280,4|0
396,44,95787,1,2
456,232,96120,6,0,B|400:168,1,70,4|0
360,264,96454,2,0,B|288:288,1,70,4|0
282,188,96787,1,4
224,112,96954,1,0
168,192,97120,1,4
112,112,97287,1,4
56,192,97454,5,4
56,192,97620,1,2
112,272,97787,1,4
112,272,97954,1,2
168,192,98120,1,4
224,272,98287,1,4
232,256,98370,1,0
240,240,98454,1,0
248,224,98537,1,0
256,208,98620,1,0
264,192,98704,1,0
272,176,98787,6,0,B|304:96,2,70,4|0|8
360,176,99287,1,0
448,176,99454,1,0
456,192,99537,1,0
464,208,99620,1,0
472,224,99704,1,0
480,240,99787,2,0,B|480:288,2,35,8|0|0
400,248,100120,6,0,B|360:280|336:312,2,70,0|0|8
360,176,100620,1,0
400,104,100787,2,0,B|384:56,3,35
360,40,101120,2,0,B|312:24,3,35
288,40,101454,6,0,B|240:32|200:40,2,70,4|0|8
256,128,101954,1,0
280,208,102120,2,0,B|328:216|368:208,2,70,4|0|8
256,128,102620,1,0
184,168,102787,2,0,B|176:216|184:256,2,70,4|0|8
256,128,103287,1,0
192,56,103454,6,0,B|232:32,1,35,4|0
256,128,103704,2,0,B|296:144,1,35,0|4
352,72,103954,1,0
432,128,104120,5,4
432,128,104287,1,0
472,216,104454,2,0,B|464:264|440:288,1,70,8|0
368,224,104787,5,4
368,224,104954,1,0
272,248,105120,2,0,B|224:256|192:280,1,70,8|0
120,320,105454,5,4
120,320,105620,1,0
64,240,105787,2,0,B|32:200|24:184,1,70,8|0
88,112,106120,5,4
88,112,106287,1,0
168,56,106454,2,0,B|208:48|256:40,1,70,8|0
312,112,106787,6,0,B|360:128|384:152,2,70,4|0|8
256,192,107287,1,0
200,272,107454,2,0,B|152:256|128:232,2,70,4|0|8
256,192,107954,1,0
352,192,108120,2,0,B|424:192,2,70,4|0|8
256,192,108620,5,0
240,192,108704,1,0
224,192,108787,1,8
208,192,108870,1,0
192,192,108954,1,0
176,192,109037,1,0
160,192,109120,1,8
144,192,109204,1,0
128,192,109287,1,0
112,192,109370,1,0
96,192,109454,6,0,B|48:152|32:120,2,70,4|0|8
136,104,109954,1,0
136,104,110037,1,0
136,104,110120,2,0,B|168:80|216:56,2,70,4|0|8
176,192,110620,1,0
176,192,110704,1,0
176,192,110787,2,0,B|208:232|216:264,2,70,4|0|8
88,232,111287,1,0
88,232,111370,1,0
88,232,111454,2,0,B|48:248|16:272,2,70,4|0|8
144,312,111954,6,0,B|144:352,2,35,0|0|4
224,280,112287,1,0
304,304,112454,1,8
384,272,112620,2,0,B|424:304,2,35,0|0|4
360,192,112954,1,0
384,112,113120,1,8
312,72,113287,6,0,B|320:24,2,35,0|0|4
240,112,113620,1,0
160,88,113787,1,8
96,136,113954,1,0
88,216,114120,6,0,B|56:248,1,35,4|0
96,320,114370,2,0,B|144:352,1,35,0|4
208,320,114620,1,0
216,240,114787,6,0,B|256:224|296:216,2,70,4|0|8
216,240,115287,1,0
216,144,115454,2,0,B|192:96|176:72,2,70,4|0|8
216,144,115954,1,0
312,120,116120,2,0,B|360:120|400:112,2,70,4|0|8
312,120,116620,1,0
360,208,116787,2,0,B|376:240|384:280,2,70,4|0|8
360,208,117287,1,0
312,120,117454,6,0,B|272:80|232:64|176:64,1,140,4|8
152,152,117954,1,0
200,240,118120,2,0,B|240:280|280:296|336:296,1,140,4|8
360,208,118620,1,0
456,208,118787,2,0,B|488:136,2,70,4|0|8
360,208,119287,5,0
344,208,119370,1,0
328,208,119454,1,8
312,208,119537,1,0
296,208,119620,1,0
280,208,119704,1,0
264,208,119787,1,8
248,208,119870,1,0
232,208,119954,1,0
216,208,120037,1,0
200,208,120120,1,4
