osu file format v9

[General]
AudioFilename: Final Answer.mp3
AudioLeadIn: 2000
PreviewTime: 81225
Countdown: 1
SampleSet: Soft
StackLeniency: 0.7
Mode: 0
LetterboxInBreaks: 1

[Editor]
Bookmarks: 8058,18725,40058,50725,61392,70725,82725,93392,130725,173308
DistanceSpacing: 0.9
BeatDivisor: 4
GridSize: 16

[Metadata]
Title:Final Answer
Artist:07th Expansion
Creator:Shiirn
Version:Question
Source:Umineko no Naku Koro ni Chiru
Tags:dai onosakihito

[Difficulty]
HPDrainRate:7
CircleSize:4
OverallDifficulty:8
ApproachRate:9
SliderMultiplier:2.13
SliderTickRate:2

[Events]
//Background and Video events
0,0,"bbd39543216d874ba928dde96f133648.jpg"
//Break Periods
2,72258,76792
2,141592,143458
//Storyboard Layer 0 (Background)
//Storyboard Layer 1 (Fail)
//Storyboard Layer 2 (Pass)
//Storyboard Layer 3 (Foreground)
//Storyboard Sound Samples
//Background Colour Transformations
3,100,163,162,255

[TimingPoints]
59,333.333333333333,4,2,0,45,1,0
8058,-100,4,1,0,40,0,0
18725,-100,4,2,1,60,0,0
26892,-100,4,2,1,75,0,0
28058,-100,4,1,0,40,0,0
40058,-100,4,1,0,40,0,1
50725,-100,4,1,0,55,0,0
82725,-100,4,2,0,65,0,0
93392,-100,4,1,0,55,0,0
98725,-100,4,1,0,55,0,1
109308,-100,4,1,0,55,0,0
109392,-100,4,1,0,60,0,1
120058,-100,4,1,0,60,0,0
130058,-100,4,2,0,40,0,0
130142,-100,4,2,0,45,0,0
130225,-100,4,2,0,50,0,0
130308,-100,4,2,0,55,0,0
130392,-100,4,2,0,60,0,0
130475,-100,4,2,0,65,0,0
130558,-100,4,2,0,70,0,0
130642,-100,4,2,0,75,0,0
130725,-100,4,1,0,65,0,0
144058,-100,4,1,0,50,0,0
152058,-100,4,2,0,75,0,0
162725,-100,4,1,0,60,0,0
168058,-100,4,1,0,70,0,1
178642,-100,4,1,0,70,0,0
178725,-100,4,1,0,70,0,1
189392,-100,4,1,0,70,0,0
199392,-100,4,2,0,50,0,0
200058,352.941176470588,4,2,0,50,1,0
200058,-200,4,2,0,50,0,0
200225,-200,4,2,0,5,0,0
201392,-200,4,2,0,15,0,0

[Colours]
Combo1 : 255,128,230
Combo2 : 191,67,64
Combo3 : 185,224,158
Combo4 : 218,165,208
Combo5 : 234,27,21
Combo6 : 119,242,98

[HitObjects]
104,212,59,6,0,B|132:168|180:140,2,106.5,2|0|2
408,172,558,2,0,B|380:216|332:244,2,106.5,0|2|0
448,192,975,1,0
484,208,1058,2,0,B|484:260|468:312,1,106.5,2|0
356,356,1392,5,2
308,252,1558,1,0
196,292,1725,1,2
132,192,1892,1,0
164,192,1975,1,0
196,192,2058,1,2
380,192,2225,1,0
348,192,2308,1,0
316,192,2392,2,0,B|208:192,1,106.5,0|2
36,192,2725,5,2
56,296,2892,1,0
148,352,3058,1,2
256,300,3225,1,0
256,268,3308,1,0
256,232,3392,1,2
364,352,3558,1,0
456,296,3724,1,2
476,192,3891,1,0
428,96,4058,54,0,B|408:144|360:176,1,106.5,2|0
84,96,4392,2,0,B|104:144|152:176,1,106.5,2|2
192,192,4642,1,0
232,204,4725,1,2
256,84,4892,1,0
360,175,5058,2,0,B|408:144|428:96,1,106.5,0|2
476,192,5392,5,2
376,256,5558,1,2
396,269,5642,1,0
417,282,5725,1,0
256,247,5892,5,2
256,272,5976,1,0
256,297,6059,1,0
136,256,6225,53,2
116,269,6309,1,0
95,282,6392,1,0
256,136,6558,5,2
256,111,6642,1,0
256,86,6725,1,0
136,104,6892,6,0,B|92:76,2,53.25,2|0|0
160,192,7225,1,0
352,192,7392,1,2
188,264,7558,1,2
324,120,7725,1,0
256,312,7892,1,2
256,72,8058,54,0,B|204:56|152:56,1,106.5
40,196,8392,2,0,B|92:212|144:212,1,106.5,8|0
432,272,8725,2,0,B|380:256|327:255,1,106.5,0|0
292,280,8975,1,0
256,312,9059,2,0,B|308:328|361:329,1,106.5,8|0
256,72,9392,6,0,B|204:56|152:56,1,106.5
111,78,9642,1,0
80,112,9726,2,0,B|132:128|184:128,1,106.5,8|0
428,192,10058,2,0,B|320:192,1,106.5,8|0
220,216,10392,1,8
220,216,10475,1,0
220,216,10558,1,0
163,304,10725,6,0,B|208:268|220:216,1,106.5
128,220,11058,1,8
256,348,11225,1,0
288,216,11392,2,0,B|300:268|344:304,1,106.5
372,324,11642,1,0
400,336,11725,1,8
384,220,11892,1,0
488,192,12058,53,0
444,96,12225,1,0
444,96,12308,1,0
444,96,12392,1,8
348,48,12558,1,0
256,100,12725,1,8
164,48,12892,1,0
68,96,13058,1,8
68,96,13141,1,0
68,96,13225,1,8
88,324,13392,6,0,B|124:284|128:228,1,106.5
256,344,13725,2,0,B|256:236,1,106.5,8|0
424,324,14058,2,0,B|388:284|384:228,1,106.5
408,192,14308,1,0
383,156,14392,2,0,B|388:100|424:60,1,106.5,8|0
87,59,14725,6,0,B|124:100|128:156,1,106.5
152,192,14975,1,0
128,227,15059,2,0,B|124:284|88:324,1,106.5,8|0
45,192,15392,2,0,B|152:192,1,106.5,8|0
272,192,15725,1,8
296,216,15808,1,0
320,236,15892,1,0
240,320,16058,54,0,B|292:336|348:328,1,106.5,0|0
504,248,16392,2,0,B|396:248,1,106.5,8|0
272,252,16725,1,0
152,272,16892,1,0
152,272,16975,1,0
152,272,17058,2,0,B|100:256|44:264,1,106.5,8|0
236,192,17392,5,0
152,112,17558,1,0
152,112,17641,1,0
152,112,17724,2,0,B|100:128|44:120,1,106.5,8|0
240,64,18058,2,0,B|292:48|348:56,1,106.5,8|0
408,140,18392,1,8
408,140,18475,1,0
408,140,18558,1,8
340,296,18725,6,0,B|328:244|296:200,1,106.5,4|2
256,192,18975,1,0
216,184,19058,2,0,B|184:140|172:88,1,106.5,0|2
340,87,19392,2,0,B|328:140|295:184,1,106.5,4|2
256,192,19641,1,0
216,199,19725,2,0,B|184:244|172:296,1,106.5,0|2
60,320,20058,54,0,B|112:336|164:320,1,106.5,4|2
104,212,20392,2,0,B|52:196|0:212,1,106.5,0|2
79,56,20725,2,0,B|132:40|184:56,1,106.5,4|2
168,92,20975,1,0
140,120,21059,2,0,B|192:136|244:120,1,106.5,2|2
296,48,21392,5,4
400,88,21558,2,0,B|368:132,2,53.25,2|0|0
320,192,21892,2,0,B|373:192,2,53.25,2|0|4
400,296,22225,2,0,B|368:252,2,53.25,2|0|4
296,336,22558,5,2
256,352,22642,1,0
216,336,22725,1,0
112,296,22892,2,0,B|144:252,2,53.25,2|0|0
193,192,23226,2,0,B|139:192,2,53.25,2|0|0
112,88,23559,2,0,B|144:132,1,53.25,2|0
108,84,23725,2,0,B|152:48|204:44,1,106.5,2|2
256,136,24058,54,0,B|308:136|356:104,1,106.5,0|2
472,192,24392,2,0,B|360:192,1,106.5,8|2
256,248,24725,2,0,B|308:248|356:280,1,106.5,0|2
204,352,25058,2,0,B|310:352,1,106.5,8|2
160,292,25392,5,0
60,324,25558,1,2
32,220,25725,1,8
136,192,25892,1,2
160,92,26058,1,0
60,60,26224,1,2
32,164,26391,1,8
136,192,26558,1,2
256,32,26725,6,0,B|240:84|268:84|256:136,1,106.5,4|0
249,151,26975,1,0
242,165,27058,1,2
237,180,27142,1,0
234,195,27225,1,0
233,210,27308,1,0
234,226,27392,53,2
238,241,27475,1,0
243,255,27558,1,0
250,269,27642,1,2
256,283,27725,1,2
263,297,27808,1,0
272,309,27892,1,2
281,321,27975,1,2
290,333,28058,5,4
222,51,28392,1,8
148,176,28558,1,0
184,318,28725,1,0
327,65,29059,5,8
364,208,29225,1,0
290,333,29392,2,0,B|184:340|88:268,1,213,0|8
256,192,29892,1,0
222,51,30058,2,0,B|328:44|424:116,1,213,0|8
256,192,30558,1,0
290,333,30725,54,0,B|184:340|88:268,1,213,0|8
492,192,31392,2,0,B|280:192,1,213,0|8
136,192,31892,1,0
71,96,32058,6,0,B|124:96|124:96|172:120,1,106.5
71,288,32392,2,0,B|124:288|124:288|172:264,1,106.5,8|0
340,120,32725,2,0,B|388:96|388:96|440:96,1,106.5,0|8
440,288,33058,2,0,B|388:288|388:288|340:264,1,106.5,8|0
256,192,33392,6,0,B|160:236|112:344,1,213,0|8
312,352,33892,1,0
256,192,34058,2,0,B|352:148|400:40,1,213,0|8
200,32,34558,1,0
80,88,34725,54,0,B|134:77|134:77|170:119|225:108|225:108|261:150,1,213,0|8
312,352,35225,1,0
432,296,35392,2,0,B|377:306|377:306|341:264|286:275|286:275|250:233,1,213,0|8
200,32,35892,1,0
208,348,36058,6,0,B|196:296|169:250,1,106.5
304,36,36392,2,0,B|316:88|344:135,1,106.5,8|0
212,232,36725,1,0
300,152,36892,1,8
192,112,37058,1,8
320,272,37225,1,0
248,192,37392,5,0
236,304,37558,2,0,B|212:320|212:352,2,53.25
68,332,37892,2,0,B|72:364|56:384,2,53.25
100,192,38225,2,0,B|90:218|68:233,1,53.25
88,252,38392,2,0,B|114:261|129:283,1,53.25
156,268,38558,2,0,B|177:252|187:226,1,53.25
188,196,38725,53,0
307,223,38892,2,0,B|329:246|331:270,2,53.25,0|0|8
152,148,39392,6,0,B|108:116,1,53.2500000000001,8|0
96,192,39558,2,0,B|40:192,1,53.2500000000001
152,236,39725,2,0,B|108:268,1,53.2500000000001,8|0
208,192,39892,1,8
248,192,39975,1,8
288,192,40058,54,0,B|448:192,1,159.75,4|0
488,192,40392,1,8
352,328,40558,1,0
352,328,40642,1,0
352,328,40725,2,0,B|304:268|212:256,1,159.75
192,224,41058,1,8
352,56,41225,53,0
352,56,41309,1,0
352,56,41392,2,0,B|304:116|212:128,1,159.75
176,112,41725,1,8
28,192,41892,1,0
28,192,41975,1,0
28,192,42058,2,0,B|84:192|128:240|128:296,1,159.75
176,252,42392,6,0,B|220:220|276:216,1,106.5,8|0
212,192,42642,1,0
274,167,42725,2,0,B|180:156|132:100,1,159.75
112,56,43058,2,0,B|159:34|216:45,1,106.5,8|0
256,80,43308,1,0
296,48,43392,2,0,B|279:132|311:204,1,159.75,0|0
360,192,43725,1,8
472,168,43892,5,0
480,200,43975,1,0
488,232,44058,2,0,B|420:272|376:344,1,159.75
356,368,44392,1,8
184,264,44558,53,0
192,232,44641,1,0
200,200,44724,2,0,B|132:159|88:88,1,159.75,8|0
13,162,45058,2,8,B|58:135|88:88,1,106.5,8|8
118,59,45308,1,0
152,32,45392,6,8,B|223:76|264:143,1,159.75,0|0
240,192,45725,1,8
396,288,45892,1,0
380,321,45975,1,0
360,352,46058,2,8,B|288:307|247:240,1,159.75,0|0
272,192,46391,1,8
256,36,46558,5,0
256,60,46642,1,0
256,84,46725,2,0,B|256:244,1,159.75
256,280,47058,1,8
168,348,47225,1,0
140,336,47308,1,0
108,324,47392,2,0,B|44:264|56:180,1,159.75
92,188,47725,53,8
128,196,47808,1,0
164,204,47892,1,0
200,212,47975,1,0
236,220,48058,2,0,B|308:192|392:192,1,159.75
420,192,48392,1,8
311,94,48559,5,0
344,112,48642,1,0
376,129,48725,2,0,B|413:196|477:250,1,159.75
499,268,49059,1,8
311,290,49225,1,0
344,272,49308,1,0
376,255,49391,2,0,B|413:187|477:133,1,159.75
499,116,49725,1,8
392,40,49892,5,0
372,60,49975,1,0
344,64,50058,1,8
324,84,50142,1,0
296,88,50225,1,0
276,108,50309,1,0
248,112,50392,1,8
228,132,50475,1,0
200,136,50558,1,8
180,156,50642,1,8
160,176,50725,6,0,B|108:196|80:244,1,106.5
256,304,51058,2,0,B|256:196,1,106.5,8|0
352,176,51392,2,0,B|404:196|432:244,1,106.5,0|0
416,276,51642,1,0
388,296,51725,2,0,B|332:288|288:320,1,106.5,8|0
140,320,52058,6,0,B|96:288|88:228,1,106.5
120,116,52392,1,8
196,240,52558,1,0
280,120,52725,2,0,B|332:140|384:140,1,106.5
412,168,52975,1,0
436,200,53058,2,0,B|384:200|332:220,1,106.5,8|0
372,320,53392,6,0,B|416:288|424:228,1,106.5
392,116,53726,1,8
316,240,53892,1,0
232,120,54059,2,0,B|180:140|128:140,1,106.5
100,168,54309,1,0
76,200,54392,2,0,B|127:200|179:220,1,106.5,8|0
108,312,54725,53,0
200,336,54892,1,0
256,256,55058,1,8
312,336,55225,1,0
404,312,55392,1,0
348,232,55558,1,0
292,156,55725,1,8
212,104,55892,1,0
124,68,56059,5,0
109,90,56142,1,0
102,115,56225,1,0
103,141,56309,1,0
113,165,56392,2,0,B|148:203|116:265,1,106.5,8|0
96,282,56642,1,0
97,308,56725,2,0,B|158:339|196:304,1,106.5
212,283,56975,1,0
231,264,57058,1,8
256,255,57142,1,0
282,256,57225,1,0
307,264,57308,1,0
328,279,57392,6,0,B|384:296,3,53.25
405,297,57725,2,0,B|454:276|467:214,1,106.5,8|0
452,192,57975,1,0
466,168,58058,2,0,B|454:108|405:87,1,106.5
380,98,58308,1,0
356,110,58392,1,8
330,117,58475,1,0
303,120,58558,1,0
276,117,58642,1,0
250,110,58725,54,0,B|152:68|40:72,1,213,0|8
20,244,59225,1,0
32,280,59308,1,0
42,312,59392,2,0,B|152:316|250:274,1,213,0|8
273,262,59808,1,0
297,249,59892,1,0
320,236,59975,1,0
343,224,60058,6,0,B|442:268,1,106.5,8|0
343,160,60392,2,0,B|442:116,1,106.5,0|8
439,89,60642,1,0
436,62,60725,1,0
304,52,60892,1,0
297,77,60975,1,0
288,102,61058,2,0,B|201:163,1,106.5,8|0
140,88,61392,6,0,B|96:116|40:124,1,106.5
140,296,61725,2,0,B|96:268|40:260,1,106.5,8|0
116,192,62058,1,0
308,192,62225,1,0
212,184,62392,1,8
404,200,62558,1,0
384,276,62725,54,0,B|280:264,1,106.5
128,108,63058,2,0,B|232:120,1,106.5,8|0
196,232,63392,1,0
316,152,63558,1,8
296,312,63725,1,8
216,72,63892,1,0
256,192,64058,6,0,B|204:164|180:116,1,106.5
184,260,64392,2,0,B|236:288|260:336,1,106.5,8|0
404,180,64725,2,0,B|352:152|328:104,1,106.5
332,248,65059,2,0,B|384:276|408:324,1,106.5,8|0
496,368,65392,5,0
32,72,65725,1,8
32,72,65892,1,0
32,72,66058,2,0,B|16:124|16:124|28:176,1,106.5
108,328,66392,2,0,B|124:276|124:276|112:224,1,106.5,8|0
136,132,66725,53,0
204,200,66892,1,0
256,120,67058,1,0
308,200,67225,1,0
376,132,67392,1,0
256,268,67558,2,0,B|256:376,2,106.5,0|8|0
256,172,68058,6,0,B|340:148|408:196|408:272,1,213,8|0
256,212,68558,2,0,B|172:236|104:188|104:112,1,213,8|0
256,44,69058,2,0,B|236:96|276:96|256:148,1,106.5,8|0
148,56,69392,5,0
120,300,69725,1,8
364,328,70058,1,0
392,84,70392,1,8
64,52,70725,53,12
448,332,71058,1,4
340,136,71392,1,4
256,192,71558,1,0
172,248,71725,1,8
468,148,72058,5,4
256,132,77392,6,0,B|152:160,1,106.5,4|0
34,152,77725,2,0,B|124:92|237:100,1,213,8|4
64,272,78225,2,0,B|52:324,2,53.25,0|0|8
184,280,78558,1,0
328,280,78725,53,4
448,268,78892,2,0,B|459:319,2,53.25,0|0|8
372,176,79225,1,0
256,136,79392,1,4
136,176,79558,1,0
256,232,79725,2,0,B|256:312,2,53.25,8|0|0
332,160,80058,6,0,B|328:108|292:60,1,106.5
272,44,80308,1,0
248,28,80392,1,8
176,88,80558,2,0,B|120:84,2,53.25,0|0|8
136,176,80892,1,0
136,176,80975,1,0
136,176,81058,1,8
176,296,81225,6,0,B|240:211,1,106.5,0|8
256,352,81558,2,0,B|256:288,2,53.25,0|0|8
271,210,81892,2,0,B|336:296,1,106.5,0|8
336,189,82225,2,0,B|336:296,1,106.5,0|8
324,302,82475,1,0
312,307,82558,1,8
302,315,82642,1,8
288,324,82725,54,0,B|392:348|392:348|444:332|496:340,1,213,6|2
224,60,83392,2,0,B|120:36|120:36|68:52|16:44,1,213,2|2
96,248,84058,2,0,B|116:296|160:332,1,106.5,0|2
96,248,84392,2,0,B|83:298|96:353,1,106.5,2|2
96,248,84725,2,0,B|200:228|308:252,1,213,2|2
256,324,85225,1,0
256,324,85392,6,0,B|256:112,1,213,2|2
503,24,86058,2,0,B|496:136|449:228,1,213,2|2
421,326,86558,1,0
328,368,86725,1,2
80,264,87058,1,2
184,16,87392,1,2
432,120,87725,1,2
214,303,88058,6,0,B|273:308|320:320,1,106.5,4|2
144,150,88392,2,0,B|140:209|128:256,1,106.5,8|2
297,80,88725,2,0,B|239:76|192:64,1,106.5,4|2
367,233,89059,2,0,B|372:175|384:128,1,106.5,8|2
159,323,89392,54,0,B|234:350|291:383,1,106.5,4|2
124,95,89726,2,0,B|97:170|64:227,1,106.5,8|2
352,60,90059,2,0,B|277:33|220:0,1,106.5,4|2
387,288,90393,2,0,B|414:213|447:156,1,106.5,8|2
256,192,90725,5,4
363,146,90892,1,2
317,37,91058,1,8
209,83,91225,1,2
256,192,91392,1,4
301,299,91559,1,2
193,345,91725,1,8
147,238,91892,1,2
256,192,92058,5,2
480,40,92392,1,2
436,320,92725,1,6
32,344,93058,1,2
76,64,93392,53,4
72,308,94392,1,4
40,184,94559,1,4
76,64,94725,1,4
445,365,95225,5,0
460,316,95308,1,0
446,265,95392,1,8
120,72,95892,5,0
105,121,95975,1,0
119,172,96059,1,8
203,232,96225,53,0
218,183,96308,1,0
204,132,96392,1,8
289,32,96558,5,0
274,81,96641,1,0
288,132,96725,1,8
372,192,96891,5,0
387,143,96974,1,0
373,92,97058,1,8
475,35,97225,53,0
460,84,97308,1,0
474,135,97392,2,0,B|480:192,1,53.25,8|0
452,212,97558,2,0,B|460:264,1,53.25
448,300,97725,2,0,B|392:328,1,53.25,8|0
356,308,97892,2,0,B|288:308,1,53.25
264,328,98058,5,8
216,336,98142,1,0
168,332,98225,1,0
124,316,98308,1,0
84,288,98392,1,8
60,248,98475,1,0
44,204,98558,1,8
40,156,98642,1,8
64,112,98725,54,0,B|136:124|224:128,1,159.75,4|0
256,112,99058,1,8
368,52,99225,1,0
400,68,99308,1,0
432,84,99392,2,0,B|484:148|468:236,1,159.75,4|0
436,264,99725,1,8
304,348,99892,53,0
272,332,99975,1,0
240,316,100059,2,0,B|188:252|204:164,1,159.75,4|0
236,136,100392,1,8
56,196,100558,1,0
56,196,100642,1,0
56,196,100725,2,0,B|68:284|112:344,1,159.75
160,348,101058,1,8
216,208,101225,5,0
216,208,101309,1,0
216,208,101392,2,0,B|204:120|160:60,1,159.75,4|0
112,56,101725,1,8
268,76,101892,1,0
290,89,101975,1,0
311,105,102058,1,4
328,125,102142,1,0
341,147,102225,1,0
354,169,102308,1,0
364,192,102392,1,8
455,187,102558,6,0,B|508:168,1,53.25
456,192,102725,2,0,B|296:192,1,159.75,4|0
256,192,103058,1,8
57,197,103225,54,0,B|4:172,1,53.25
56,192,103392,2,0,B|148:184|204:236,1,159.75,0|0
211,262,103725,1,12
224,284,103808,1,0
241,304,103892,1,8
260,321,103975,1,8
282,335,104058,6,0,B|438:359,1,159.75,4|0
468,360,104392,1,8
496,192,104558,1,0
464,192,104642,1,0
432,192,104725,2,0,B|385:160|338:223|276:192,1,159.75,4|0
260,192,105058,1,8
241,80,105225,5,0
260,63,105308,1,0
282,49,105391,2,0,B|438:25,1,159.75,4|0
468,24,105725,1,8
384,112,105892,1,0
368,128,105975,1,0
352,144,106058,2,0,B|352:304,1,159.75,4|0
392,320,106392,1,8
128,112,106558,53,0
144,128,106641,1,0
160,144,106724,2,0,B|160:304,1,159.75
160,328,107058,1,8
357,348,107225,1,0
332,339,107308,1,0
306,333,107392,2,0,B|228:315|146:345,1,159.75,4|0
112,328,107725,1,8
229,225,107892,5,0
254,234,107975,1,0
280,240,108059,2,0,B|358:258|440:228,1,159.75
474,245,108392,1,8
400,304,108558,1,0
384,288,108642,1,0
368,272,108725,5,8
352,256,108808,1,0
336,240,108892,1,0
320,224,108975,1,0
304,208,109058,53,8
288,192,109142,1,0
272,176,109225,1,8
256,160,109308,1,8
240,144,109392,6,0,B|80:160,1,159.75,4|0
80,192,109725,1,8
136,312,109892,1,0
152,320,109975,1,0
168,328,110058,2,0,B|255:335|316:282,1,159.75
328,272,110392,1,8
472,260,110558,5,0
488,224,110642,1,0
464,192,110725,2,0,B|288:192,1,159.75
272,192,111058,1,8
256,88,111225,53,0
235,71,111308,1,0
211,58,111392,1,8
185,50,111475,1,0
158,48,111558,1,0
73,82,111725,1,8
75,108,111808,1,0
77,134,111892,1,0
79,160,111975,1,0
82,186,112058,6,0,B|110:256|192:296,1,159.75
216,308,112392,1,8
435,134,112558,1,0
433,160,112641,1,0
430,185,112724,2,0,B|402:256|319:296,1,159.75
296,308,113058,1,8
228,208,113225,5,0
236,176,113308,1,0
256,152,113392,2,0,B|256:312,1,159.75
256,348,113725,2,0,B|308:360|368:352,1,106.5,8|0
384,338,113975,1,0
401,317,114058,1,8
401,290,114142,2,0,B|412:184,1,106.5,8|0
416,157,114392,1,8
256,28,114558,53,8
256,40,114642,1,0
256,52,114725,2,0,B|256:212,1,159.75
256,244,115058,1,8
256,360,115225,1,0
256,344,115309,1,0
256,332,115392,2,0,B|256:172,1,159.75
256,140,115725,1,8
44,241,115892,5,0
72,217,115975,1,0
108,192,116058,2,0,B|167:144|255:137,1,159.75
288,137,116392,1,8
468,143,116558,1,0
440,167,116641,1,0
404,192,116724,2,0,B|344:239|256:246,1,159.75,4|0
224,247,117058,1,8
72,336,117225,5,0
104,336,117308,1,0
136,336,117392,2,0,B|196:336,2,53.25,8|0|0
325,336,117725,2,0,B|272:336,2,53.25,8|0|0
357,336,117975,1,0
389,336,118058,2,0,B|452:332|480:296|484:228,1,159.75,8|0
510,192,118392,54,0,B|404:192,1,106.5,8|0
372,192,118642,1,0
339,192,118725,2,0,B|276:204|228:172|220:116,1,159.75
300,120,119058,2,0,B|240:232,1,106.5,8|0
240,239,119308,1,0
229,263,119392,5,8
212,283,119475,1,0
193,302,119558,1,0
168,313,119642,1,0
143,322,119725,1,8
116,326,119808,1,0
89,322,119892,1,8
66,307,119975,1,8
53,283,120058,22,0,B|76:62,1,213,4|8
459,101,120725,2,0,B|436:322,1,213,0|8
256,328,121392,6,0,B|204:348|152:356,2,106.5,0|0|8
256,192,121892,1,0
256,56,122058,2,0,B|308:36|360:28,2,106.5,0|0|8
48,316,122725,5,0
124,336,122892,1,0
196,352,123058,1,8
464,68,123392,1,0
388,48,123558,1,0
316,32,123725,1,8
52,132,124058,53,0
104,236,124225,1,0
196,164,124392,1,8
256,264,124558,1,0
316,164,124725,1,0
408,236,124892,1,8
460,132,125059,1,8
256,20,125392,6,0,B|256:232,1,213,0|8
256,352,125892,1,0
332,292,126058,1,0
332,292,126225,1,0
180,292,126392,1,8
180,292,126559,1,0
100,340,126725,6,0,B|48:248|72:132,1,213,0|8
412,340,127392,2,0,B|464:248|440:132,1,213,0|8
335,155,128058,54,0,B|256:84,1,106.5
256,190,128391,2,0,B|256:84,1,106.5,8|0
177,155,128725,2,0,B|256:84,1,106.5,0|8
255,84,129058,1,8
40,192,129392,5,0
472,192,129725,1,8
256,312,130058,2,0,B|256:284,15,26.625,2|2|2|2|2|2|2|2|2|2|2|2|2|2|2|2
256,256,130725,6,0,B|468:232,1,213,0|0
324,192,131225,1,0
467,151,131392,2,0,B|256:128,1,213,8|0
188,192,131892,1,0
116,252,132058,53,0
396,132,132392,1,0
96,72,132725,1,8
416,312,133058,1,0
332,256,133225,1,4
256,192,133392,5,0
256,192,134058,1,8
256,192,134725,1,0
56,64,136058,6,0,B|170:149|255:64|341:-21|455:64,1,426,0|8
56,320,137058,1,0
455,319,137392,54,0,B|341:405|255:320|170:234|56:320,1,426,0|0
32,64,138392,1,8
0,224,138725,5,0
512,128,139058,1,8
0,288,139392,1,0
512,64,139725,1,8
64,128,140058,5,8
64,128,140142,1,8
64,128,140225,1,8
256,352,140558,1,0
448,128,140892,1,0
448,128,141058,1,8
256,192,141392,53,4
256,152,144058,6,0,B|308:136|360:152,1,106.5,4|0
256,232,144392,2,0,B|204:248|152:232,1,106.5
256,152,144725,2,0,B|256:260,1,106.5
256,280,144975,1,0
256,304,145058,1,8
320,352,145225,1,0
192,352,145392,5,0
256,304,145558,1,0
256,280,145641,1,0
256,256,145725,1,0
316,188,145892,2,0,B|368:196|416:232,2,106.5,0|8|0
196,188,146392,1,8
144,204,146475,1,0
99,229,146558,1,0
152,104,146725,54,0,B|256:64|360:104,1,213,0|8
256,348,147392,2,0,B|256:240,1,106.5
256,241,147642,1,0
256,241,147725,1,8
256,37,147892,2,0,B|256:144,1,106.5
356,84,148225,5,0
388,80,148308,1,0
420,76,148392,1,8
464,192,148558,1,0
332,192,148725,2,0,B|448:192,1,106.5,8|0
420,308,149058,1,8
388,304,149142,1,0
356,300,149225,1,0
324,296,149308,1,0
292,292,149392,6,0,B|160:276,1,106.5
24,192,149725,2,0,B|240:192,1,213,8|0
186,104,150225,2,0,B|239:98,2,53.25,0|0|8
256,192,150558,1,0
256,192,150725,53,0
325,279,150892,2,0,B|272:285,2,53.25,0|0|8
396,192,151225,2,0,B|280:192,2,106.5,0|8|0
480,192,151725,1,8
480,208,151808,1,0
480,224,151892,1,8
480,240,151975,1,8
480,256,152058,6,0,B|376:296|272:296,1,213,6|2
32,128,152725,2,0,B|136:88|240:88,1,213,2|2
120,320,153392,6,0,B|224:344,1,106.5,0|2
120,320,153725,2,0,B|224:272,1,106.5,2|2
120,320,154058,2,0,B|216:128,1,213,2|2
256,248,154558,1,0
296,129,154725,54,0,B|392:320,1,213,2|2
496,136,155392,1,2
16,136,155725,1,2
104,192,155892,1,0
192,248,156058,1,2
432,312,156392,1,2
416,56,156725,1,2
136,32,157058,1,2
362,192,157392,6,0,B|256:192,1,106.5,4|2
256,298,157725,2,0,B|256:192,1,106.5,8|2
149,192,158058,2,0,B|256:192,1,106.5,4|2
256,85,158391,2,0,B|256:192,1,106.5,8|2
364,192,158725,69,4
332,264,158892,1,2
256,300,159058,1,8
184,268,159225,1,2
148,192,159392,1,4
180,120,159559,1,2
256,84,159725,1,8
328,116,159892,1,2
332,264,160058,5,4
184,268,160225,1,2
180,120,160392,1,8
328,116,160558,1,2
256,300,160725,53,4
148,192,160892,1,2
256,84,161058,1,8
364,192,161225,1,2
452,192,161392,5,2
60,192,161725,1,2
504,192,162058,1,4
8,192,162391,1,2
256,80,162725,5,4
256,304,163725,1,0
256,192,163891,1,0
256,80,164058,1,0
448,100,164558,1,0
448,100,164642,1,0
448,100,164725,1,8
352,240,165225,53,0
380,256,165308,1,0
408,272,165392,1,8
256,244,165558,5,0
256,276,165642,1,0
256,308,165725,1,8
160,240,165892,5,0
132,256,165975,1,0
104,272,166059,1,8
160,144,166225,53,0
132,128,166308,1,0
104,112,166392,1,8
256,76,166558,5,0
256,108,166641,1,0
256,140,166725,2,0,B|256:192,1,53.25,8|0
264,208,166892,2,0,B|320:236,1,53.25
328,236,167058,2,0,B|380:240,1,53.25,8|0
396,236,167225,2,0,B|464:200,1,53.25
445,195,167392,5,8
444,179,167475,1,0
441,163,167558,1,0
437,147,167642,1,0
431,131,167725,1,8
420,118,167808,1,0
408,106,167892,1,8
395,95,167975,1,8
379,90,168058,54,0,B|220:72,1,159.75,4|0
180,64,168392,1,8
128,172,168558,1,0
92,176,168642,1,0
64,192,168725,2,0,B|228:192,1,159.75,4|0
256,192,169058,1,8
408,278,169225,53,0
395,289,169308,1,0
379,294,169391,2,0,B|220:312,1,159.75
180,320,169725,1,8
48,316,169892,2,0,B|24:364,1,53.25
56,312,170058,2,0,B|44:236|60:152,1,159.75,0|0
100,168,170392,1,8
204,264,170558,5,0
240,276,170642,1,0
272,284,170725,2,0,B|320:212|312:132,1,159.75
284,116,171058,1,8
464,68,171225,2,0,B|488:20,1,53.25
456,72,171391,2,0,B|468:148|452:232,1,159.75
412,216,171725,1,8
308,120,171892,5,0
272,108,171976,1,0
240,100,172059,2,0,B|192:172|200:252,1,159.75
228,268,172392,1,8
404,332,172558,2,0,B|440:276,2,53.25,0|0|8
364,344,172808,54,0,B|312:360|260:352,1,106.5,8|0
240,316,173058,2,0,B|186:307|134:323,1,106.5,8|8
108,344,173308,1,8
72,360,173392,6,0,B|24:300|36:208,1,159.75
76,192,173725,1,8
134,60,173892,1,0
108,40,173974,1,0
72,24,174058,2,0,B|24:84|36:176,1,159.75,0|0
76,192,174391,1,8
188,144,174558,5,0
212,168,174642,1,0
232,192,174725,2,0,B|304:236|384:192,1,159.75
420,176,175058,1,8
376,84,175225,1,0
352,108,175309,1,0
328,128,175392,2,0,B|284:200|328:280,1,159.75
344,316,175725,1,8
136,300,175892,53,0
160,276,175976,1,0
184,256,176059,2,0,B|228:184|184:104,1,159.75
168,68,176392,1,8
56,200,176558,1,0
80,176,176642,1,0
100,152,176725,2,0,B|172:108|252:152,1,159.75
288,168,177058,1,8
268,264,177225,5,0
272,296,177308,1,0
256,328,177392,2,0,B|256:168,1,159.75
256,136,177725,1,8
256,32,177892,1,0
271,54,177975,1,0
289,74,178058,1,8
313,85,178142,1,0
337,94,178225,5,0
361,102,178308,1,0
385,112,178392,1,8
404,130,178475,1,0
417,152,178558,53,8
427,176,178642,1,8
436,200,178725,2,0,B|424:288|340:319,1,159.75
320,352,179058,1,8
191,361,179225,1,0
181,337,179309,1,0
172,313,179392,2,0,B|184:225|268:194,1,159.75
288,161,179725,1,8
324,264,179892,5,0
288,272,179975,1,0
248,264,180058,2,0,B|164:228|148:148,1,159.75
144,112,180392,1,8
48,248,180558,1,0
80,268,180641,1,0
112,260,180724,2,0,B|196:224|212:144,1,159.75
216,108,181058,1,8
276,152,181225,5,0
312,152,181308,1,0
348,152,181392,2,0,B|420:184|384:228|432:280,1,159.75
460,312,181725,1,8
496,200,181892,1,0
472,168,181975,1,0
440,148,182059,2,0,B|368:184|404:228|344:280,1,159.75
328,312,182392,1,8
176,344,182558,53,0
208,324,182642,1,0
236,304,182725,2,0,B|264:144,1,159.75
224,132,183058,1,8
168,60,183225,2,0,B|132:116,2,53.25,0|0|8
208,48,183475,2,0,B|260:32|312:40,1,106.5,8|0
332,76,183725,6,0,B|386:85|438:69,1,106.5,8|8
460,96,183975,1,8
476,128,184058,2,0,B|424:192|332:192,1,159.75
300,192,184392,1,8
437,314,184558,1,0
460,288,184642,1,0
476,256,184725,2,0,B|424:192|332:192,1,159.75
300,192,185059,1,8
184,188,185225,6,0,B|200:128,1,53.25
152,192,185392,2,0,B|100:244|156:288|88:332,1,159.75
156,316,185725,2,0,B|200:344|260:332,1,106.5,8|0
304,328,185975,1,0
360,332,186058,2,0,B|293:288|349:244|297:192,1,159.75
328,188,186392,1,8
424,152,186558,53,0
392,132,186642,1,0
356,112,186725,2,0,B|348:180|288:208|236:172,1,159.75
256,124,187058,1,8
88,152,187225,1,0
120,132,187309,1,0
156,112,187392,2,0,B|164:180|224:208|276:172,1,159.75
256,124,187725,1,8
256,32,187892,5,0
256,32,187975,1,0
256,32,188058,2,0,B|256:208,1,159.75
256,228,188392,1,8
448,300,188558,5,0
412,319,188642,1,0
373,310,188725,1,8
335,296,188808,1,0
294,292,188892,1,0
256,304,188975,1,0
218,292,189058,1,8
177,296,189142,1,0
139,310,189225,1,8
100,319,189308,1,8
64,300,189392,5,4
132,92,189725,1,8
340,160,190058,1,0
272,368,190392,1,8
196,228,190725,6,0,B|184:176|204:124,1,106.5
88,204,191058,2,0,B|88:256|68:308,1,106.5,8|0
316,156,191392,2,0,B|328:208|308:260,1,106.5,0|8
424,180,191725,2,0,B|424:128|444:76,1,106.5,8|0
152,32,192058,6,0,B|256:72|360:32,1,213,0|8
360,352,192725,2,0,B|256:312|152:352,1,213,0|8
512,88,193392,54,0,B|472:192|512:296,1,213,0|8
416,308,193892,1,0
328,268,194058,1,0
388,192,194225,1,8
328,116,194392,1,8
416,76,194558,1,0
512,88,194725,6,0,B|472:192|512:296,1,213,0|8
0,296,195392,2,0,B|40:192|0:88,1,213,0|8
96,88,195892,1,0
193,105,196058,6,0,B|256:192,1,106.5
224,280,196392,1,8
256,368,196558,1,0
318,278,196725,2,0,B|256:192,1,106.5,0|8
288,104,197059,1,8
256,16,197225,1,0
352,32,197392,54,0,B|440:92|468:208,1,213,0|8
288,104,197892,1,0
288,104,198058,2,0,B|332:200|296:314,1,213,0|8
196,132,198558,1,0
196,132,198725,2,0,B|204:244|296:312,1,213,0|8
344,204,199225,1,0
458,236,199392,5,2
458,236,199475,1,2
458,236,199558,1,2
458,236,199642,1,2
458,236,199725,1,2
458,236,199808,1,2
458,236,199892,1,2
458,236,199975,1,2
458,236,200058,22,0,B|335:317|254:275|173:317|50:236,1,426,6|0
