osu file format v9

[General]
AudioFilename: B_o_n_w_inst.mp3
AudioLeadIn: 0
PreviewTime: 32792
Countdown: 0
SampleSet: Soft
StackLeniency: 0.5
Mode: 0
LetterboxInBreaks: 0

[Editor]
Bookmarks: 11949,32818,53688,74558,87111,95427,116297
DistanceSpacing: 1
BeatDivisor: 2
GridSize: 4

[Metadata]
Title:Birth of New Witch (Instrumental)
Artist:07th Expansion
Creator:Lanttu
Version:Normal
Source:Umineko no Naku Koro ni Chiru
Tags:EP6 Luck Ganriki Yunacat

[Difficulty]
HPDrainRate:5
CircleSize:4
OverallDifficulty:5
ApproachRate:5
SliderMultiplier:1
SliderTickRate:0.5

[Events]
//Background and Video events
0,0,"bg.png"
//Break Periods
2,74732,78550
//Storyboard Layer 0 (Background)
//Storyboard Layer 1 (Fail)
//Storyboard Layer 2 (Pass)
//Storyboard Layer 3 (Foreground)
//Storyboard Sound Samples
//Background Colour Transformations
3,100,0,0,0

[TimingPoints]
11923,326.086956521739,4,2,1,100,1,0
34422,-100,4,1,1,50,0,0
34586,-100,4,2,1,100,0,0
35401,-100,4,1,1,50,0,0
35564,-100,4,2,1,100,0,0
37031,-100,4,1,1,50,0,0
37194,-100,4,2,1,100,0,0
38009,-100,4,1,1,50,0,0
38172,-100,4,2,1,100,0,0
39640,-100,4,1,1,50,0,0
39803,-100,4,2,1,100,0,0
40618,-100,4,1,1,50,0,0
40781,-100,4,2,1,100,0,0
42249,-100,4,1,1,50,0,0
42412,-100,4,2,1,100,0,0
44857,-100,4,1,1,50,0,0
45020,-100,4,2,1,100,0,0
45836,-100,4,1,1,50,0,0
45999,-100,4,2,1,100,0,0
47466,-100,4,1,1,50,0,0
47629,-100,4,2,1,100,0,0
48444,-100,4,1,1,50,0,0
48607,-100,4,2,1,100,0,0
50075,-100,4,1,1,50,0,0
50238,-100,4,2,1,100,0,0
51053,-100,4,1,1,50,0,0
51216,-100,4,2,1,100,0,0
52683,-100,4,1,1,50,0,0
52846,-100,4,2,1,100,0,0
53825,-100,4,2,1,20,0,0
56270,-100,4,1,1,20,0,0
56433,-100,4,2,1,70,0,0
57901,-100,4,1,1,30,0,0
58064,-100,4,2,1,70,0,0
58879,-100,4,1,1,30,0,0
59042,-100,4,2,1,70,0,0
60509,-100,4,1,1,30,0,0
60672,-100,4,2,1,70,0,0
61488,-100,4,1,1,30,0,0
61651,-100,4,2,1,70,0,0
63118,-100,4,1,1,30,0,0
63281,-100,4,2,1,70,0,0
64096,-100,4,1,1,30,0,0
64259,-100,4,2,1,70,0,0
65727,-100,4,1,1,30,0,0
65890,-100,4,2,1,70,0,0
66705,-100,4,1,1,30,0,0
66868,-100,4,2,1,70,0,0
68336,-100,4,1,1,30,0,0
68499,-100,4,2,1,70,0,0
69314,-100,4,1,1,30,0,0
69477,-100,4,2,1,70,0,0
70944,-100,4,1,1,30,0,0
71107,-100,4,2,1,70,0,0
74531,-100,4,2,1,100,0,0
79749,-100,4,1,1,50,0,0
79912,-100,4,2,1,100,0,0
81379,-100,4,1,1,50,0,0
81542,-100,4,2,1,100,0,0
82357,-100,4,1,1,50,0,0
82520,-100,4,2,1,100,0,0
83988,-100,4,1,1,50,0,0
84151,-100,4,2,1,100,0,0
86596,-100,4,1,1,50,0,0
86759,-100,4,2,1,100,0,0
87575,-100,4,1,1,50,0,0
87738,-100,4,2,1,100,0,0
89205,-100,4,1,1,50,0,0
89368,-100,4,2,1,100,0,0
90183,-100,4,1,1,50,0,0
90346,-100,4,2,1,100,0,0
91814,-100,4,1,1,50,0,0
91977,-100,4,2,1,100,0,0
92792,-100,4,1,1,50,0,0
92955,-100,4,2,1,100,0,0
94422,-100,4,1,1,50,0,0
94586,-100,4,2,1,100,0,0
95564,-100,4,2,1,30,0,0
98009,-100,4,1,1,30,0,0
98172,-100,4,2,1,70,0,0
99640,-100,4,1,1,30,0,0
99803,-100,4,2,1,70,0,0
100618,-100,4,1,1,30,0,0
100781,-100,4,2,1,70,0,0
102249,-100,4,1,1,30,0,0
102412,-100,4,2,1,70,0,0
103227,-100,4,1,1,30,0,0
103390,-100,4,2,1,70,0,0
104857,-100,4,1,1,30,0,0
105020,-100,4,2,1,70,0,0
105836,-100,4,1,1,30,0,0
105999,-100,4,2,1,70,0,0
107466,-100,4,1,1,30,0,0
107629,-100,4,2,1,70,0,0
108444,-100,4,1,1,30,0,0
108607,-100,4,2,1,70,0,0
110075,-100,4,1,1,30,0,0
110238,-100,4,2,1,70,0,0
111053,-100,4,1,1,30,0,0
111216,-100,4,2,1,70,0,0
112683,-100,4,1,1,40,0,0
112846,-100,4,2,1,70,0,0
116270,-100,4,2,1,100,0,1
117575,-100,4,2,1,100,0,0
117901,-100,4,1,1,50,0,0
118064,-100,4,2,1,100,0,0
118879,-100,4,1,1,50,0,0
119042,-100,4,2,1,100,0,0
121488,-100,4,2,1,100,0,1
122792,-100,4,2,1,100,0,0
123118,-100,4,1,1,50,0,0
123281,-100,4,2,1,100,0,0
124096,-100,4,1,1,50,0,0
124259,-100,4,2,1,100,0,0
126705,-100,4,2,1,100,0,1
128009,-100,4,2,1,100,0,0
128336,-100,4,1,1,51,0,0
128499,-100,4,2,1,100,0,0
129314,-100,4,1,1,50,0,0
129477,-100,4,2,1,100,0,0
131922,-100,4,2,1,100,0,1
133227,-100,4,2,1,100,0,0
133553,-100,4,1,1,50,0,0
133716,-100,4,2,1,100,0,0
134531,-100,4,1,1,50,0,0
135183,-100,4,2,1,100,0,0
137140,-100,4,2,1,100,0,1
137303,-100,4,2,1,100,0,0

[Colours]
Combo1 : 255,175,50
Combo2 : 220,20,0
Combo3 : 124,27,27

[HitObjects]
476,68,32792,6,0,B|436:44|380:48,1,100,4|0
408,144,33445,2,0,B|361:138|312:164,1,100,8|0
272,192,33933,2,0,B|252:140|208:116,1,100,2|0
164,100,34423,2,0,B|64:100,2,100,0|8|0
112,188,35401,6,0,B|56:188|20:228,2,100,0|0|8
100,288,36379,1,0
100,288,36543,2,0,B|160:344|236:344,1,150,2|0
336,344,37357,1,8
320,144,38009,6,0,B|268:140|232:184,1,100
312,240,38663,2,0,B|368:236|408:264,1,100,8|0
448,288,39151,2,0,B|492:252|492:200,1,100,2|0
492,152,39640,2,0,B|492:52,2,100,0|8|0
400,112,40619,6,0,B|400:56|356:28,2,100,0|0|8
300,108,41597,1,0
300,108,41759,2,0,B|248:48|168:44,1,150,2|0
68,44,42576,1,8
164,220,43227,6,0,B|165:270|123:307,2,100,4|0|8
64,224,44206,1,0
64,224,44369,2,0,B|64:168|112:136,1,100,2|0
156,120,44858,2,0,B|260:120,2,100,0|8|0
164,220,45836,6,0,B|220:224|244:276,1,100
300,192,46489,2,0,B|332:236|332:292,1,100,8|0
336,332,46978,2,0,B|408:368|480:332,1,150,2|0
408,264,47792,1,8
480,76,48444,6,0,B|444:40|388:48,1,100
388,148,49096,2,0,B|336:152|300:192,1,100,8|0
272,232,49587,2,0,B|212:184|132:184,1,150,2|0
32,188,50402,1,8
84,272,50727,1,0
132,184,51054,6,0,B|152:136|192:104,1,100
280,56,51706,2,0,B|312:60|336:52,2,50,8|0|0
308,152,52358,2,0,B|368:156|408:124,2,100,2|0|8
372,228,53336,2,0,B|432:220|472:180,1,100,0|4
256,192,53826,12,0,56272
396,112,57250,2,0,B|316:112|316:212|232:212,1,200
232,312,58227,2,0,B|176:312|148:264,2,100,8|0|0
36,276,59531,6,0,B|132:244|176:140,1,200,8|0
184,40,60509,1,0
128,124,60837,2,0,B|176:148|232:144,1,100,8|0
324,132,61488,22,0,B|400:208|516:188,1,200,0|8
452,104,62466,2,0,B|395:195|440:303,1,200,0|0
500,372,63444,1,8
312,308,64097,6,0,B|336:264|324:212,2,100,0|0|8
196,212,65238,2,0,B|184:292|120:336,1,150
24,360,66053,1,8
24,160,66706,22,0,B|108:160|76:36|164:36,1,200,0|8
256,72,67684,1,0
280,168,68010,2,0,B|336:148|348:100,2,100,0|0|8
436,44,69314,6,0,B|460:88|444:144,1,100
388,224,69966,1,8
476,348,70456,2,0,B|420:300|332:308,1,150
236,316,71271,2,0,B|184:304|156:260,1,100,8|0
256,192,71923,12,4,74532
256,228,79750,22,0,B|256:128,1,100
172,180,80401,2,0,B|152:132|96:124,1,100,8|0
44,124,80890,2,0,B|60:172|44:224,1,100,2|0
32,272,81379,2,0,B|132:272,2,100,0|8|0
96,352,82358,6,0,B|136:352|136:352|168:352|192:328,1,100
256,252,83010,2,0,B|256:308|308:332,1,100,8|0
356,344,83499,2,0,B|356:276|416:276|416:212,1,150,2|0
416,112,84314,1,8
504,160,84640,1,0
416,212,84966,6,0,B|360:208|332:164,1,100,4|0
264,240,85619,2,0,B|232:196|232:144,1,100,8|0
228,96,86108,2,0,B|188:124|128:124,1,100,2|0
84,128,86597,2,0,B|-16:128,2,100,0|8|0
36,216,87575,6,0,B|36:260|84:256|84:300,1,100
168,352,88227,2,0,B|224:352|256:312,1,100,8|0
256,264,88716,2,0,B|360:264,1,100,2|0
392,300,89206,2,0,B|420:348|480:348,1,100,0|8
476,148,90184,6,0,B|424:148|388:108,1,100
476,148,90836,2,0,B|476:200|436:236,1,100,8|0
392,212,91325,2,0,B|344:184|296:212,1,100,2|0
252,236,91814,2,0,B|152:236,2,100,0|8|0
200,148,92792,6,0,B|152:128|120:88,1,100
212,44,93444,2,0,B|244:48|268:40,2,50,8|0|0
120,88,94096,2,0,B|124:148|92:188,2,100,2|0|8
200,148,95074,2,0,B|192:208|152:248,1,100,0|4
256,192,95564,12,0,98010
256,140,98988,2,0,B|256:236|164:224|164:312,1,200
264,308,99966,2,0,B|312:280|328:232,2,100,8|0|0
408,172,101271,6,0,B|400:244|436:320,2,150,8|0|0
448,80,102575,2,0,B|396:60|352:88,1,100,8|0
264,136,103227,2,0,B|164:136|180:48|92:48,1,200,0|8
148,188,104369,2,0,B|64:180|4:236,1,150
100,276,105184,2,0,B|128:372,2,100,8|0|0
296,232,106488,22,0,B|324:312|392:348,2,150,8|0|0
396,244,107792,2,0,B|448:260|496:244,1,100,8|0
444,156,108445,2,0,B|324:152|292:44,1,200,0|8
296,196,109586,2,0,B|244:140|160:140,1,150
60,140,110401,2,0,B|60:240,2,100,8|0|0
144,196,111379,6,0,B|144:252|164:296,1,100,0|8
284,208,112195,2,0,B|308:284|380:320,1,150
432,236,113010,2,0,B|416:184|368:160,1,100,8|0
256,192,113499,12,0,115619
336,152,116270,22,0,B|232:152,1,100,4|0
176,232,116923,2,0,B|276:232,1,100,12|0
348,304,117576,6,0,B|404:304|440:268,1,100,2|0
440,168,118227,2,0,B|440:68,2,100,8|0|0
336,152,119206,1,0
260,88,119532,2,0,B|216:56|168:88,1,100,8|0
68,72,120184,6,0,B|27:95|0:155|27:215|67:239,1,200,0|8
124,156,121162,1,0
216,112,121488,6,0,B|216:216,1,100,4|0
296,272,122139,2,0,B|296:172,1,100,12|0
380,228,122792,6,0,B|380:164|440:164,1,100,2|0
476,260,123445,2,0,B|476:368,2,100,8|0|0
392,312,124423,1,0
296,340,124749,2,0,B|256:368|200:368,1,100,8|0
116,316,125401,6,0,B|75:292|47:232|75:172|115:148,1,200,0|8
176,232,126379,1,0
176,232,126706,6,0,B|280:232,1,100,4|0
336,152,127357,2,0,B|236:152,1,100,12|0
284,64,128010,6,0,B|244:36|188:36,2,100,2|0|8
336,152,128988,2,0,B|372:200|432:200,1,100
476,284,129640,1,0
380,292,129966,2,0,B|331:291|295:339,1,100,8|0
216,272,130619,6,0,B|191:312|131:340|72:312|48:272,1,200,0|8
132,216,131597,1,0
216,272,131923,6,0,B|216:168,1,100,4|0
296,112,132574,2,0,B|296:212,1,100,12|0
296,312,133227,6,0,B|332:264|396:264,1,100,2|0
480,248,133879,2,0,B|468:200|420:172,1,100,8|0
344,108,134532,5,0
256,156,134858,1,0
168,108,135184,1,8
256,64,135510,1,0
312,148,135836,6,0,B|356:192,4,50,2|0|0|2|0
256,232,136814,1,2
200,148,137141,1,6
