osu file format v9

[General]
AudioFilename: B_o_n_w_inst.mp3
AudioLeadIn: 0
PreviewTime: 32792
Countdown: 0
SampleSet: Soft
StackLeniency: 0.5
Mode: 0
LetterboxInBreaks: 0

[Editor]
Bookmarks: 11949,32818,53688,74558,87111,95427,116297
DistanceSpacing: 1
BeatDivisor: 2
GridSize: 4

[Metadata]
Title:Birth of New Witch (Instrumental)
Artist:07th Expansion
Creator:Lanttu
Version:Hard
Source:Umineko no Naku Koro ni Chiru
Tags:EP6 Luck Ganriki Yunacat

[Difficulty]
HPDrainRate:7
CircleSize:4
OverallDifficulty:7
ApproachRate:7
SliderMultiplier:1.4
SliderTickRate:0.5

[Events]
//Background and Video events
0,0,"bg.png"
//Break Periods
2,74731,78849
//Storyboard Layer 0 (Background)
//Storyboard Layer 1 (Fail)
//Storyboard Layer 2 (Pass)
//Storyboard Layer 3 (Foreground)
//Storyboard Sound Samples
//Background Colour Transformations
3,100,0,0,0

[TimingPoints]
11923,326.086956521739,4,2,1,100,1,0
34422,-100,4,1,1,50,0,0
34586,-100,4,2,1,100,0,0
35401,-100,4,1,1,50,0,0
35564,-100,4,2,1,100,0,0
37031,-100,4,1,1,50,0,0
37194,-100,4,2,1,100,0,0
38009,-100,4,1,1,50,0,0
38172,-100,4,2,1,100,0,0
39640,-100,4,1,1,50,0,0
39803,-100,4,2,1,100,0,0
40618,-100,4,1,1,50,0,0
40781,-100,4,2,1,100,0,0
42249,-100,4,1,1,50,0,0
42412,-100,4,2,1,100,0,0
44857,-100,4,1,1,50,0,0
45020,-100,4,2,1,100,0,0
45836,-100,4,1,1,50,0,0
45999,-100,4,2,1,100,0,0
47466,-100,4,1,1,50,0,0
47629,-100,4,2,1,100,0,0
48444,-100,4,1,1,50,0,0
48607,-100,4,2,1,100,0,0
50075,-100,4,1,1,50,0,0
50238,-100,4,2,1,100,0,0
51053,-100,4,1,1,50,0,0
51216,-100,4,2,1,100,0,0
52683,-100,4,1,1,50,0,0
52846,-100,4,2,1,100,0,0
53825,-100,4,2,1,20,0,0
56270,-100,4,1,1,20,0,0
56433,-100,4,2,1,70,0,0
57901,-100,4,1,1,30,0,0
58064,-100,4,2,1,70,0,0
58879,-100,4,1,1,30,0,0
59042,-100,4,2,1,70,0,0
60509,-100,4,1,1,30,0,0
60672,-100,4,2,1,70,0,0
61488,-100,4,1,1,30,0,0
61651,-100,4,2,1,70,0,0
63118,-100,4,1,1,30,0,0
63281,-100,4,2,1,70,0,0
64096,-100,4,1,1,30,0,0
64259,-100,4,2,1,70,0,0
65727,-100,4,1,1,30,0,0
65890,-100,4,2,1,70,0,0
66705,-100,4,1,1,30,0,0
66868,-100,4,2,1,70,0,0
68336,-100,4,1,1,30,0,0
68499,-100,4,2,1,70,0,0
69314,-100,4,1,1,30,0,0
69477,-100,4,2,1,70,0,0
70944,-100,4,1,1,30,0,0
71107,-100,4,2,1,70,0,0
74531,-100,4,2,1,100,0,0
79749,-100,4,1,1,50,0,0
79912,-100,4,2,1,100,0,0
81379,-100,4,1,1,50,0,0
81542,-100,4,2,1,100,0,0
82357,-100,4,1,1,50,0,0
82520,-100,4,2,1,100,0,0
83988,-100,4,1,1,50,0,0
84151,-100,4,2,1,100,0,0
86596,-100,4,1,1,50,0,0
86759,-100,4,2,1,100,0,0
87575,-100,4,1,1,50,0,0
87738,-100,4,2,1,100,0,0
89205,-100,4,1,1,50,0,0
89368,-100,4,2,1,100,0,0
90183,-100,4,1,1,50,0,0
90346,-100,4,2,1,100,0,0
91814,-100,4,1,1,50,0,0
91977,-100,4,2,1,100,0,0
92792,-100,4,1,1,50,0,0
92955,-100,4,2,1,100,0,0
94422,-100,4,1,1,50,0,0
94586,-100,4,2,1,100,0,0
95564,-100,4,2,1,30,0,0
98009,-100,4,1,1,30,0,0
98172,-100,4,2,1,70,0,0
99640,-100,4,1,1,30,0,0
99803,-100,4,2,1,70,0,0
100618,-100,4,1,1,30,0,0
100781,-100,4,2,1,70,0,0
102249,-100,4,1,1,30,0,0
102412,-100,4,2,1,70,0,0
103227,-100,4,1,1,30,0,0
103390,-100,4,2,1,70,0,0
104857,-100,4,1,1,30,0,0
105020,-100,4,2,1,70,0,0
105836,-100,4,1,1,30,0,0
105999,-100,4,2,1,70,0,0
107466,-100,4,1,1,30,0,0
107629,-100,4,2,1,70,0,0
108444,-100,4,1,1,30,0,0
108607,-100,4,2,1,70,0,0
110075,-100,4,1,1,30,0,0
110238,-100,4,2,1,70,0,0
111053,-100,4,1,1,30,0,0
111216,-100,4,2,1,70,0,0
112683,-100,4,1,1,40,0,0
112846,-100,4,2,1,70,0,0
116270,-100,4,2,1,100,0,1
117575,-100,4,2,1,100,0,0
117901,-100,4,1,1,50,0,0
118064,-100,4,2,1,100,0,0
118879,-100,4,1,1,50,0,0
119042,-100,4,2,1,100,0,0
120509,-100,4,1,1,50,0,0
120672,-100,4,2,1,100,0,0
121488,-100,4,2,1,100,0,1
122792,-100,4,2,1,100,0,0
123118,-100,4,1,1,50,0,0
123281,-100,4,2,1,100,0,0
124096,-100,4,1,1,50,0,0
124259,-100,4,2,1,100,0,0
125727,-100,4,1,1,50,0,0
125890,-100,4,2,1,100,0,0
126705,-100,4,2,1,100,0,1
128009,-100,4,2,1,100,0,0
128336,-100,4,1,1,51,0,0
128499,-100,4,2,1,100,0,0
129314,-100,4,1,1,50,0,0
129477,-100,4,2,1,100,0,0
130944,-100,4,1,1,50,0,0
131107,-100,4,2,1,100,0,0
131922,-100,4,2,1,100,0,1
133227,-100,4,2,1,100,0,0
133553,-100,4,1,1,50,0,0
133716,-100,4,2,1,100,0,0
134531,-100,4,1,1,50,0,0
135183,-100,4,2,1,100,0,0
136814,-100,4,1,1,50,0,0
136977,-100,4,2,1,100,0,0
137140,-100,4,2,1,100,0,1
137303,-100,4,2,1,100,0,0

[Colours]
Combo1 : 255,175,50
Combo2 : 220,20,0
Combo3 : 124,27,27

[HitObjects]
488,56,32792,6,0,B|464:28|424:32,1,70,4|0
436,100,33118,2,0,B|399:97|373:128,1,70,0|0
428,168,33444,2,0,B|376:220|376:296,1,140,8|0
404,360,33933,2,0,B|376:296|304:264,1,140,2|0
240,240,34422,2,0,B|204:228|180:204,2,70,0|0|8
252,308,34912,6,0,B|227:336|196:350,1,70
160,292,35238,2,0,B|126:308|92:308,1,70
84,240,35564,6,0,B|46:242|14:230,1,70
144,172,36053,2,0,B|60:176|4:152,1,140,8|0
76,168,36542,2,0,B|96:96|149:46,1,140,2|0
192,104,37032,1,0
248,60,37195,1,0
316,40,37358,1,8
192,104,37684,1,0
320,160,38010,6,0,B|284:164|256:192,1,70
320,160,38336,2,0,B|324:196|352:224,1,70
320,160,38662,2,0,B|392:144|448:96,1,140,8|0
464,32,39151,2,0,B|444:100|472:168,1,140,2|0
496,236,39640,2,0,B|508:268|512:308,2,70,0|0|8
436,272,40129,6,0,B|448:320|444:356,2,70
372,296,40618,6,0,B|380:336|372:368,2,70
324,164,41270,1,8
260,188,41433,1,0
199,225,41596,1,0
236,280,41760,2,0,B|196:220|136:184,1,140,2|0
72,152,42249,1,0
20,24,42575,1,8
132,108,42901,1,0
72,236,43227,6,0,B|56:268|32:292,1,70,4|0
72,352,43553,2,0,B|100:328|116:300,1,70
156,240,43879,2,0,B|192:176|248:132,1,140,8|0
220,68,44368,2,0,B|244:136|316:164,1,140,2|0
368,116,44858,2,0,B|404:116|440:128,2,70,0|0|8
328,56,45347,2,0,B|356:40|400:48,2,70
296,120,45836,5,0
272,184,45999,1,0
260,252,46162,1,0
296,120,46488,2,0,B|320:192|372:236,1,140,8|0
324,288,46977,2,0,B|374:344|439:365,1,140,2|0
508,364,47466,2,0,B|504:324|524:296,2,70,0|0|8
408,264,48118,1,0
496,156,48445,6,0,B|492:116|476:88,1,70
412,64,48771,2,0,B|400:100|420:132,1,70
476,88,49097,2,0,B|412:64|364:8,1,140,8|0
316,60,49586,2,0,B|304:136|240:172,1,140,2|0
180,204,50075,1,0
112,228,50238,1,0
44,236,50401,1,8
72,172,50564,2,0,B|120:220|136:300,1,140
84,344,51053,6,0,B|136:296|212:288,1,140
280,284,51542,1,0
348,288,51705,1,8
416,268,51868,1,0
472,224,52032,1,0
408,200,52195,6,0,B|336:180|296:116,1,140,2|0
256,64,52684,1,0
392,32,53010,1,8
460,156,53336,1,0
460,156,53499,1,0
460,156,53662,1,4
256,192,53825,12,0,56271
448,104,56760,6,0,B|476:37,1,70,0|8
424,168,57249,2,0,B|328:168|344:268|248:268,1,210,0|0
180,268,57901,1,0
308,328,58227,2,0,B|304:256|260:196,1,140,8|0
212,328,58879,6,0,B|188:256|128:216,1,140,0|0
20,304,59532,2,0,B|72:252|60:172,1,140,8|0
52,104,60021,1,0
192,116,60347,1,0
224,52,60510,1,0
180,184,60836,2,0,B|244:160|320:172,1,140,8|0
348,308,61488,22,0,B|348:224|468:236|468:148,1,210
468,80,62140,1,8
340,132,62466,2,0,B|360:248|448:304,1,210
504,348,63118,1,0
456,216,63445,1,8
348,308,63771,2,0,B|320:328|276:336,1,70
216,348,64097,6,0,B|228:252|168:156,1,140
132,336,64748,1,8
120,268,64911,1,0
4,188,65237,2,0,B|72:164|116:108,1,140
156,48,65726,1,0
16,48,66052,1,8
4,188,66378,2,0,B|24:220|24:256,1,70
60,316,66705,22,0,B|160:316|112:192|212:192,1,210
280,192,67357,1,8
244,328,67683,1,0
312,328,67846,1,0
280,192,68172,1,0
348,192,68335,2,0,B|420:176|464:100,2,140,0|8|0
488,180,69313,6,0,B|464:104|420:56,1,140
308,136,69965,1,8
348,192,70128,1,0
332,332,70455,2,0,B|312:268|256:212,1,140
208,168,70944,1,0
96,252,71270,2,0,B|120:184|116:112,1,140,8|0
256,192,71922,12,4,74531
256,228,79749,22,0,B|256:160,1,70
188,176,80074,2,0,B|188:136|164:112,1,70
116,164,80400,2,0,B|60:120|-16:120,1,140,8|0
8,188,80889,2,0,B|64:140|84:72,1,140,2|0
152,96,81378,2,0,B|160:56|140:28,2,70,0|0|8
92,224,82031,6,0,B|68:252|36:268,2,70
148,188,82520,1,0
152,256,82683,2,0,B|172:328|248:348,1,140,0|8
316,360,83172,1,0
384,336,83335,1,0
452,352,83498,2,0,B|452:292|512:292|512:228,1,140,2|0
504,160,83987,1,0
456,112,84150,6,2,B|472:72,2,35,0|0|10
428,176,84476,1,0
376,224,84639,1,0
312,256,84802,1,0
244,276,84965,6,0,B|212:292|176:288,1,70,4|0
160,356,85291,2,0,B|124:344|108:308,1,70,0|0
176,288,85618,2,0,B|144:228|152:152,1,140,8|0
208,112,86107,2,0,B|156:164|76:168,1,140,2|0
12,168,86596,2,0,B|4:204|12:240,2,70,0|0|8
48,108,87085,6,0,B|56:72|48:36,2,70
48,108,87574,2,0,B|100:56|176:52,1,140
244,48,88063,1,0
316,52,88226,2,0,B|368:56|396:40,2,70,8|0|0
288,120,88715,2,0,B|368:136|424:108,1,140,2|0
468,52,89205,2,0,B|500:72|496:112,1,70
424,108,89531,2,0,B|408:176|436:248,1,140,8|0
468,308,90020,1,0
434,245,90183,6,0,B|400:232|364:248,1,70
404,308,90509,2,0,B|364:304|339:337,1,70
396,376,90835,2,0,B|344:320|272:316,1,140,8|0
232,372,91324,2,0,B|164:340|140:268,1,140,2|0
124,204,91813,2,0,B|116:168|128:132,2,70,0|0|8
192,224,92302,2,0,B|152:288|72:284,1,140
52,216,92791,6,0,B|44:136|76:76,1,140
128,124,93281,1,0
192,152,93444,1,8
260,164,93607,1,0
328,164,93770,1,0
296,100,93933,6,0,B|248:160|256:232,1,140,2|0
272,300,94422,1,0
396,240,94748,1,8
368,104,95074,1,0
368,104,95237,1,0
368,104,95400,1,4
256,192,95563,12,0,98009
256,228,98498,22,0,B|256:160,1,70,0|8
152,64,98987,2,0,B|152:160|60:148|60:244,1,210
60,316,99639,1,0
168,228,99965,2,0,B|180:304|256:328,1,140,8|0
168,228,100618,6,0,B|244:216|268:140,1,140,0|0
360,36,101270,2,0,B|352:108|372:180,1,140,8|0
392,240,101759,1,0
476,352,102085,1,0
428,300,102248,1,0
436,160,102574,2,0,B|356:144|308:204,1,140,8|0
312,340,103226,22,0,B|212:340|228:252|128:252,1,210
60,252,103878,1,8
140,368,104205,1,0
96,312,104368,1,0
96,172,104694,1,0
28,188,104857,2,0,B|-4:124|12:52,2,140,0|8|0
76,236,105672,6,0,B|52:264|12:256,1,70
152,256,106161,2,0,B|228:264|284:224,1,140,0|8
336,176,106650,1,0
196,188,106976,2,0,B|192:260|240:320,1,140
296,360,107465,1,0
436,340,107791,1,8
348,228,108118,2,0,B|380:208|384:168,1,70
312,164,108444,22,0,B|224:124|188:72,1,140
252,212,109096,2,0,B|308:160|320:92,1,140,8|0
324,24,109585,1,0
196,80,109911,1,0
152,24,110074,1,0
68,136,110400,2,0,B|72:208|40:272,2,140,8|0|0
172,232,111378,5,0
292,308,111705,1,8
220,308,111868,1,0
340,232,112194,2,0,B|364:308|432:344,1,140
488,368,112683,1,0
432,240,113009,2,0,B|408:164|340:128,1,140,8|0
256,192,113498,12,0,115944
360,96,116271,22,0,B|216:96,1,140,4|0
152,288,116922,2,0,B|296:288,1,140,12|0
188,192,117575,6,0,B|112:192|60:140,1,140,2|0
52,72,118064,2,0,B|16:80|-4:112,1,70,0|8
61,141,118390,2,0,B|67:177|46:208,1,70,0|0
8,340,118879,6,0,B|80:324|144:360,1,140
196,228,119531,2,0,B|264:200|301:139,1,140,8|0
372,156,120020,2,0,B|376:116|352:88,1,70
390,233,120509,1,0
283,330,120835,1,8
256,192,121162,1,0
352,296,121487,6,0,B|352:152,1,140,4|0
160,88,122139,2,0,B|160:232,1,140,12|0
256,124,122791,6,0,B|272:52|352:32,1,140,2|0
388,92,123281,2,0,B|424:92|456:80,1,70,0|8
388,92,123607,2,0,B|397:126|420:156,1,70,0|0
428,296,124096,6,0,B|376:244|352:180,1,140
256,80,124748,2,0,B|220:61|197:107|175:152|139:134,1,140,8|0
72,136,125237,2,0,B|71:100|103:76,1,70
118,219,125726,1,0
215,326,126052,1,8
256,192,126379,1,0
152,288,126705,6,0,B|296:288,1,140,4|0
360,96,127357,2,0,B|216:96,1,140,12|0
188,232,128009,6,0,B|256:204|324:232,1,140,2|0
388,264,128498,2,0,B|424:280|464:280,1,70,0|8
452,208,128824,2,0,B|492:212|524:192,1,70
380,188,129313,6,0,B|328:140|256:116,1,140
256,256,129965,2,0,B|184:240|120:272,1,140,8|0
80,212,130455,2,0,B|52:236|48:272,1,70
122,151,130944,1,0
229,54,131270,1,8
256,192,131597,1,0
160,88,131922,6,0,B|160:232,1,140,4|0
352,296,132574,2,0,B|352:152,1,140,4|0
256,56,133226,6,0,B|256:196,1,140,2|0
256,264,133715,2,0,B|244:300|216:320,1,70,0|8
256,264,134041,2,0,B|268:300|296:320,1,70
256,192,134531,6,0,B|320:228|392:204,1,140
256,192,135183,2,0,B|192:156|120:180,1,140,8|0
124,248,135672,1,0
60,216,135835,2,2,B|24:236,8,35,2|0|0|0|0|0|0|0|8
452,168,136813,1,0
256,192,137140,5,6
