osu file format v5

[General]
AudioFilename: Hard to Start.ogg
AudioLeadIn: 0
PreviewTime: -1
Countdown: 1
SampleSet: Normal
StackLeniency: 0.7
Mode: 0
LetterboxInBreaks: 1
EditorDistanceSpacing: 0.800000011920929

[Metadata]
Title:Hard to start
Artist:015B
Creator:lenppqq
Version:Beginner
Source:DJ Max
Tags:DJ Max

[Difficulty]
HPDrainRate:2
CircleSize:4
OverallDifficulty:2
SliderMultiplier:1.4
SliderTickRate:1

[Events]
//Background and Video events
Video,0,"Hard to Start (1).avi"
//Break Periods
2,57403,58789
2,87188,99825
//Storyboard Layer 0 (Background)
//Storyboard Layer 1 (Fail)
//Storyboard Layer 2 (Pass)
//Storyboard Layer 3 (Foreground)
Sprite,Foreground,Centre,"hts.JPG",320,240 M,0,2842,,320,240
//Storyboard Sound Samples
//Background Colour Transformations
3,100,0,0,0

[TimingPoints]
8560.92286627575,428.571428571429,4,1,0,100,1,0

[HitObjects]
64,352,8560,1,0
144,256,8989,1,0
176,336,9418,1,0
240,256,9846,1,0
288,352,10275,1,0
368,240,10703,1,0
416,320,11132,1,0
416,320,11346,1,0
448,160,11989,5,0
384,64,12418,1,0
320,128,12846,1,0
240,48,13275,1,0
176,144,13703,1,0
112,48,14132,1,0
32,144,14560,1,0
112,48,14989,1,0
208,144,15418,5,0
208,144,15632,1,0
208,144,15846,1,0
208,144,16060,1,0
208,144,16275,1,0
336,160,16703,1,0
336,160,16918,1,0
336,160,17132,1,0
448,144,17560,1,0
448,144,17775,1,0
448,144,17989,1,0
448,144,18203,1,0
448,144,18418,1,0
144,352,18846,6,0,C|352:224|368:176,1,280
336,128,20132,2,0,C|288:80|256:96,1,140
144,96,20989,2,0,C|96:176|160:224|96:288,1,280
128,304,22275,6,0,L|112:112|336:64,1,420
416,80,24203,1,0
416,128,24418,1,0
416,176,24632,1,0
416,224,24846,1,0
128,64,25703,6,0,L|128:320|320:320,1,420
256,192,27632,1,0
256,144,27846,1,0
256,112,28060,1,0
256,80,28275,1,0
80,336,29132,5,0
176,336,29560,1,0
272,336,29989,1,0
352,320,30418,2,0,L|352:224,8,70
352,192,32560,5,0
352,96,32989,1,0
352,0,33418,1,0
240,320,34060,1,0
240,240,34489,1,0
240,192,34703,1,0
240,160,34918,1,0
240,112,35132,1,0
256,192,35989,12,0,36846
128,224,37489,5,0
176,224,37703,1,0
288,224,38132,1,0
352,208,38346,1,0
416,224,38560,1,0
224,96,39418,6,0,L|96:96,6,70
288,208,41132,5,0
432,176,41989,2,0,L|288:0,1,210
128,128,43489,5,0
128,176,43703,1,0
128,256,44132,1,0
224,256,44560,1,0
304,256,44989,1,0
400,256,45418,1,0
256,192,46275,12,0,49060
91,328,49703,6,0,C|278:47|357:129,1,420
409,340,51418,2,0,C|289:39|219:90|194:95,1,420
256,192,53132,12,0,56346
256,192,56560,5,8
256,192,56989,1,8
256,192,57203,1,8
256,192,59989,5,0
304,192,60203,1,0
352,192,60418,1,0
416,176,60632,1,0
480,160,60846,1,0
400,64,61489,5,0
304,112,61918,1,0
240,96,62132,1,0
176,96,62346,1,0
112,112,62560,1,0
80,320,63418,5,0
128,304,63632,1,0
176,304,63846,1,0
224,304,64060,1,0
272,320,64275,1,0
400,288,64918,5,0
320,192,65346,1,0
320,128,65560,1,0
304,80,65775,1,0
256,64,65989,1,0
112,176,66846,5,0
160,256,67275,1,0
240,320,67703,1,0
352,320,68132,1,0
432,272,68453,1,0
480,160,68882,1,0
416,112,69203,1,0
368,80,69418,1,0
160,80,70168,5,0
96,112,70382,1,0
48,160,70703,1,0
64,208,70918,1,0
96,256,71132,1,0
176,368,71668,1,0
272,352,72203,1,0
336,336,72418,1,0
336,272,72632,1,0
368,240,72846,1,0
96,160,73703,6,0,C|240:208,1,140
288,240,74346,1,0
336,288,74560,1,0
448,176,75203,5,0
448,80,75418,1,0
352,80,75846,1,0
256,80,76275,1,0
176,80,77132,6,0,C|144:144,1,140
64,144,77989,1,0
64,240,78418,1,0
64,288,78632,1,0
112,336,78846,2,0,C|192:320|160:240|368:80,1,420
368,176,80560,5,0
256,48,81203,1,0
224,144,81418,1,0
144,48,81846,1,0
64,160,82275,1,0
208,160,82703,1,0
208,160,82918,1,0
208,160,83132,1,0
320,176,83775,5,0
384,176,83989,2,0,C|432:112,1,140
464,160,84846,1,0
464,208,85275,1,0
416,208,85703,2,0,C|336:224|288:288,1,280
256,192,101025,12,0,102632
240,112,103275,5,0
240,160,103703,1,0
320,272,104132,1,0
368,208,104560,1,0
432,112,104989,1,0
432,64,105418,1,0
432,32,105846,1,0
304,48,106275,5,0
256,96,106703,1,0
224,160,107132,1,0
208,224,107560,1,0
208,288,107989,1,0
272,304,108418,2,4,C|432:368,1,140
